#TITLE:LUV TO ME 2011;
#SUBTITLE:;
#ARTIST:tiger YAMATO;
#TITLETRANSLIT:;
#SUBTITLETRANSLIT:;
#ARTISTTRANSLIT:;
#GENRE:;
#CREDIT:SupremeX;
#BANNER:LUV TO ME 2011.png;
#BACKGROUND:LUV TO ME 2011-bg.png;
#LYRICSPATH:;
#CDTITLE:CDTitle.png;
#MUSIC:LUV TO ME 2011.ogg;
#OFFSET:-0.033206;
#SAMPLESTART:49.770000;
#SAMPLELENGTH:12.000000;
#SELECTABLE:YES;
#BPMS:0.000000=159.000000
;
#STOPS:
;
#BGCHANGES:16.000=star7.avi=1.000=0=0=1=====,
28.000=blinds2.avi=1.000=0=0=1=====,
32.000=heart2.avi=1.000=0=0=1=====,
40.000=8 Bubble.avi=1.000=0=0=1=====,
48.000=heart2.avi=1.000=0=0=1=====,
56.000=8 Bubble.avi=1.000=0=0=1=====,
64.000=lady4.avi=1.000=0=0=1=====,
71.000=lady4r.avi=1.000=0=0=1=====,
80.500=blinds2.avi=1.000=0=0=1=====,
96.000=8 Bubble.avi=1.000=0=0=1=====,
107.500=heart2.avi=1.000=0=0=1=====,
112.000=8 Bubble.avi=1.000=0=0=1=====,
120.000=heart2.avi=1.000=0=0=1=====,
128.000=LUV TO ME 2011-bg.png=1.000=0=0=1=====,
132.000=danceb160.avi=1.000=0=0=1=====,
196.000=star7.avi=1.000=0=0=1=====,
212.000=heart2.avi=1.000=0=0=1=====,
228.000=8 Bubble.avi=1.000=0=0=1=====,
256.000=blinds2.avi=1.000=0=0=1=====,
260.000=danceb160.avi=1.000=0=0=1=====,
296.000=LUV TO ME 2011-bg.png=1.000=0=0=1=====,
99999=-nosongbg-=1.000=0=0=0 // don't automatically add -songbackground-
;
#KEYSOUNDS:;
#ATTACKS:;

//---------------dance-single - ----------------
#NOTES:
     dance-single:
     :
     Hard:
     8:
     0.449984,0.507055,0.204871,0.162189,0.046950,369.000000,345.000000,24.000000,19.000000,0.000000,0.000000,0.449984,0.507055,0.204871,0.162189,0.046950,369.000000,345.000000,24.000000,19.000000,0.000000,0.000000:
0000
0000
0000
0000
,
0000
0000
0000
0000
,
0000
0000
0000
0000
,
0000
0000
0000
0000
,
1000
0001
0100
0010
,
1000
0001
0100
0010
,
1000
0001
0100
0010
,
2000
0000
3000
0000
,
0010
0000
0100
0000
0001
0010
0001
0000
,
0100
0000
0010
0000
1000
0100
1000
0000
,
0001
0000
0000
1000
0000
0000
0010
0000
0100
0000
0000
0001
0000
0000
0000
0000
,
1000
0000
0000
0010
0000
0000
1000
0000
0000
0001
0000
0000
0100
0000
0001
0000
,
1000
0000
0010
0000
0100
0100
0100
0000
,
0010
1000
0001
0100
,
0010
1000
0100
0010
0001
0000
1000
0000
,
2200
0000
0000
3300
,
0100
0000
0001
0100
0010
0000
0000
0001
,
0100
0010
0000
1000
0000
0001
0010
0100
,
2000
0000
0000
3010
0000
0000
0000
0100
,
0001
0000
0010
1000
0000
1010
0000
0000
,
0000
0100
1000
0001
0010
0100
1000
0000
,
0010
0100
0000
0010
0000
0001
0010
2000
,
0000
0000
3000
0010
0000
0000
0000
0000
,
0100
0001
1000
0010
0000
0101
0000
0000
,
0001
0000
0000
0000
1000
0000
0000
0010
0200
0000
0000
0000
0000
0000
0300
0000
,
0001
0010
0100
1000
0000
1010
0000
0000
,
0001
0100
0010
1000
0001
0000
0000
0100
,
0010
0000
0000
0100
0000
0000
0002
0000
0000
0000
0000
0000
0000
0000
0003
0000
,
1000
0100
0010
0001
1000
0000
0000
0000
,
0010
0100
0001
1000
0000
0001
0000
0000
,
1000
0010
1000
0000
0100
0001
0100
0000
,
0010
0000
0000
1000
0000
0000
0001
0000
0200
0000
0000
0000
0000
0000
0000
0000
,
0010
0010
0310
0110
,
0001
1000
0010
0100
0000
0101
0000
1000
,
0000
0001
0100
0010
0000
1010
0000
0100
,
0000
0001
0010
0001
0000
1001
0000
0010
,
0000
0100
0001
1000
0010
0100
0001
0100
,
0010
1000
0100
0001
0000
0110
0000
1000
,
0000
0001
0100
0010
0000
0101
0000
1000
,
0000
0010
0001
1000
0000
1100
0000
0001
,
0000
0100
0010
1000
0100
0002
0000
0003
,
2000
0000
3010
0100
0000
1100
0000
0020
,
0000
0130
0001
0010
0000
0011
0000
0200
,
0000
0310
0001
0100
0000
0110
0000
2000
,
0000
3010
0100
1000
0001
0010
0100
0000
,
0010
0000
0100
0001
0000
0101
0000
0010
,
0000
1000
0100
0010
0000
0011
0000
0100
,
0000
0001
0010
0100
0000
1100
0000
0001
,
0100
0010
0100
0001
1000
0010
0200
0000
,
0001
0000
0301
0000
0001
0010
0100
1000
,
0010
0000
0100
0000
0001
0100
0010
0000
,
1000
0000
0000
1000
0000
0000
0001
0000
0100
0000
0000
0100
0000
0000
0000
0000
,
0010
0000
0000
1000
0000
0000
0001
0000
0000
0100
0000
0000
0010
0000
1000
0000
,
0100
0010
0001
0000
0100
0100
0100
0000
,
0010
1000
0100
0010
0001
0000
0101
0000
,
1000
0010
0100
0001
0010
0000
0100
0000
,
2000
0000
0000
3000
,
0001
0000
0100
0010
0000
0100
0000
0001
,
0000
1000
0010
0100
0000
0010
0000
1000
,
0000
0001
0100
0010
0000
0100
0000
0001
,
0000
1000
0100
0000
0001
0100
0010
0001
,
0100
0000
0100
0010
0000
1000
0000
0010
,
0000
0100
0001
0010
0000
0100
0000
0001
,
0000
1000
0010
0100
0000
1000
0000
0001
,
0000
0100
0010
1000
0001
0100
0000
0000
,
0002
0000
0103
0010
0000
0110
0000
2000
,
0000
0000
3010
0100
0000
0110
0000
0002
,
0000
0003
1000
0001
0000
0101
0000
0010
,
0000
1000
0100
0010
0001
0100
0010
1000
,
0001
0000
1000
0010
0000
0110
0000
0001
,
0000
0100
0010
1000
0000
1010
0000
1000
,
0000
0010
0100
0001
0000
0101
0000
0010
,
0000
1000
0100
0010
0001
0100
0020
0000
,
1000
1000
1000
1030
,
0100
0001
0100
0000
0000
0000
0000
0000
;

//---------------dance-single - ----------------
#NOTES:
     dance-single:
     :
     Medium:
     6:
     0.329257,0.380291,0.008536,0.162189,0.042681,270.000000,269.000000,1.000000,19.000000,0.000000,0.000000,0.329257,0.380291,0.008536,0.162189,0.042681,270.000000,269.000000,1.000000,19.000000,0.000000,0.000000:
0000
0000
0000
0000
,
0000
0000
0000
0000
,
0000
0000
0000
0000
,
0000
0000
0000
0000
,
1000
1000
0010
0010
,
0100
0100
0001
0001
,
1000
1000
0010
0010
,
0200
0000
0300
0000
,
0001
0100
0001
0001
,
1000
0010
1000
1000
,
0010
0000
0000
1000
0000
0000
0001
0000
0100
0000
0000
0010
0000
0000
0000
0000
,
0100
0000
0000
0100
0000
0000
0100
0000
0000
0010
0000
0000
1000
0000
0001
0000
,
0100
0000
0010
0000
1000
1000
1000
0000
,
0010
1000
0001
0100
,
0010
1000
0001
0100
,
0020
0000
0000
0030
,
1000
0000
0010
0000
1000
0000
0000
0001
,
0100
0000
0000
0001
0000
0000
1000
0000
,
2000
0000
0000
3010
0000
0000
0000
0100
,
0001
0000
1000
0010
0000
0100
0000
0000
,
0000
0001
0100
0000
0010
0000
1000
0000
,
0010
0100
0000
0010
0000
0001
1000
0020
,
0000
0000
0000
0130
0000
0000
0000
0000
,
0100
0000
0010
1000
0000
1000
0000
0000
,
0001
0000
0100
0000
0020
0000
0000
0030
,
1000
0000
0000
0100
0000
0110
0000
0000
,
0001
0000
0010
0000
0001
0000
0000
0100
,
0010
0000
0000
1000
0000
0000
0002
0000
0000
0000
0000
0000
0000
0000
0003
0000
,
1000
0010
1000
0000
,
0100
0000
0001
1000
0000
0010
0000
0000
,
1000
1000
0001
0001
,
0100
0000
0000
0010
0000
0000
0100
0000
0020
0000
0000
0000
0000
0000
0000
0000
,
0000
0000
0030
0000
,
1000
0000
0010
0100
0000
0010
0000
1000
,
0000
0001
0100
0010
0000
0010
0000
1000
,
0000
0001
0100
0010
0000
0100
0000
0010
,
0000
1000
0010
0100
,
0001
0000
1000
0010
0000
0100
0000
0001
,
0000
1000
0010
0100
0000
0010
0000
1000
,
0000
0001
0100
0010
0000
0100
0000
0001
,
0000
1000
0010
0000
0100
0002
0000
0003
,
2000
0000
0000
3010
0000
0100
0000
0002
,
0000
0000
0000
0103
0000
0010
0000
2000
,
0000
0000
0000
3010
0000
0100
0000
0001
,
0000
1000
0010
0000
0100
0010
1000
0000
,
0010
0000
0100
0001
0000
0100
0000
0010
,
0000
1000
0010
0100
0000
1000
0000
0010
,
0000
0100
0001
0010
0000
0100
0000
0001
,
0000
1000
0000
0010
0001
0100
0010
0000
,
1000
0010
0100
0100
,
0001
0100
0010
0010
,
1000
0000
0000
1000
0000
0000
0001
0000
0100
0000
0000
0100
0000
0000
0000
0000
,
0010
0000
0000
1000
0000
0000
0010
0000
0000
0100
0000
0000
0001
0000
0100
0000
,
0001
0000
1000
0000
0010
0010
0010
0000
,
0100
0001
1000
0010
,
0100
0001
0010
0100
,
2000
0000
0000
3000
,
0001
0000
0000
0100
0000
0100
0000
0010
,
0000
0000
0000
1000
0000
1000
0000
0001
,
0000
0001
0000
0100
0000
0100
0000
0001
,
0000
1000
0010
0100
,
0001
0000
0100
0001
0000
1000
0000
0010
,
0000
1000
0001
0100
0000
0010
0000
1000
,
0000
0010
0000
0010
0000
0100
0000
0001
,
0000
0100
0000
0010
0000
1000
0000
0000
,
0002
0000
0003
0100
0000
0010
0000
2000
,
0000
0000
3000
0010
0000
0100
0000
0002
,
0000
0003
0000
0100
0000
0001
0000
1000
,
0000
0010
0000
0100
0000
0001
0000
2000
,
0000
3000
0000
0010
0000
0100
0000
0002
,
0000
0003
0000
0100
0000
0010
0000
2000
,
0000
3000
0000
0010
0000
0100
0000
0001
,
0000
1000
0000
0010
0000
0100
0020
0000
,
0000
0000
0000
0030
,
1000
0010
1000
0000
0000
0000
0000
0000
;

//---------------dance-single - ----------------
#NOTES:
     dance-single:
     :
     Easy:
     3:
     0.270722,0.285699,0.008536,0.042681,0.000000,222.000000,221.000000,1.000000,5.000000,0.000000,0.000000,0.270722,0.285699,0.008536,0.042681,0.000000,222.000000,221.000000,1.000000,5.000000,0.000000,0.000000:
0000
0000
0000
0000
,
0000
0000
0000
0000
,
0000
0000
0000
0000
,
0000
0000
0000
0000
,
0100
0001
0100
0010
,
1000
0010
0100
0001
,
0100
0010
1000
0010
,
2000
0000
0000
0000
0000
3000
0000
0000
,
0001
0001
0100
0100
,
0010
0010
1000
1000
,
0001
0000
0100
0000
,
0010
1000
0010
0100
,
0001
0001
1000
1000
,
0010
0100
0010
0100
,
0001
1000
0001
1000
,
0020
0000
0000
0030
,
0000
0100
0001
0000
,
1000
0000
0000
0010
0000
0000
0100
0000
,
0010
0000
0000
0010
0000
0000
0000
0000
,
0100
0000
0000
1000
0000
0001
0000
0000
,
0000
0100
0010
1000
,
0001
0000
0000
0100
0000
0000
0000
0010
,
0000
0000
0000
1000
0000
0000
0000
0000
,
0001
0000
0000
0100
0000
0010
0000
0000
,
1000
0001
1000
0000
,
0010
0000
0000
0100
0000
0100
0000
0000
,
0001
0010
0100
0000
,
1000
0000
0000
0001
0000
0000
0000
0000
,
0100
0010
1000
0000
,
0001
0100
0010
0000
,
1000
0000
0001
0000
,
0100
0010
1000
0000
,
0010
0010
0010
0010
,
0100
0001
0100
0010
,
1000
0010
0100
0001
,
1000
0010
0100
0000
,
0001
0010
0100
1000
,
0001
0000
0000
0100
0000
0010
0000
1000
,
0000
0000
0000
0010
0000
0100
0000
0001
,
0000
0000
0000
1000
0000
0010
0000
0000
,
0100
0001
1000
0000
,
0010
0000
0100
0000
0000
0010
0000
0100
,
0000
0000
0000
0001
0000
1000
0000
0010
,
0000
0000
0100
0000
0000
0010
0000
1000
,
0000
0010
0100
0001
,
1000
0000
0000
0010
0000
0010
0000
0100
,
0000
0000
0000
0001
0000
0001
0000
1000
,
0000
0000
0000
0010
0000
0010
0000
0000
,
0100
0001
1000
0000
,
0010
0010
0100
0100
,
0001
0001
1000
1000
,
0010
0000
0100
0000
,
0001
1000
0010
0100
,
0001
1000
0010
0010
,
0100
0001
0100
0010
,
1000
0010
0100
0001
,
2000
0000
0000
3000
,
0010
0100
0001
0000
,
1000
0000
0010
0000
0100
0000
0000
0001
,
0000
0010
0000
1000
0000
0000
0000
0000
,
0010
0100
0010
1000
,
0001
0000
0000
0100
0000
0010
0000
1000
,
0000
0000
0000
0001
0000
0010
0000
1000
,
0000
0000
0000
0100
0000
0010
0000
0000
,
0001
0010
0100
0000
,
1000
0010
0100
0000
,
0001
0010
0100
0000
,
1000
0100
0010
0000
,
0001
0100
0001
0100
,
0010
0000
0000
1000
0000
0010
0000
1000
,
0000
0000
0000
0001
0000
0100
0000
0010
,
0000
0000
0000
1000
0000
0010
0000
0100
,
0000
0001
0010
0100
,
1000
0001
0100
0010
,
0220
0000
0000
0330
0000
0000
0000
0000
;

//---------------dance-single - Copied from----------------
#NOTES:
     dance-single:
     Copied from:
     Beginner:
     2:
     0.084143,0.126337,0.000000,0.000000,0.000000,69.000000,69.000000,0.000000,0.000000,0.000000,0.000000,0.084143,0.126337,0.000000,0.000000,0.000000,69.000000,69.000000,0.000000,0.000000,0.000000,0.000000:
0000
0000
0000
0000
,
0000
0000
0000
0000
,
0000
0000
0000
0000
,
0000
0000
0000
0000
,
0001
0000
0000
0000
,
0000
0000
0000
0000
,
0100
0000
0000
0000
,
0000
0000
0000
0000
,
0010
0000
0000
0000
,
0010
0000
0000
0000
,
1000
0000
0000
0000
,
1000
0000
0000
0000
,
0010
0000
0000
0000
,
0010
0000
0000
0000
,
1000
0000
0000
0000
,
1000
0000
0000
0000
,
0001
0000
0000
0000
,
0001
0000
0000
0000
,
0001
0000
0000
0000
,
0001
0000
0000
0000
,
0100
0000
0000
0000
,
0100
0000
0000
0000
,
0100
0000
0000
0000
,
0100
0000
0000
0000
,
0010
0000
0000
0000
,
1000
0000
0000
0000
,
0001
0000
0000
0000
,
0100
0000
0000
0000
,
0010
0000
0000
0000
,
1000
0000
0000
0000
,
0001
0000
0000
0000
,
0100
0000
0000
0000
,
1000
0000
0001
0000
,
1000
0000
0000
0000
,
0001
0000
0000
0000
,
1000
0000
0000
0000
,
0010
0000
0000
0000
,
0100
0000
0000
0000
,
0001
0000
0000
0000
,
1000
0000
0000
0000
,
0010
0000
0000
0000
,
0100
0000
0000
0000
,
0001
0000
0000
0000
0000
0000
0000
1000
,
0000
0000
0000
0000
0000
0000
0000
0010
,
0000
0000
0000
0000
,
0100
0000
0000
0000
0000
0000
0000
0001
,
0000
0000
0000
0000
0000
0000
0000
0010
,
0000
0000
0000
0000
0000
0000
0000
0100
,
0000
0000
0000
0000
,
1000
0000
0000
0000
,
1000
0000
0000
0000
,
0010
0000
0000
0000
,
0010
0000
0000
0000
,
0100
0000
0000
0000
,
0100
0000
0000
0000
,
0001
0000
0000
0000
,
0001
0000
0000
0000
,
1000
0000
0000
0000
,
1000
0000
0000
0000
0000
0000
0000
1000
,
0000
0000
0000
0000
0000
0000
0000
1000
,
0000
0000
0000
0000
,
0010
0000
0000
0000
0000
0000
0000
0010
,
0000
0000
0000
0000
0000
0000
0000
0010
,
0000
0000
0000
0000
0000
0000
0000
0010
,
0000
0000
0000
0000
,
0100
0000
0000
0000
0000
0000
0000
0100
,
0000
0000
0000
0000
0000
0000
0000
0100
,
0000
0000
0000
0000
0000
0000
0000
0100
,
0000
0000
0000
0000
,
0001
0000
0000
0000
0000
0000
0000
0001
,
0000
0000
0000
0000
0000
0000
0000
0001
,
0000
0000
0000
0000
0000
0000
0000
0001
,
0000
0000
0000
0000
,
0000
0000
0000
0000
,
0010
0000
0000
0000
;
