#TITLE:In The Middle Of The Sun;
#SUBTITLE:(Bubble Mix);
#ARTIST:POW-WOW;
#TITLETRANSLIT:;
#SUBTITLETRANSLIT:;
#ARTISTTRANSLIT:;
#GENRE:;
#CREDIT:SupremeX;
#BANNER:In The Middle Of The Sun (Bubble Mix).png;
#BACKGROUND:In The Middle Of The Sun (Bubble Mix)-bg.png;
#LYRICSPATH:;
#CDTITLE:CDTitle.png;
#MUSIC:In The Middle Of The Sun (Bubble Mix).ogg;
#OFFSET:-0.015867;
#SAMPLESTART:45.509998;
#SAMPLELENGTH:12.000000;
#SELECTABLE:YES;
#BPMS:0.000000=145.000000
;
#STOPS:
;
#BGCHANGES:16.000=tropical1.avi=1.000=0=0=1=====,
32.000=tropical2.avi=1.000=0=0=1=====,
48.000=surf1.avi=1.000=0=0=1=====,
55.000=sun1.avi=1.000=0=0=1=====,
64.000=surf1.avi=1.000=0=0=1=====,
71.000=sun1.avi=1.000=0=0=1=====,
80.000=sun2.avi=1.000=0=0=1=====,
87.000=tropical2.avi=1.000=0=0=1=====,
96.000=sun2r.avi=1.000=0=0=1=====,
103.000=tropical1.avi=1.000=0=0=1=====,
113.000=sun3.avi=1.000=0=0=1=====,
118.000=tropical1.avi=1.000=0=0=1=====,
121.000=sun3.avi=1.000=0=0=1=====,
126.000=sun2.avi=1.000=0=0=1=====,
129.000=sun3.avi=1.000=0=0=1=====,
134.000=tropical2.avi=1.000=0=0=1=====,
145.000=sun3.avi=1.000=0=0=1=====,
150.000=sun1a.avi=1.000=0=0=1=====,
153.000=sun3.avi=1.000=0=0=1=====,
158.000=sun1b.avi=1.000=0=0=1=====,
161.000=sun3.avi=1.000=0=0=1=====,
166.000=tropical1.avi=1.000=0=0=1=====,
176.000=sun1.avi=1.000=0=0=1=====,
192.000=sun2.avi=1.000=0=0=1=====,
205.000=sun1a.avi=1.000=0=0=1=====,
208.000=sun2r.avi=1.000=0=0=1=====,
224.000=In The Middle Of The Sun (Bubble Mix)-bg.png=1.000=0=0=1=====,
99999=-nosongbg-=1.000=0=0=0 // don't automatically add -songbackground-
;
#KEYSOUNDS:;
#ATTACKS:;

//---------------dance-single - ----------------
#NOTES:
     dance-single:
     :
     Hard:
     7:
     0.418477,0.458861,0.266303,0.071697,0.061455,286.000000,260.000000,26.000000,7.000000,0.000000,0.000000,0.418477,0.458861,0.266303,0.071697,0.061455,286.000000,260.000000,26.000000,7.000000,0.000000,0.000000:
0000
0000
0000
0000
,
0000
0000
0000
0000
,
0000
0000
0000
0000
,
0000
0000
0000
0000
,
1000
0001
1001
0010
,
1000
0001
0101
0010
,
1000
0100
1100
0010
,
0001
0100
0110
0010
,
1000
0000
0100
0000
0010
0001
0010
0000
,
1000
0000
0100
0000
0001
0100
0010
0000
,
1000
0000
0001
0000
1000
0010
0100
0000
,
0001
1000
0110
0001
,
0100
0001
0100
0010
1000
0010
0000
0000
,
0100
0001
1000
0001
0100
0000
1000
0010
,
1000
0000
0001
0100
0001
0000
0000
0000
,
1000
0100
0010
0001
0100
0000
0000
0000
,
0001
0010
0100
1000
0010
0100
0000
0000
,
0001
1000
0010
1000
0001
0000
0100
0010
,
0100
0000
0001
1000
0001
0000
0000
0000
,
0100
0010
1000
0001
0100
0000
0000
0000
,
0011
0000
1010
0000
0101
0000
1000
0100
,
0010
0001
0100
0010
0100
0000
0001
1000
,
0001
0000
0100
0010
0100
0000
0001
1000
,
0010
0100
0001
1000
0010
0000
0000
0000
,
1000
0100
0010
0001
0100
0000
0010
1000
,
0001
0100
0010
1000
0001
0000
0100
0000
,
0110
0010
1010
1000
,
1002
0000
0103
0100
,
0010
0000
1000
0001
0010
0100
1000
0010
,
0100
0000
0110
0000
0001
1000
0001
1000
,
0010
0000
1000
0100
0010
0001
0100
0010
,
0100
0000
0110
0000
0001
1000
0010
1000
,
0001
0000
0100
0010
0100
0001
1000
0001
,
0100
0000
0101
0000
0010
1000
0010
0100
,
0001
0000
1000
0010
1000
0001
0100
0010
,
0200
0000
0310
0010
,
1000
0000
0001
0010
0100
1000
0010
0100
,
0001
0000
1100
0000
0001
1000
0001
0100
,
0010
0000
1000
0001
0010
0100
1000
0100
,
0010
0000
0011
0000
0001
0010
0100
1000
,
0010
0000
0100
0001
0100
0010
1000
0010
,
0100
0000
1001
0000
1000
0100
0010
0001
,
0100
0000
0010
1000
0010
0100
0001
0100
,
0002
0000
0003
0000
,
2000
0000
0000
0000
0000
0000
0000
3010
0000
0000
0000
0000
0000
0000
0000
0000
,
0200
0000
0000
0000
0000
0000
0000
0301
0000
0000
0000
0000
0000
0000
0000
0000
,
0020
0000
0000
0000
0000
0000
0000
1030
0000
0000
0000
0000
0000
0000
0000
0000
,
0002
0000
0000
0000
0000
0000
0000
0103
0000
0000
0000
0000
0000
0000
0000
0000
,
0010
0000
0000
0000
1000
0000
0000
0001
0000
0000
0011
0000
0000
0000
0000
0000
,
0100
0000
0000
0000
1000
0000
0000
0010
0000
0000
1010
0000
0000
0000
0000
0000
,
1000
0000
0000
0000
0100
0000
0000
0010
0000
0000
0011
0000
0000
0000
0000
0000
,
1000
0000
0000
0000
0010
0000
0000
0100
0000
0000
0101
0000
0000
0000
0000
0000
,
0001
0000
0000
0000
1000
0000
0000
0010
0000
0000
0110
0000
0000
0000
0000
0000
,
0100
0000
0000
0000
0001
0000
0000
1000
0000
0000
1001
0000
0000
0000
0000
0000
,
0010
0000
0000
0000
1000
0000
0000
0001
0000
0000
0101
0000
0000
0000
0000
0000
,
0001
0000
0000
0000
0100
0000
0000
0010
0000
0000
1010
0000
0000
0000
0001
0000
,
1001
0000
0000
0000
;

//---------------dance-single - ----------------
#NOTES:
     dance-single:
     :
     Medium:
     5:
     0.269230,0.286788,0.010242,0.030727,0.000000,184.000000,183.000000,1.000000,3.000000,0.000000,0.000000,0.269230,0.286788,0.010242,0.030727,0.000000,184.000000,183.000000,1.000000,3.000000,0.000000,0.000000:
0000
0000
0000
0000
,
0000
0000
0000
0000
,
0000
0000
0000
0000
,
0000
0000
0000
0000
,
0001
0100
0010
0000
,
1000
0010
0100
0000
,
0001
1000
0001
0000
,
0100
0010
0100
0000
,
0001
0100
0010
0000
,
1000
0010
0100
0000
,
0001
1000
0001
0000
,
0100
0010
0100
0000
,
0001
0001
1000
0000
,
0010
0010
0100
0000
,
1000
0001
0100
0000
,
0010
0000
1000
0001
1000
0000
0000
0000
,
0010
0100
0001
0000
,
0100
0010
1000
0001
,
0100
0000
0001
1000
0001
0000
0000
0000
,
0100
0010
0100
0000
,
0001
0010
0100
1000
,
0010
0000
0100
0010
0100
0000
0001
0000
,
0010
0100
1000
0001
,
0100
0000
0010
0100
0010
0000
0000
0000
,
1000
0001
1000
0001
,
0100
0000
0010
1000
0010
0000
0100
0000
,
0001
1000
0001
0100
,
0020
0000
0000
0000
0000
0030
0000
0000
,
1000
0000
0001
0000
0100
0000
0010
0100
,
0010
0100
0001
1000
,
0010
0000
0100
0000
1000
0000
0001
0100
,
0001
0001
0100
0010
,
1000
0001
0100
0010
,
1000
1000
0001
0100
,
0010
0000
1000
0000
0001
0000
0100
0010
,
0200
0000
0300
0000
,
0001
0000
1000
0000
0010
0000
0100
0010
,
0100
0100
0001
1000
,
0010
0000
0100
0000
0001
0000
1000
0010
,
1000
1000
0001
0100
,
0010
1000
0010
0100
,
0001
0001
1000
0010
,
0100
0000
0001
0000
1000
0000
0010
0100
,
0020
0000
0000
0000
0000
0030
0000
0000
,
1000
0000
0000
0000
,
0001
0000
0000
0000
,
1000
0000
0000
0000
,
0001
0000
0000
0000
,
0100
0010
0100
0100
,
0010
0100
0001
0001
,
1000
0010
0100
0100
,
0001
1000
0001
1000
,
0010
0100
0001
0001
,
1000
0010
1000
1000
,
0010
0100
0001
0001
,
1000
0001
0100
0010
,
1001
0000
0000
0000
;

//---------------dance-single - ----------------
#NOTES:
     dance-single:
     :
     Easy:
     3:
     0.250208,0.258109,0.000000,0.030727,0.020485,171.000000,171.000000,0.000000,3.000000,0.000000,0.000000,0.250208,0.258109,0.000000,0.030727,0.020485,171.000000,171.000000,0.000000,3.000000,0.000000,0.000000:
0000
0000
0000
0000
,
0000
0000
0000
0000
,
0000
0000
0000
0000
,
0000
0000
0000
0000
,
0010
0010
0100
0000
,
0001
0001
1000
0000
,
0010
0010
0100
0000
,
0001
0001
1000
0000
,
0010
0100
0010
0000
,
1000
0001
1000
0000
,
0010
0100
0010
0000
,
1000
0001
1000
0000
,
0010
0000
0100
0000
,
0001
0000
1000
0010
,
0100
0001
1000
0000
,
0010
0000
0100
0000
,
0001
0000
1000
0000
,
0001
0000
1000
0001
,
0100
0010
1000
0000
,
0001
0000
1000
0000
,
0010
0100
0010
1000
,
0001
0100
0010
1000
,
1000
0001
0001
0100
,
0010
0100
0010
0000
,
1000
0001
1000
0001
,
0001
1000
1000
0010
,
0100
0010
0100
0010
,
0200
0000
0300
0000
,
0001
1000
0010
0100
,
0001
0001
1000
0010
,
0100
0001
1000
0010
,
0100
0100
0001
0001
,
1000
0010
0100
0010
,
1000
1000
0001
0100
,
0010
1000
0010
0100
,
0002
0000
0003
0000
,
1000
0010
0100
0001
,
1000
1000
0010
0100
,
0010
0100
0001
1000
,
0010
0010
1000
0001
,
0100
0010
1000
0010
,
0100
0100
0001
1000
,
0001
1000
0010
0100
,
0002
0000
0000
0000
0000
0003
0000
0000
,
1000
0000
0000
0000
0000
0000
0000
1000
0000
0000
0000
0000
0000
0000
0000
0000
,
0010
0000
0000
0000
0000
0000
0000
0010
0000
0000
0000
0000
0000
0000
0000
0000
,
0100
0000
0000
0000
0000
0000
0000
0100
0000
0000
0000
0000
0000
0000
0000
0000
,
0001
0000
0000
0000
0000
0000
0000
0001
0000
0000
0000
0000
0000
0000
0000
0000
,
1000
0010
1000
0010
,
0100
0001
0100
0001
,
1000
0010
1000
0010
,
0100
0001
0100
0001
,
1000
1000
0010
0010
,
0100
0100
0001
0001
,
1000
1000
0010
0010
,
0100
0100
0001
0001
,
1000
0000
0000
0000
;

//---------------dance-single - Copied from----------------
#NOTES:
     dance-single:
     Copied from:
     Beginner:
     1:
     0.092182,0.143394,0.000000,0.000000,0.000000,63.000000,63.000000,0.000000,0.000000,0.000000,0.000000,0.092182,0.143394,0.000000,0.000000,0.000000,63.000000,63.000000,0.000000,0.000000,0.000000,0.000000:
0000
0000
0000
0000
,
0000
0000
0000
0000
,
0000
0000
0000
0000
,
0000
0000
0000
0000
,
1000
0000
0000
0000
,
1000
0000
0000
0000
,
0010
0000
0000
0000
,
0010
0000
0000
0000
,
0100
0000
0000
0000
,
0100
0000
0000
0000
,
0001
0000
0000
0000
,
0001
0000
0000
0000
,
1000
0000
0010
0000
,
1000
0000
0010
0000
,
0000
0000
0000
0000
,
0000
0000
0100
0000
,
0001
0000
0100
0000
,
0001
0000
0100
0000
,
0010
0000
0000
0000
,
0000
0000
1000
0000
,
0001
0000
0001
0000
,
0100
0000
0100
0000
,
0001
0000
0001
0000
,
0100
0000
0100
0000
,
0010
0000
0010
0000
,
1000
0000
1000
0000
,
0010
0000
0010
0000
,
1000
0000
0000
0000
,
0001
0000
0000
0000
,
0100
0000
0000
0000
,
0001
0000
0000
0000
,
0100
0000
0000
0000
,
0001
0000
0000
0000
,
0100
0000
0000
0000
,
0001
0000
0000
0000
,
0100
0000
0000
0000
,
0010
0000
0000
0000
,
1000
0000
0000
0000
,
0010
0000
0000
0000
,
1000
0000
0000
0000
,
0010
0000
0000
0000
,
1000
0000
0000
0000
,
0010
0000
0000
0000
,
1000
0000
0000
0000
,
0001
0000
0000
0000
,
0001
0000
0000
0000
,
0001
0000
0000
0000
,
0001
0000
0000
0000
,
0100
0000
0000
0000
,
0100
0000
0000
0000
,
0100
0000
0000
0000
,
0100
0000
0000
0000
,
0010
0000
0000
0000
,
0010
0000
0000
0000
,
0010
0000
0000
0000
,
0010
0000
0000
0000
,
1000
0000
0000
0000
;
