#TITLE:Impact;
#SUBTITLE:;
#ARTIST:Tatsh;
#TITLETRANSLIT:;
#SUBTITLETRANSLIT:;
#ARTISTTRANSLIT:;
#GENRE:;
#CREDIT:SupremeX;
#BANNER:Impact.png;
#BACKGROUND:Impact-bg.png;
#LYRICSPATH:;
#CDTITLE:CDTitle.png;
#MUSIC:Impact.ogg;
#OFFSET:-0.036952;
#SAMPLESTART:20.000000;
#SAMPLELENGTH:12.000000;
#SELECTABLE:YES;
#BPMS:0.000000=138.000000
;
#STOPS:
;
#BGCHANGES:16.000=numbers1.avi=1.000=0=0=1=====,
32.000=stairs1.avi=1.000=0=0=1=====,
48.000=numbers1.avi=1.000=0=0=1=====,
64.000=lightning1.avi=1.000=0=0=1=====,
80.000=text15.avi=1.000=0=0=1=====,
88.000=thunder1.avi=1.000=0=0=1=====,
96.000=ring2.avi=1.000=0=0=1=====,
104.000=tunnel12.avi=1.000=0=0=1=====,
112.000=numbers1.avi=1.000=0=0=1=====,
120.000=stairs1.avi=1.000=0=0=1=====,
128.500=star7.avi=1.000=0=0=1=====,
144.000=lightning1.avi=1.000=0=0=1=====,
152.000=text15.avi=1.000=0=0=1=====,
160.000=numbers1.avi=1.000=0=0=1=====,
168.000=tunnel12.avi=1.000=0=0=1=====,
176.000=ring2.avi=1.000=0=0=1=====,
184.000=thunder1.avi=1.000=0=0=1=====,
196.000=star7.avi=1.000=0=0=1=====,
212.000=text15.avi=1.000=0=0=1=====,
228.000=lightning1.avi=1.000=0=0=1=====,
247.000=star7.avi=1.000=0=0=1=====,
260.000=stairs1.avi=1.000=0=0=1=====,
264.000=numbers1.avi=1.000=0=0=1=====,
267.500=Impact-bg.png=1.000=0=0=1=====,
99999=-nosongbg-=1.000=0=0=0 // don't automatically add -songbackground-
;
#KEYSOUNDS:;
#ATTACKS:;

//---------------dance-single - ----------------
#NOTES:
     dance-single:
     :
     Hard:
     9:
     0.511017,0.484135,0.127754,0.059619,0.008517,420.000000,405.000000,15.000000,7.000000,0.000000,0.000000,0.511017,0.484135,0.127754,0.059619,0.008517,420.000000,405.000000,15.000000,7.000000,0.000000,0.000000:
0000
0000
0000
0000
,
0000
0000
0000
0000
,
0000
0000
0000
0000
,
0000
0000
0000
0000
,
1000
0010
1000
0001
0100
0010
0100
0000
,
0010
1000
0010
0100
0001
0100
0010
0000
,
1000
0001
1000
0100
1000
0001
1000
0000
,
0010
0100
0010
1000
0001
1000
0010
0000
,
1000
0001
0100
0001
0010
0100
1000
0000
,
0010
0100
0001
1000
0100
0010
0001
0000
,
1000
0100
0010
0100
1000
0100
0010
0000
,
0001
0010
0100
0010
0001
0010
0100
0000
,
1100
0000
1001
0000
0010
0100
0010
0000
,
0101
0000
0110
0000
1000
0001
1000
0000
,
0110
0000
0101
0000
1000
0100
1000
0000
,
1100
0000
0011
0000
0001
0010
0100
0000
,
1000
0010
0200
0000
0010
0000
0310
0000
,
1000
0001
2000
0000
0100
0000
3100
0000
,
0001
0010
0002
0000
0010
0000
0013
0000
,
0100
1000
0200
0000
1000
0000
1300
0000
,
0010
0100
0020
0000
0100
0000
0130
0000
,
0001
0010
0002
0000
1000
0000
1003
0000
,
0010
0100
0001
1000
0010
0100
0001
0000
,
1000
0000
0000
0100
0000
0000
1000
0000
0100
0000
0000
0000
0110
0000
0000
0000
,
0001
0010
0100
1000
0010
0100
0001
1000
,
0001
0100
0010
0100
0001
1000
0100
0000
,
1000
1000
0001
0100
0001
0100
0010
0000
,
1000
0100
0010
0001
1000
0100
1000
0100
,
0010
0001
0010
0100
1000
0010
0100
0001
,
1000
0100
0010
0001
1000
0010
1000
0000
,
0001
0100
0001
1000
0100
1000
0001
0100
,
0001
0100
0010
1000
0010
0000
1001
0000
,
0000
0100
0010
0100
0010
0000
1000
0001
,
1000
0000
0010
0100
0001
0000
1001
0000
,
1000
0100
1000
0000
0001
0100
0001
0000
,
1000
0010
0100
0010
1000
0001
0100
0000
,
0010
0000
1000
0001
1000
0000
0100
0010
,
0100
0000
0010
1000
0010
0000
0110
0000
,
0001
0010
0100
0000
1000
0100
0010
0000
,
0001
1000
0001
0000
1000
0100
1000
0000
,
0001
0010
0010
0000
0100
1000
1000
0000
,
0001
0100
0010
0100
0001
1000
0001
0000
,
1000
0100
0100
0000
0010
0001
0001
0000
,
1000
0100
1000
0001
0100
0010
1000
0000
,
0001
0000
1000
0000
0010
0100
0100
0000
,
0001
0010
0100
1000
0100
1000
0001
0000
,
0100
0000
0101
0000
1000
0100
1100
0000
,
0010
0001
0010
0100
1000
0100
0010
0000
,
0002
0100
0100
0103
,
0001
0010
0100
1000
0000
0010
0100
0000
,
0100
0001
0010
0100
1000
0001
0100
0000
,
0010
0100
0010
1000
0001
0100
0001
0000
,
1000
0100
0010
0001
1000
0100
1000
0000
,
0001
1000
0010
0100
0001
1000
1000
0000
,
0001
0010
0100
1000
0010
0100
0010
0000
,
0100
0001
0100
0001
1000
0100
1000
0000
,
0001
0100
0001
1000
0010
0100
0001
0000
,
1000
0100
1000
0001
0100
0001
1000
0000
,
0010
0100
0010
1000
0001
1000
0001
0000
,
0100
0010
1000
0001
0100
0001
1000
0000
,
0001
0100
0010
0100
0001
1000
0001
0000
,
1000
0100
1000
0001
0100
0010
0100
0000
,
0001
0010
0100
1000
0010
0100
0010
0000
,
1000
0100
0010
0001
0100
0010
0010
0000
,
1000
0010
0100
0001
1000
0100
1000
0001
,
0100
0010
0100
0010
1000
0001
1000
0001
,
1000
0000
0000
1100
0000
0000
0010
0000
0001
0000
0010
0000
0100
0000
1000
0000
;

//---------------dance-single - ----------------
#NOTES:
     dance-single:
     :
     Medium:
     7:
     0.412463,0.399445,0.008517,0.000000,0.000000,339.000000,338.000000,1.000000,0.000000,0.000000,0.000000,0.412463,0.399445,0.008517,0.000000,0.000000,339.000000,338.000000,1.000000,0.000000,0.000000,0.000000:
0000
0000
0000
0000
,
0000
0000
0000
0000
,
0000
0000
0000
0000
,
0000
0000
0000
0000
,
1000
0010
0100
0000
0001
1000
0001
0000
,
0100
0010
0100
0000
1000
0100
0010
0000
,
0100
0100
0010
0010
0100
0100
0001
0000
,
1000
0010
0100
0001
,
1000
0010
1000
0000
0001
0100
0001
0000
,
0010
1000
0010
0100
,
0010
1000
0010
0000
0100
0001
0100
0000
,
1000
1000
0010
0010
0100
0100
0001
0000
,
0010
0000
1000
0000
0100
0010
0100
0000
,
0001
0000
0001
0000
1000
0010
1000
0000
,
0010
0000
0010
0000
1000
0100
1000
0000
,
0100
0000
0100
0000
0010
0001
0010
0000
,
0100
0000
0001
0000
1000
0001
1000
0000
,
0010
0000
0100
0000
0001
0010
0001
0000
,
1000
0010
0100
1000
,
0001
0100
0001
0000
1000
0000
1010
0000
,
0010
0000
0001
0000
0100
0010
0100
0000
,
1000
0000
0010
0000
0100
0001
0100
0000
,
0010
1000
0010
0000
0100
0001
0100
0000
,
1000
0010
0000
0000
0100
0000
0001
0000
,
0010
0000
1000
0000
0010
0100
0010
0000
,
1000
0001
1000
0000
0010
0100
0010
0000
,
1000
0001
1000
0000
0010
0100
0010
0000
,
1000
0100
0010
0000
0001
0010
0100
0000
,
1000
0010
0100
0000
0001
0010
0001
0000
,
1000
0010
0100
0000
0001
0001
0001
0000
,
1000
1000
0010
0010
0100
0100
0001
0000
,
0010
1000
0010
0100
,
0001
0000
0010
0000
1000
0010
1000
0000
,
0001
0100
0010
0000
1000
0100
0010
0000
,
0001
0100
0010
0000
1000
0010
0100
0000
,
0001
0010
0100
1000
0100
0010
0100
0000
,
0001
0010
0100
0000
0001
1000
0001
0000
,
0010
1000
0010
0100
0010
0001
0010
0000
,
1000
0000
0001
0000
0100
0010
1000
0000
,
0001
0010
0100
1000
,
0010
0100
0100
0100
,
0010
0001
1000
1000
,
0010
0100
1000
0001
,
0010
0010
0010
0010
,
0100
0001
1000
1000
,
0010
0100
0001
0001
,
0010
0100
1000
1000
,
0001
0001
0001
0001
,
1000
0010
1000
0000
0001
0100
0001
0000
,
1000
0000
0010
0000
0100
0001
0100
0000
,
0010
1000
0010
0000
0100
0001
0010
0000
,
1000
0100
0010
0001
,
0010
1000
0010
0000
0100
0010
0100
0000
,
0001
0010
0100
1000
,
0010
0100
0010
0000
0100
0001
0100
0000
,
0010
1000
0010
0000
0100
0001
0100
0000
,
0010
1000
0010
1000
0100
0010
0001
0000
,
0010
0100
0010
0000
1000
0010
1000
0000
,
0001
0100
0001
0000
0010
0010
0010
0000
,
1000
1000
1000
0000
0001
0001
0001
0000
,
0100
0010
0100
0000
0001
0001
0010
0000
,
1000
1000
0010
0000
0100
0001
0010
0000
,
1000
0100
0010
0000
0001
0001
0010
0000
,
0100
0100
1000
0000
0010
0100
0010
0000
,
0001
0001
0010
0000
0100
0100
1000
0000
,
0010
0100
0010
0000
1000
0001
1000
0000
,
0010
1000
0010
0100
,
0001
0000
0000
0000
;

//---------------dance-single - ----------------
#NOTES:
     dance-single:
     :
     Easy:
     4:
     0.251858,0.256786,0.000000,0.110720,0.000000,207.000000,207.000000,0.000000,13.000000,0.000000,0.000000,0.251858,0.256786,0.000000,0.110720,0.000000,207.000000,207.000000,0.000000,13.000000,0.000000,0.000000:
0000
0000
0000
0000
,
0000
0000
0000
0000
,
0000
0000
0000
0000
,
0000
0000
0000
0000
,
1000
0010
0100
0001
,
1000
0010
0100
0100
,
0010
1000
0001
0100
,
0010
0100
0100
0100
,
0010
0010
1000
1000
,
0001
0100
0010
1000
,
0010
0100
0001
1000
,
0010
0100
0010
0010
,
1000
1000
0001
0001
,
1000
1000
0001
0001
,
0010
0010
0100
0100
,
0010
0010
0100
0100
,
1000
1000
0100
0100
,
0010
0010
0001
0001
,
1000
1000
0100
0100
,
0010
0010
0001
0001
,
1000
0010
1000
0010
,
0100
0001
0100
1000
,
0010
0100
1000
0010
,
0100
1000
0001
0100
,
0020
0000
0000
0030
,
2000
0000
0000
3000
,
0002
0000
0000
0000
0000
0000
0000
0003
,
0200
0000
0000
0300
,
0010
0010
0010
0010
,
0100
0100
0100
0100
,
1000
1000
1000
1000
,
0001
0001
0001
0001
,
0100
0010
1000
1000
,
0001
0100
0010
1000
,
0001
0100
0010
1000
,
0001
0100
0010
1000
,
0010
0001
0001
1000
,
1000
0010
0100
0100
,
0001
0010
0100
1000
,
0010
0100
1000
1000
,
0002
0000
0000
0003
,
2000
0000
0000
0000
0000
0000
0000
3000
,
0000
0000
0020
0000
0000
0000
0000
0030
,
0000
0200
0000
0300
,
0000
0001
0001
1000
,
0010
0100
0100
0100
,
0010
1000
0001
0100
,
0010
1000
0001
0100
,
0001
0001
0001
0001
,
0010
0100
2000
0000
,
0000
0000
0000
0000
0000
3000
0000
0000
,
0010
0100
0002
0000
,
0000
0000
0000
0003
,
1000
0010
0200
0000
,
0000
0000
0300
0000
,
0010
1000
0001
0100
,
0010
1000
0001
0100
,
0020
0000
0000
0000
0000
0000
0000
0030
,
1000
0001
1000
0010
,
0200
0000
0000
0300
,
0001
1000
0010
0100
,
1000
0001
0100
0010
,
1000
0001
0100
0010
,
1000
0010
0100
1000
,
1000
0010
0100
0100
,
0001
0010
1000
0010
,
0100
0001
1000
0010
,
1000
0000
0000
0000
;

//---------------dance-single - Copied from----------------
#NOTES:
     dance-single:
     Copied from:
     Beginner:
     2:
     0.137488,0.142659,0.000000,0.042585,0.000000,113.000000,113.000000,0.000000,5.000000,0.000000,0.000000,0.137488,0.142659,0.000000,0.042585,0.000000,113.000000,113.000000,0.000000,5.000000,0.000000,0.000000:
0000
0000
0000
0000
,
0000
0000
0000
0000
,
0000
0000
0000
0000
,
0000
0000
0000
0000
,
1000
0000
0010
0000
,
1000
0000
0001
0000
,
0100
0000
1000
0000
,
0010
0000
0100
0000
,
0001
0000
1000
0000
,
0010
0000
0100
0000
,
1000
0000
0010
0000
,
0100
0000
0001
0000
,
1000
0000
1000
0000
,
1000
0000
1000
0000
,
0001
0000
0001
0000
,
0001
0000
0001
0000
,
0010
0000
0010
0000
,
0010
0000
0010
0000
,
0100
0000
0100
0000
,
0100
0000
0100
0000
,
0200
0000
0000
0300
,
0020
0000
0000
0030
,
2000
0000
0000
3000
,
0002
0000
0000
0003
,
1000
0000
1000
0000
,
0010
0000
0100
0000
,
0001
0000
1000
0000
,
0010
0000
0100
0000
,
0001
0000
1000
0000
,
0010
0000
0100
0000
,
0001
0000
0010
0000
,
1000
0000
0100
0000
,
0010
0000
1000
0000
,
0010
0000
0100
0000
,
0000
0000
0000
0000
,
0000
0000
0000
0000
,
0000
0001
0000
1000
,
0000
0010
0000
0100
,
0000
0001
0000
1000
,
0000
0000
0000
0000
,
0000
0100
0000
0100
,
0000
0010
0000
0010
,
0000
0100
0000
0100
,
0000
0000
0000
0000
,
0000
0010
0000
0010
,
0000
0100
0000
1000
,
0000
0001
0000
0001
,
0000
0000
2000
0000
0000
0000
0000
3000
,
0000
0010
0000
0100
,
0000
0001
0000
1000
,
0000
0010
0000
0100
,
0000
1000
0000
0100
,
0000
0010
0000
0001
,
0000
1000
0000
0010
,
0000
0100
0000
0001
,
0000
0010
0000
1000
,
0000
0010
0000
0000
,
0100
0000
0001
0000
,
1000
0000
0010
0000
,
0100
0000
0010
0000
,
0001
0000
1000
0000
,
0010
0000
0100
0000
,
0010
0000
1000
0000
,
0010
0000
0100
0000
,
0001
0000
0010
0000
,
0100
0000
1000
0000
,
0010
0000
0100
0000
,
0001
0000
0000
0000
;

//---------------dance-single - ----------------
#NOTES:
     dance-single:
     :
     Challenge:
     11:
     0.681356,0.825877,0.204407,0.085169,0.442881,560.000000,536.000000,24.000000,10.000000,0.000000,0.000000,0.681356,0.825877,0.204407,0.085169,0.442881,560.000000,536.000000,24.000000,10.000000,0.000000,0.000000:
0000
0000
0000
0000
,
0000
0000
0000
0000
,
0000
0000
0000
0000
,
0000
0000
0000
0000
,
1000
0010
1000
0010
1000
0000
0001
0000
0010
0000
0100
0000
1000
0000
0000
0000
,
0001
0100
0001
0100
0001
0000
0100
0000
0010
0000
1000
0010
1000
0000
0001
0000
,
0100
0010
0100
0010
0100
0000
0001
0000
1000
0000
0001
0000
0101
0000
0000
0000
,
0010
1000
0010
1000
0010
0000
1000
0000
0010
0000
1000
0001
0100
0000
0001
0000
,
1000
0010
0100
0001
1000
0010
1010
0000
,
0001
0000
0100
0000
1000
0000
0010
0000
1000
0000
0010
1000
0010
0000
0100
0000
,
0001
1000
0001
0100
0010
1000
1001
0000
,
0100
0010
0100
0010
1000
0001
1001
0000
,
0010
0100
0010
0100
0001
0010
0100
1000
,
0010
0000
0100
0000
0001
0000
0100
0000
0001
1000
0001
0000
1000
0000
0000
0000
,
0001
0100
0001
0100
0010
0100
0001
0000
,
1000
0000
0010
0000
1000
0000
0010
0000
0100
0001
0100
0000
0001
0000
0000
0000
,
1000
0010
2000
0001
0001
0001
3001
0000
,
0100
0100
0002
1000
1000
1000
1003
0000
,
0010
0100
0020
0100
0100
0100
0130
0000
,
0001
0100
0200
0010
0010
0010
0310
0000
,
1000
0001
0002
0100
0100
0100
0103
0000
,
1000
0001
2000
0010
0010
0010
3010
0000
,
0100
0010
0100
0010
0100
0000
0001
1000
0010
0000
1000
0001
1000
0010
0000
0000
,
0100
0000
0000
0010
0000
0000
1000
0000
1010
0000
0000
0000
0101
0000
0000
0000
,
0010
1000
0010
1000
0010
1000
0010
1000
0010
1000
0010
1000
0000
0001
0100
0001
,
0100
0000
0010
1000
0010
0100
0010
0100
0010
1000
0001
1000
0001
0000
0000
0000
,
0100
0010
0100
0010
1000
0001
1000
0001
0100
0010
0100
0010
0100
0000
0000
0000
,
0010
1000
0010
1000
0010
0100
0001
0100
0001
0100
0010
0100
0010
0100
0010
0000
,
0000
1000
0100
1000
0100
1000
0100
0000
0100
0010
0100
0010
0100
0000
0010
0001
,
0010
0001
0010
0000
0100
1000
0100
0000
0010
0001
0010
0100
1000
0000
0000
0000
,
1000
0010
0100
0001
0100
0001
1000
0010
1000
0010
1000
0010
0100
0001
0100
0000
,
0001
0100
0001
0100
0010
1000
0001
1000
0010
0000
0100
0010
0100
0000
0000
0000
,
0000
0000
0001
0000
1000
0100
1000
0000
0110
0000
0000
0000
0001
0100
0001
0000
,
0110
0000
0000
0000
1000
0100
1000
0000
1001
0000
0000
0000
0101
0000
0000
0000
,
1000
0100
1000
0100
0010
0001
0010
0001
,
1000
0010
0100
0001
1000
0010
0100
0000
,
0001
0000
0000
0000
1000
0010
0100
0000
1001
0000
0000
0000
0010
0100
0010
0000
,
0110
0000
0000
0000
1000
0001
0100
0000
0101
0000
0000
0000
0110
0000
0000
0000
,
0001
0010
0100
1000
0100
1000
0100
0000
,
0010
0010
1000
0000
0100
0001
0101
0000
,
1000
0010
1010
0000
0001
0100
0110
0000
,
0001
1000
0001
1000
0001
0100
0010
0100
0010
0000
0010
0000
1000
0000
0000
0000
,
0001
0010
0100
0000
0000
1000
1100
0000
,
0010
0001
0010
0001
0010
0001
0010
0000
0100
0000
1000
0000
0100
0000
0000
0000
,
1000
0000
1010
0000
0100
0001
1001
0000
,
0100
0010
0100
0010
0100
0010
1000
0001
1000
0001
1000
0001
1000
0000
0000
0000
,
0010
0000
1010
0000
0100
0001
0101
0000
,
1000
0100
0010
0001
0100
0010
1000
0000
,
1002
0000
1000
0000
0000
1000
1003
0000
,
0001
0010
0100
2000
0000
0010
0010
0000
,
3010
0000
0100
0000
0001
0000
0100
0000
0001
0000
1000
0010
1000
0000
0000
0000
,
0010
0100
0010
0100
0200
0001
0001
0000
,
0010
0000
0010
0000
0310
0000
0000
0000
1000
0001
1000
0000
0001
0000
0000
0000
,
0100
0010
1000
0002
0100
0100
0100
0000
,
1000
0000
1000
0000
1000
0000
1003
0000
0000
0010
0100
0000
0010
0000
0000
0000
,
1000
0001
0010
0100
1000
0010
0100
0001
,
1000
0000
0010
0000
0100
0000
0010
0000
0100
0001
0100
0000
0001
0000
0000
0000
,
1000
0100
0010
0001
1000
0001
0010
0100
,
1000
0000
0100
0000
1000
0000
0010
0000
0100
0010
0100
0000
0010
0000
0100
0000
,
0010
1000
0100
1000
0001
1000
0100
0000
,
0010
0000
0001
0000
0010
0000
0100
0000
1000
0100
1000
0000
0100
0000
0000
0000
,
1000
0100
0010
0001
0010
0100
1000
1000
,
0100
1000
0100
0010
0001
0010
0001
0010
,
0100
1000
0100
1000
0010
0100
0010
0100
,
0010
1000
0001
1000
0010
0100
0010
0010
,
1000
0100
1000
0100
0010
0100
0010
0100
0010
0001
0010
0001
0100
1000
0100
0000
,
1100
0000
0000
0010
0000
0001
0010
0100
1000
0000
0010
0100
0001
1000
0001
0000
;
