#TITLE:I.D.;
#SUBTITLE:;
#ARTIST:Tatsh feat. 彩音;
#TITLETRANSLIT:;
#SUBTITLETRANSLIT:;
#ARTISTTRANSLIT:Tatsh feat. Junko Hirata;
#GENRE:;
#CREDIT:SupremeX;
#BANNER:I.D..png;
#BACKGROUND:I.D.-bg.png;
#LYRICSPATH:;
#CDTITLE:CDTitle.png;
#MUSIC:I.D.ogg;
#OFFSET:-0.052418;
#SAMPLESTART:43.990002;
#SAMPLELENGTH:12.000000;
#SELECTABLE:YES;
#BPMS:0.000000=153.000000
;
#STOPS:
;
#BGCHANGES:17.000=snow3.avi=1.000=0=0=1=====,
37.000=cloud00.avi=1.000=0=0=1=====,
68.500=dots2.avi=1.000=0=0=1=====,
85.000=snow3.avi=1.000=0=0=1=====,
93.000=sun1.avi=1.000=0=0=1=====,
109.000=I.D.-bg.png=1.000=0=0=1=====,
113.000=room1.avi=1.000=0=0=1=====,
121.000=dots2.avi=1.000=0=0=1=====,
137.000=letters1.avi=1.000=0=0=1=====,
145.000=room1.avi=1.000=0=0=1=====,
153.000=dots2.avi=1.000=0=0=1=====,
160.500=sun1.avi=1.000=0=0=1=====,
179.000=letters1.avi=1.000=0=0=1=====,
185.000=snow4.avi=1.000=0=0=1=====,
193.000=room1.avi=1.000=0=0=1=====,
201.000=snow3.avi=1.000=0=0=1=====,
217.000=letters1.avi=1.000=0=0=1=====,
225.000=snow4.avi=1.000=0=0=1=====,
229.000=cloud00.avi=1.000=0=0=1=====,
257.000=I.D.-bg.png=1.000=0=0=1=====,
261.000=sun1.avi=1.000=0=0=1=====,
269.000=room1.avi=1.000=0=0=1=====,
276.500=dots2.avi=1.000=0=0=1=====,
295.000=letters1.avi=1.000=0=0=1=====,
301.000=I.D.-bg.png=1.000=0=0=1=====,
99999=-nosongbg-=1.000=0=0=0 // don't automatically add -songbackground-
;
#KEYSOUNDS:;
#ATTACKS:;

//---------------dance-single - ----------------
#NOTES:
     dance-single:
     :
     Beginner:
     2:
     0.105590,0.187793,0.033219,0.058134,0.000000,89.000000,85.000000,4.000000,7.000000,0.000000,0.000000,0.105590,0.187793,0.033219,0.058134,0.000000,89.000000,85.000000,4.000000,7.000000,0.000000,0.000000:
0000
0000
0000
0000
,
0000
0000
0000
0000
,
0000
0000
0000
0000
,
0000
0000
0000
0000
,
0000
0020
0000
0000
,
0000
0030
1000
0000
0000
0000
0001
0000
,
0000
1000
0000
0001
,
0000
1000
0000
0100
,
0000
0100
0000
0000
,
0000
0002
0000
0000
,
0000
0000
0000
0000
0000
0003
0000
0000
,
0000
2000
0000
0000
,
0000
0000
0000
3000
,
0000
0001
0000
0001
,
0000
0001
0000
0001
,
0000
0000
0000
0000
,
0000
0000
0000
0000
,
0000
1000
0000
0100
,
0000
1000
0000
0100
,
0000
0010
0000
0001
,
0000
0010
0000
0001
,
0000
1001
0000
0000
,
0000
0000
0000
0000
,
0000
1000
0000
1000
,
0000
0010
0000
0010
,
0000
0001
0000
0001
,
0000
0200
0000
0000
,
0000
0300
0000
0000
,
0000
1000
0000
1000
,
0000
0100
0000
0100
,
0000
0001
0000
0001
,
0000
1001
0000
0000
,
0000
0010
0000
0000
,
0000
0010
0000
0000
,
0000
1000
0000
0000
,
0000
0100
0000
0000
,
0000
0001
0000
0001
,
0000
1000
0000
1000
,
0000
0100
0000
0100
,
0000
0010
0000
0000
,
0000
0010
0000
0000
,
0000
0010
0000
0000
,
0000
1000
0000
0001
,
0000
1000
0000
0001
,
0000
0200
0000
0000
,
0000
0000
0000
0000
,
0000
0300
0001
0000
0000
0000
0000
0000
,
0000
1000
0000
0000
,
0000
0100
0000
0000
,
0000
0001
0000
0000
,
0000
0000
0000
0000
,
0000
0100
0000
0000
,
0000
0100
0000
0000
,
0000
0010
0000
0000
,
0000
1001
0000
0000
,
0000
0000
0000
0000
,
0000
0000
0000
0000
,
0000
0110
0000
0000
,
0000
1000
0000
0000
,
0000
0001
0000
0000
,
0000
0100
0000
0000
,
0000
0010
0000
0000
,
0000
0010
0000
0000
,
0000
0010
0000
0000
,
0000
0100
0000
0000
,
0000
1000
0000
1000
,
0000
0001
0000
0001
,
0000
0100
0000
0100
,
0000
0001
0000
1000
,
0000
0010
0000
0010
,
0000
0010
0000
0000
,
0000
0200
0000
0000
,
0300
0000
0000
0000
,
0000
0010
0000
0200
,
0000
0000
0000
0000
,
0000
0000
0000
0300
0000
0000
0000
0000
;

//---------------dance-single - ----------------
#NOTES:
     dance-single:
     :
     Easy:
     3:
     0.242026,0.312469,0.107963,0.141182,0.000000,204.000000,191.000000,13.000000,17.000000,0.000000,0.000000,0.242026,0.312469,0.107963,0.141182,0.000000,204.000000,191.000000,13.000000,17.000000,0.000000,0.000000:
0000
0000
0000
0000
,
0000
0000
0000
0000
,
0000
0000
0000
0000
,
0000
0000
0000
0000
,
0000
0002
0000
1000
,
0003
2000
0000
0010
,
3000
0000
0200
0000
0000
0000
0010
0300
,
0000
0000
0002
0000
0000
0000
1000
0003
,
0000
0100
1000
0010
,
0100
0001
0000
1000
,
0000
0010
0000
0100
,
0000
0001
0001
1000
,
1000
0010
0010
0100
,
0000
0001
0000
1000
,
0000
0002
0000
1000
,
0003
0100
0010
1000
,
0010
0100
0001
0001
,
0000
1000
0000
1010
,
0000
0001
0000
0101
,
0000
0010
1000
0010
,
0100
0001
0100
0001
,
0000
1010
0000
0101
,
0000
1010
0000
0000
,
0000
0101
0000
0010
,
0000
1000
0000
0010
,
0000
0100
0100
0100
,
0100
0020
0000
0000
,
0000
0030
2000
0000
0000
0000
0000
3000
,
0000
0010
0100
0010
,
0100
0010
1000
0010
,
1000
0100
0100
0010
,
0010
0001
0001
0001
,
0000
1000
0001
1000
,
0001
2000
0000
3000
,
0000
0010
0100
0010
,
0100
0001
1000
0001
,
0000
1000
0010
1000
,
0010
0100
0001
0100
,
0001
0010
1000
0010
,
1000
0000
0002
0000
0000
0003
0200
0000
,
0000
0300
0010
0000
0010
0000
0010
0000
,
0100
0100
0100
0100
,
1000
0001
0000
1000
,
0000
0010
0000
0100
,
0000
0000
0002
0000
0000
0003
2000
0000
,
0000
0000
0000
0000
,
0000
3000
0001
0000
0000
0000
0100
0000
,
0000
1000
0000
0001
,
0000
1000
0001
1000
,
0001
0000
0000
0000
,
0000
1000
0010
1000
,
0010
0100
0001
0100
,
0001
1000
0001
1000
,
0001
1000
0010
0100
,
0010
1000
1000
1000
,
1000
0010
0010
0010
,
0010
0000
0200
0000
0000
0000
0000
0300
,
0000
0001
0000
1000
,
0000
1001
0000
0001
,
0000
1000
0000
0010
,
0000
0100
0000
0110
,
0000
0001
0000
1000
,
0000
0000
0220
0000
0000
0330
0000
0000
,
0000
0001
0000
1000
,
0000
1001
0000
1001
,
0000
0010
0100
0010
,
1000
0010
1000
0100
,
0001
0100
0001
0100
,
0100
0001
1001
0010
,
0010
0100
0100
0010
,
0000
1000
0000
0001
,
0000
0000
0100
0000
0010
0020
0000
0000
,
0000
0030
0000
1000
,
0001
0000
1000
0000
0000
0010
0020
0000
,
0000
0000
0000
0000
,
0030
1001
0000
0000
;

//---------------dance-single - Copied from----------------
#NOTES:
     dance-single:
     Copied from:
     Medium:
     5:
     0.306092,0.411608,0.024914,0.174401,0.024914,258.000000,255.000000,3.000000,21.000000,0.000000,0.000000,0.306092,0.411608,0.024914,0.174401,0.024914,258.000000,255.000000,3.000000,21.000000,0.000000,0.000000:
0000
0000
0000
0000
,
0000
0000
0000
0000
,
0000
0000
0000
0000
,
0000
0000
0000
0000
,
0000
2000
0010
0010
,
3010
0000
0100
0000
0010
0000
1000
0001
,
1000
0102
0100
0100
,
0103
0010
1000
0001
,
0100
0010
1000
0001
,
0100
0001
1000
0010
,
1000
0000
0000
0000
0010
0000
0000
0100
0000
0000
0010
0000
0100
0000
0000
0000
,
0000
0000
0001
0000
1000
0010
0000
0100
,
0000
0001
0000
0100
0000
0001
0000
1000
,
0000
0010
0100
0001
,
1000
0010
0100
0001
,
1000
0000
0010
0000
0100
0100
0000
0001
,
0000
1000
0000
0010
0100
0001
0000
0000
,
0000
1000
0010
0100
,
0001
0000
0100
0001
1000
0001
1000
0000
,
0010
0100
0010
1000
,
0001
0000
0100
0010
0100
0100
0000
0000
,
0001
1000
0010
0100
,
0001
1000
0010
0100
,
0001
0000
1000
0010
0100
0000
0001
0100
,
0010
0000
1000
0010
1000
0000
0001
0000
,
1000
0010
0020
0000
0000
0000
0000
0000
,
0100
0200
0000
0000
0000
0000
0000
0000
,
0000
0330
2002
0000
0000
0000
0000
0000
,
3003
0010
0100
0010
,
0010
0000
0100
0000
0001
0000
0100
0010
,
1000
0000
0010
0000
0100
0000
0001
1000
,
0001
0100
0010
1000
,
0010
0100
0000
0001
0000
1000
0000
0010
,
0000
0200
0000
0000
0000
0000
0000
0000
,
0300
0000
0010
0000
0000
1000
1000
0000
,
0000
0010
0100
0000
0000
0010
0100
0000
,
0001
1000
0010
0100
,
0000
0000
0100
0000
0001
1000
0001
0000
,
0000
0000
0000
0100
0000
0000
0100
0000
0000
0000
0010
0000
1000
0000
0000
0000
,
0001
0000
1000
0000
0000
0001
0001
0000
,
0000
0100
0010
0000
1000
0001
0000
0100
,
0000
0020
0000
0000
0030
0000
0100
0000
,
0001
0000
2000
0000
3010
0020
0000
0000
,
0000
0000
0000
0000
0000
0000
0000
0000
0000
0000
0000
0000
0000
0000
0000
0000
0000
0000
0000
0000
0000
0000
0000
0000
0100
0030
0000
0000
0000
0000
0000
0000
0000
0000
0000
0000
0000
0000
0000
0000
0000
0000
0000
0000
0000
0000
0000
0000
0000
0000
0000
0000
0000
0000
0000
0000
0000
0000
0000
0000
0000
0000
0000
0000
0000
0000
0000
0000
0000
0000
0000
0000
0000
0000
0000
0000
0000
0000
0000
0000
0000
0000
0000
0000
0000
0000
0000
0000
0000
0000
0000
0000
0000
0000
0000
0000
0000
0000
0000
0000
0000
0000
0000
0000
0000
0000
0000
0000
0000
0000
0000
0000
0000
0000
0000
0000
0000
0000
0000
0000
0000
0000
0000
0000
0000
0000
0000
0000
0000
0000
0000
0000
0000
0000
0000
0000
0000
0000
0000
0000
0000
0000
0000
0000
0001
0000
0000
0000
0000
0000
0000
0000
0000
0000
0000
0000
0000
0000
0000
0000
0000
0000
0000
0000
0000
0000
0000
0000
0000
0000
0000
0000
0000
0000
0000
0000
0000
0000
0000
0000
0000
0000
0000
0000
0000
0000
0000
0000
0000
0000
0000
0000
,
1000
0000
0010
0000
0000
0010
2000
0000
,
0000
0000
0000
0000
,
3000
0010
0100
0001
,
1000
0010
1000
0000
0001
0000
1000
0000
,
0010
0100
0010
0000
1000
0000
0010
0000
,
0100
0000
0001
0010
0100
1000
0010
0100
,
0010
1000
0001
0100
,
0010
1000
0001
0100
,
0010
1000
0001
0001
,
0100
0100
0010
0010
,
1000
2000
0000
0000
,
3000
0002
0000
0000
,
0000
0003
0200
0000
0000
0000
0000
0000
,
0000
0000
0000
0000
0310
0000
0000
0010
0000
0000
0010
0000
0000
0010
0000
0000
,
0000
0000
0000
0000
1000
0000
0000
1000
0000
0000
1000
0000
0000
1000
0000
0000
,
0000
0200
0000
0310
,
0000
0002
0000
0103
,
0000
0010
1000
0010
,
0100
0020
0000
0030
,
0000
1000
0001
0100
,
0010
1000
0000
0001
,
0000
0000
0100
0000
0010
1000
0010
0000
,
0100
0000
0001
0000
1000
0010
0100
0000
,
0001
1000
0001
1000
,
0010
0100
0010
0100
,
0000
0001
0001
0100
,
0001
0100
0000
0010
,
1000
1000
0001
2000
,
0000
3000
0000
0010
,
0100
0000
0001
0000
0000
1000
0002
0000
,
0000
0000
0000
0000
,
0003
2002
0000
0000
,
0000
3003
0000
0000
;

//---------------dance-single - Copied from----------------
#NOTES:
     dance-single:
     Copied from:
     Hard:
     8:
     0.393886,0.569918,0.107963,0.307278,0.099658,332.000000,319.000000,13.000000,37.000000,0.000000,0.000000,0.393886,0.569918,0.107963,0.307278,0.099658,332.000000,319.000000,13.000000,37.000000,0.000000,0.000000:
0000
0000
0000
0000
,
0000
0000
0000
0000
,
0000
0000
0000
0000
,
0000
0000
0000
0000
,
0000
0000
0002
0000
0100
0000
0103
0001
,
0100
0000
0020
1000
1030
0010
1000
0010
,
1000
0010
0200
0000
0001
0300
0010
1000
,
0010
0000
0100
0001
0100
0001
1000
0100
,
0010
0001
0100
0010
0100
0010
1000
0000
,
0010
0000
0000
0000
1000
0000
0000
1000
0000
0000
1000
0000
0001
0000
0100
0000
,
0100
0000
0001
0000
0100
0000
0000
0001
0000
0000
1000
0000
0010
0000
0000
0000
,
0000
0000
0000
0000
0100
0000
0000
0100
0000
0000
0100
0000
0000
0000
0001
0000
,
0000
1000
0000
0001
0000
1000
0000
0010
,
0000
0000
0100
0000
0001
0000
0100
0020
,
0000
1030
0000
0010
0000
1000
0000
0001
,
0000
0000
0100
0000
0010
0010
0000
1000
,
0000
0001
0000
0100
0001
0001
0000
0000
,
0000
0000
0100
0010
0100
0000
0000
0000
0010
0000
0000
0000
1000
0000
0000
0000
,
0000
0000
0000
0000
0001
0000
0000
0001
0000
0000
0001
0000
0100
0000
0000
0000
,
0000
0000
0010
0100
0010
0000
0000
0000
0000
0000
0000
0000
1000
0000
0000
0000
,
0000
0000
0001
0010
0100
1000
0000
0000
,
0000
0000
0001
0000
0100
0010
0000
0100
,
0000
0010
0000
1000
0000
0010
0000
0100
,
0000
0000
0000
0000
0001
0000
0000
0001
0000
0000
0002
0000
0000
0000
0000
0000
,
0000
0003
0000
0000
0100
0000
0000
0000
0000
0000
0000
0000
0001
0000
0010
0000
,
0100
1000
2000
0000
0000
0000
0000
3000
,
0010
0100
0001
1000
0010
0100
0001
1000
,
0010
0100
2002
0000
0000
0000
0000
3003
,
0010
0000
0100
0000
0001
0000
0000
1000
0000
0000
0001
0000
0100
0000
0000
0000
,
1001
0000
0000
0000
0010
0000
0000
0100
0000
0000
0010
0000
0100
0000
0000
0000
,
1001
0000
0000
0000
0010
0000
1000
0000
0010
0000
1000
0000
0001
0000
0000
0100
,
0000
0000
0001
0000
0100
0000
0000
0001
0000
0000
1000
0000
0001
0000
0000
0000
,
0100
0010
0000
1000
0000
0100
0000
1010
,
0000
0202
0000
0000
0000
0000
0303
0000
,
0000
0000
1000
0000
0000
0010
2000
0000
,
0000
0000
3010
0000
0010
0000
0000
0000
0000
0000
0100
0001
0100
0000
0000
0000
,
0000
0000
0001
0000
1000
0001
1000
0000
,
0000
0000
0000
0000
0010
0000
0000
0010
0000
0000
0100
0000
0001
0000
0000
0000
,
0000
0000
1000
0010
1000
0010
0200
0000
,
0301
0000
2000
0000
3000
0010
0100
0000
,
0000
0001
0001
0000
0100
0010
0000
0110
,
0000
2002
0000
0000
3003
0000
0100
0000
,
0010
0000
1000
0000
0001
0001
0000
0100
,
0100
0020
0000
0000
0000
1030
0000
0010
,
0100
0010
0200
0000
0000
0310
2002
0000
,
0000
0000
0000
0000
,
3003
0000
0100
0010
0100
0010
1000
0000
,
0001
0000
1000
0001
0100
0001
1000
0001
,
0100
0000
0001
1000
0001
0100
0010
1000
,
1000
0000
0001
0010
0100
1000
0010
0100
,
0010
0000
0000
0000
0100
0000
0000
0000
0001
0000
0100
0001
0100
0000
0010
0000
,
1000
0000
0010
0000
1000
0000
0010
1000
0010
0000
0100
0000
0001
0000
0100
0000
,
0001
0000
1000
0100
0010
0001
0100
0010
,
1000
0100
0010
0001
0100
0010
1000
0010
,
1000
0000
0202
0000
0000
0000
0000
0303
,
0010
0010
2000
0000
0000
0000
0000
0000
,
0000
3000
0010
0000
0000
0000
0010
0000
,
0000
0000
0000
0000
0100
0000
0000
0100
0000
0000
0100
0000
0002
0000
0000
0000
,
0003
0000
0000
0000
1000
0000
0000
1000
0000
0000
1000
0000
0020
0000
0000
0000
,
0030
0000
0000
0000
0100
0000
0000
0100
0000
0000
0100
0000
0001
0000
0000
0001
,
0000
0000
0100
0000
0010
0000
0000
1000
0000
0000
1000
0000
0010
0000
0000
0000
,
0100
0001
0000
1000
0000
0010
0000
1010
,
0000
0202
0000
0000
0000
0000
0303
0000
,
0000
0000
0020
0000
0000
1030
1000
0000
,
0000
0000
0000
0000
0002
0000
0000
0000
0003
0000
0100
0010
0200
0000
0000
0000
,
0000
0300
0000
0000
0001
0000
0000
0001
0000
0000
0001
0000
0010
0000
0000
0000
,
0000
0000
0000
0000
0100
0000
0000
0100
0000
0000
0100
0000
1000
0000
0000
0000
,
0000
0000
0000
0000
0010
0000
0000
0010
0000
0000
0010
0000
0100
0000
0000
0000
,
0001
0000
2000
0000
3000
0001
0100
0000
,
0000
0010
0100
0000
0001
1000
0000
0010
,
0000
0200
0000
0000
0310
0000
1000
0000
,
0001
0000
0100
0000
0010
0020
0000
1000
,
1000
2000
0000
3030
0000
0000
0001
0000
,
1000
0000
0001
0000
0000
0100
0220
0000
,
0000
0000
0000
0000
,
0330
2002
0000
0000
,
0000
3003
0000
0000
;
