#TITLE:I LOVE YOU BABE;
#SUBTITLE:;
#ARTIST:KING & QUEEN;
#TITLETRANSLIT:;
#SUBTITLETRANSLIT:;
#ARTISTTRANSLIT:;
#CREDIT:SupremeX;
#BANNER:I LOVE YOU BABE.png;
#BACKGROUND:I LOVE YOU BABE-bg.png;
#LYRICSPATH:;
#CDTITLE:CDTitle.png;
#MUSIC:I LOVE YOU BABE.ogg;
#OFFSET:-0.103;
#SAMPLESTART:37.240;
#SAMPLELENGTH:12.000;
#SELECTABLE:YES;
#BPMS:0.000=158.000;
#STOPS:;
#BGCHANGES:18.000=text10.avi=1.000=0=0=1,
26.000=light7.avi=1.000=0=0=1,
34.000=Ring8.avi=1.000=0=0=1,
42.000=ring12.avi=1.000=0=0=1,
50.000=lady7.avi=1.000=0=0=1,
55.000=Lady7R.avi=1.000=0=0=1,
58.000=Ring8.avi=1.000=0=0=1,
66.000=Star3.avi=1.000=0=0=1,
78.000=ring12.avi=1.000=0=0=1,
82.000=Star3.avi=1.000=0=0=1,
90.000=ring12.avi=1.000=0=0=1,
98.000=lady7.avi=1.000=0=0=1,
105.500=light7.avi=1.000=0=0=1,
114.000=Lady7R.avi=1.000=0=0=1,
122.000=Ring8.avi=1.000=0=0=1,
130.000=lady7.avi=1.000=0=0=1,
137.500=light7.avi=1.000=0=0=1,
146.000=Lady7R.avi=1.000=0=0=1,
154.000=Ring8.avi=1.000=0=0=1,
162.000=text10.avi=1.000=0=0=1,
170.000=Star3.avi=1.000=0=0=1,
178.000=text10.avi=1.000=0=0=1,
186.000=Star3.avi=1.000=0=0=1,
194.000=I LOVE YOU BABE-bg.png=1.000=0=0=1,
99999=-nosongbg-=1.000=0=0=0 // don't automatically add -songbackground-
;

//---------------dance-single - ----------------
#NOTES:
     dance-single:
     :
     Hard:
     7:
     0.429,0.426,0.427,0.063,0.132: // measure 1
0000
0000
0000
0000
,  // measure 2
0000
0000
0000
0000
,  // measure 3
0000
0000
0000
0000
,  // measure 4
0000
0000
0000
0000
,  // measure 5
0000
0000
0000
0000
0100
0000
0001
1000
,  // measure 6
0001
0000
0000
0100
0000
0000
0000
0000
0010
0000
0000
0000
1000
0000
0001
0000
,  // measure 7
1000
0000
0000
0010
1000
0000
0000
0000
0001
0000
0000
0000
0100
0000
0010
0000
,  // measure 8
0100
0000
0000
0001
0000
0000
0000
0000
1000
0000
0000
1010
0000
0000
0000
0000
,  // measure 9
0001
0000
0000
0101
0000
0000
0000
0000
0010
0000
0000
0000
1000
0000
0000
0000
,  // measure 10
0010
0000
0000
0110
0000
0000
0000
0000
0000
0000
0000
0000
1000
0000
0010
0000
,  // measure 11
1000
0000
0000
1001
0000
0000
0000
0000
0100
0000
0000
0000
0010
0000
0000
0000
,  // measure 12
1000
0000
0000
1100
0000
0000
0000
0000
0000
0000
0000
0000
0001
0000
0000
0000
,  // measure 13
1000
0100
0010
0000
0001
0000
0100
0000
,  // measure 14
1000
0000
0000
1001
0000
0000
0000
0000
0000
0000
0000
0000
0010
0000
1000
0000
,  // measure 15
0010
0000
0000
0110
0000
0000
0000
0000
0001
0000
0000
0000
1000
0000
0000
0000
,  // measure 16
0100
0000
0000
0011
0000
0000
0000
0000
0000
0000
0000
0000
1000
0000
0000
0000
,  // measure 17
0010
0000
1000
0000
0002
0000
0000
0103
,  // measure 18
0000
0000
0010
0100
0010
0000
1000
0200
,  // measure 19
0000
0300
0000
0000
0010
0000
0001
2000
,  // measure 20
0000
3000
0010
1010
,  // measure 21
0101
0000
1010
0000
0001
0000
0100
0020
,  // measure 22
0000
0030
1000
0001
0010
0100
1000
0010
,  // measure 23
0000
0000
0000
0000
1000
0100
0010
0001
,  // measure 24
0000
1000
0000
0001
0100
0000
0110
0000
,  // measure 25
1010
0000
0101
0000
1000
0001
0010
0100
,  // measure 26
1000
0010
1000
0000
0100
0000
0010
0001
,  // measure 27
0000
1000
0000
0010
0100
0000
0001
0000
,  // measure 28
1000
0001
0000
0110
0000
0000
0000
0000
,  // measure 29
1100
0000
0011
0000
0000
1000
0010
0100
,  // measure 30
0010
1000
0000
0000
0001
0010
0100
1000
,  // measure 31
0000
0000
0000
0000
0010
0100
0001
0100
,  // measure 32
0010
1000
0000
1001
0000
0000
0000
0000
,  // measure 33
0101
0000
1010
0000
0001
1000
0010
0100
,  // measure 34
0001
0100
0010
0000
1000
0000
0001
0010
,  // measure 35
0000
0100
0000
1000
0100
0000
0010
0000
,  // measure 36
0001
1000
0000
1001
0000
0000
0000
0000
,  // measure 37
0011
0000
1100
0000
0000
0010
0001
0010
,  // measure 38
0100
1000
0000
0000
0010
0100
0001
0200
,  // measure 39
0000
0300
0000
0000
0001
1000
0010
0100
,  // measure 40
0010
1000
0000
1001
0000
0000
0000
0000
,  // measure 41
1010
0000
0101
0000
1000
0001
0100
0010
,  // measure 42
0100
0000
0000
0001
0000
0000
0000
0000
0010
0000
0000
0000
0100
0000
1000
0000
,  // measure 43
0100
0000
0000
0100
0010
0000
0000
0000
0001
0000
0000
0000
1000
0000
0100
0000
,  // measure 44
1000
0000
0000
1010
0000
0000
0000
0000
0100
0000
0000
0110
0000
0000
0000
0000
,  // measure 45
0001
0000
0000
0101
0000
0000
0000
0000
1000
0000
0000
0000
0010
0000
0100
0000
,  // measure 46
0010
0000
0000
1010
0000
0000
0000
0000
0001
0000
0000
0000
0100
0000
0010
0000
,  // measure 47
0100
0000
0000
0001
0010
0000
0000
0000
0100
0000
0000
0000
1000
0000
0001
0000
,  // measure 48
0010
0000
0000
0011
0000
0000
0000
0000
0100
0000
0000
0110
0000
0000
0000
0000
,  // measure 49
1000
0000
0000
1100
0000
0000
0000
0000
1001
0000
0000
0000
0000
0000
0000
0000
;

//---------------dance-single - ----------------
#NOTES:
     dance-single:
     :
     Medium:
     4:
     0.228,0.244,0.013,0.000,0.000:
0000
0000
0000
0000
,
0000
0000
0000
0000
,
0000
0000
0000
0000
,
0000
0000
0000
0000
,
0000
0000
1000
0001
,
1000
0000
0010
0100
,
0010
0000
1000
0001
,
0100
0000
0010
0000
,
1000
0000
0001
0000
,
0100
0000
0000
0010
,
1000
0000
0001
0000
,
0100
0000
0000
0010
,
0100
0010
1000
0001
,
1000
0000
0000
0010
,
0100
0000
0001
1000
,
0001
0100
0000
0010
,
1000
0000
0010
0000
0100
0000
0000
0001
,
0000
0000
0000
0000
1000
0000
0000
0010
,
0000
0000
0000
0000
0100
0000
0000
0001
,
0000
0000
1000
0100
,
0010
0000
0001
0000
0100
0000
0000
0010
,
0000
0000
0000
0000
1000
0000
0000
0010
,
0000
0000
0100
0001
,
0100
0010
1000
0010
,
0100
0001
0000
1000
,
0100
0000
0010
0000
0001
0000
0000
0010
,
0000
0100
0000
0000
0010
0000
1000
0000
,
0001
0000
0000
1000
0000
0000
0000
0000
,
0001
0001
0100
0010
,
1000
0000
0000
0000
0001
0000
0100
0100
,
0000
0000
0010
1000
,
0010
0000
0000
0100
0000
0000
0000
0000
,
0001
0001
1000
0100
,
0010
0000
0001
0000
0100
0000
0000
0010
,
0000
0010
0000
0000
1000
0000
0010
0000
,
0100
0000
0000
0001
0000
0000
0000
0000
,
1000
1000
0010
0100
,
0010
0000
0000
0000
1000
0000
0001
0001
,
0000
0000
0100
0001
,
0100
0000
0000
0010
0000
0000
0000
0000
,
1000
1000
0001
0100
,
0001
0000
1000
0010
,
0100
0000
0001
1000
,
0010
0000
0100
0000
,
0010
0000
1000
0001
,
0100
0000
0010
1000
,
0001
0000
0100
0010
,
1000
0000
0001
0000
,
0100
0000
0110
0000
;

//---------------dance-single - ----------------
#NOTES:
     dance-single:
     :
     Easy:
     3:
     0.165,0.181,0.000,0.063,0.000:
0000
0000
0000
0000
,
0000
0000
0000
0000
,
0000
0000
0000
0000
,
0000
0000
0000
0000
,
0000
0000
0001
0000
,
0001
0000
1000
0000
,
1000
0000
0010
0000
,
0010
0000
0100
0000
,
0100
0000
0001
0000
,
0001
0000
0000
0100
,
0010
0000
1000
0000
,
1000
0000
0000
0010
,
0100
0000
0001
0000
,
1000
0000
0000
0100
,
0010
0000
1000
0000
,
0001
0000
0000
0100
,
0010
0000
2000
0000
,
3000
0000
0002
0000
,
0003
0000
0200
0000
,
0300
0000
0010
0000
,
0010
0000
2000
0000
,
0000
3000
0000
0000
0020
0000
0000
0000
,
0030
0000
0100
0000
,
0001
0000
0100
0000
,
0010
0000
0000
1000
,
0000
1000
0000
0010
,
0000
0000
0100
0000
,
0100
0000
0001
0000
,
1000
1000
0010
0000
,
0100
0000
0001
0000
,
0100
0000
1000
0001
,
1000
0000
0000
0010
0000
0000
0000
0000
,
0100
0000
0000
0001
,
1000
0000
0000
0000
0010
0000
0000
0100
,
0000
0000
0001
0000
,
1000
0000
0001
0000
,
0100
0100
0010
0000
,
0010
0000
0000
0000
1000
0000
0000
0001
,
0000
0000
0100
0100
,
0010
0000
0000
0100
0000
0000
0000
0000
,
0001
0001
1000
0000
,
0010
0000
0100
0000
,
0001
0000
1000
0000
,
0010
0000
0100
0000
,
0001
0000
0100
0000
,
0100
0000
0001
0000
,
0001
0000
1000
0000
,
1000
0000
0010
0000
,
0100
0000
0000
0000
;

//---------------dance-single - Copied from----------------
#NOTES:
     dance-single:
     Copied from:
     Beginner:
     3:
     0.070,0.089,0.000,0.000,0.000:
0000
0000
0000
0000
,
0000
0000
0000
0000
,
0000
0000
0000
0000
,
0000
0000
0000
0000
,
0000
0000
0100
0000
,
0000
0000
0000
0000
,
0000
0000
0100
0000
,
0000
0000
0000
0000
,
0000
0000
0001
0000
,
0000
0000
0000
0000
,
0001
0000
0000
0000
,
1000
0000
0000
0000
,
1000
0000
0000
0000
,
0010
0000
0000
0000
,
0010
0000
0000
0000
,
0100
0000
0000
0000
,
0100
0000
0000
0000
0000
0000
0000
0001
,
0000
0000
0000
0000
0000
0000
0000
1000
,
0000
0000
0000
0000
0000
0000
0000
0001
,
0000
0000
0000
0000
,
0000
0000
0000
0000
0000
0000
0000
0100
,
0000
0000
0000
0000
0000
0000
0000
0010
,
0000
0000
0000
0000
,
0000
0000
0000
0000
,
0000
0000
1000
0000
,
0000
0000
1000
0000
,
0000
0000
0000
0000
,
0001
0000
0000
0000
,
0001
0000
0100
0000
,
0000
0000
0100
0000
,
0000
0000
0010
0000
,
0000
0000
0010
0000
,
0000
0000
1000
0000
,
0000
0000
1000
0000
,
0000
0000
0001
0000
,
0000
0000
0000
0001
0000
0000
0000
0000
,
0000
0000
0100
0000
,
0000
0000
0000
0000
0000
0000
0000
0100
,
0000
0000
0010
0000
,
0000
0000
0000
0010
0000
0000
0000
0000
,
0000
0000
1000
0000
,
0000
0000
0100
0000
,
0000
0000
1000
0000
,
0000
0000
0100
0000
,
0000
0000
0001
0000
,
0000
0000
0010
0000
,
0000
0000
0001
0000
,
0000
0000
0010
0000
;
