#TITLE:I BELIEVE IN YOU;
#SUBTITLE:;
#ARTIST:DAVE & DOMINO;
#TITLETRANSLIT:;
#SUBTITLETRANSLIT:;
#ARTISTTRANSLIT:;
#CREDIT:SupremeX;
#BANNER:I BELIEVE IN YOU.png;
#BACKGROUND:I BELIEVE IN YOU-bg.png;
#LYRICSPATH:;
#CDTITLE:CDTitle.png;
#MUSIC:I BELIEVE IN YOU.ogg;
#OFFSET:-0.113;
#SAMPLESTART:43.070;
#SAMPLELENGTH:12.000;
#SELECTABLE:YES;
#BPMS:0.000=150.530;
#STOPS:;
#BGCHANGES:5.000=room1.avi=1.000=0=0=1,
13.000=star7.avi=1.000=0=0=1,
21.000=room1.avi=1.000=0=0=1,
29.000=star7.avi=1.000=0=0=1,
36.500=cyber1.avi=1.000=0=0=1,
46.000=ring4.avi=1.000=0=0=1,
53.000=cyber1.avi=1.000=0=0=1,
62.000=ring4.avi=1.000=0=0=1,
69.000=spiral2.avi=1.000=0=0=1,
84.000=max2.avi=1.000=0=0=1,
88.500=room1.avi=1.000=0=0=1,
93.000=max2.avi=1.000=0=0=1,
98.000=balloon1.avi=1.000=0=0=1,
108.000=5 JumpBack_1.avi=1.000=0=0=1,
117.000=ring3.avi=1.000=0=0=1,
124.000=5 JumpBack_1.avi=1.000=0=0=1,
133.000=balloon1.avi=1.000=0=0=1,
140.000=5 JumpBack_1.avi=1.000=0=0=1,
149.000=spiral2.avi=1.000=0=0=1,
156.000=5 JumpBack_1.avi=1.000=0=0=1,
165.000=cyber1.avi=1.000=0=0=1,
170.500=I BELIEVE IN YOU-bg.png=1.000=0=0=1,
173.000=star7.avi=1.000=0=0=1,
181.000=room1.avi=1.000=0=0=1,
189.000=star7.avi=1.000=0=0=1,
197.000=room1.avi=1.000=0=0=1,
204.500=I BELIEVE IN YOU-bg.png=1.000=0=0=1,
99999=-nosongbg-=1.000=0=0=0 // don't automatically add -songbackground-
;

//---------------dance-single - ----------------
#NOTES:
     dance-single:
     :
     Hard:
     7:
     0.424,0.396,0.369,0.143,0.054: // measure 1
0000
0000
0000
0000
,  // measure 2
0000
0000
1000
0100
0010
0001
0100
0000
,  // measure 3
0000
0000
0000
0000
1010
0000
0000
0000
0000
0000
0000
0101
0000
0000
0000
0000
,  // measure 4
0000
0000
0000
0000
0010
0000
0000
0010
0000
0000
0100
0000
0000
0000
0110
0000
,  // measure 5
0000
0000
0000
0000
1000
0000
0000
0000
0100
0000
0000
0000
1001
0000
0000
1010
,  // measure 6
0000
0000
0001
0010
0100
1000
0010
0000
,  // measure 7
0000
0000
0000
0000
0200
0000
0000
0000
0000
0000
0000
0310
0000
0000
0000
0000
,  // measure 8
0000
0000
0000
0000
1000
0000
0000
0001
0000
0000
0101
0000
0000
0000
1010
0000
,  // measure 9
0000
0000
0001
0000
0010
0000
0000
1100
,  // measure 10
0000
1001
0000
0000
0010
0100
0010
0100
,  // measure 11
0000
0010
0000
1000
0000
0010
0000
0100
,  // measure 12
0001
0100
0000
0000
0010
0100
1000
0000
,  // measure 13
0000
0000
0020
0000
0000
0130
0000
0000
,  // measure 14
0000
0000
1000
0000
0010
0000
1000
0001
,  // measure 15
0000
0100
0000
1010
0000
0101
0000
1000
,  // measure 16
0100
0010
0000
0000
0001
0000
0001
0100
,  // measure 17
0000
0000
0020
0000
0000
1030
0000
0000
,  // measure 18
0000
0200
0000
0310
,  // measure 19
0000
0001
0000
2000
0000
0001
0000
3001
,  // measure 20
0000
0100
0001
1000
,  // measure 21
0010
0200
0000
0001
0000
0301
0000
0000
,  // measure 22
1000
0100
0010
0000
1000
0001
0100
0010
,  // measure 23
0000
0000
1000
0000
0100
0000
0010
0000
0001
0000
0100
0000
0010
0000
0000
0100
,  // measure 24
0000
0000
0001
0100
1000
0100
0001
2000
,  // measure 25
0000
3010
0000
0000
0100
0000
0001
1000
,  // measure 26
0100
0020
0000
0000
0031
0000
0100
0000
,  // measure 27
0001
0000
1000
0010
0000
0010
0100
0000
,  // measure 28
0001
1000
0001
0100
0000
0101
0000
0000
,  // measure 29
1000
0010
0100
0001
0000
1010
0000
0000
,  // measure 30
0000
0000
0001
0010
0100
1000
0000
0000
,  // measure 31
0010
0000
0200
0000
0000
0310
0000
0000
,  // measure 32
1000
0010
0100
0001
0000
0110
0000
0000
,  // measure 33
1000
0100
0001
0100
0000
1001
0000
0000
,  // measure 34
0000
0000
1000
0100
0010
0001
0000
0100
,  // measure 35
0010
0000
2000
0000
0000
3010
0000
0000
,  // measure 36
0100
0001
0010
0100
0000
1010
0000
0000
,  // measure 37
0100
0010
0001
1000
0000
0101
0000
0000
,  // measure 38
0000
0000
1000
0010
1000
0100
0000
0000
,  // measure 39
0001
0000
0020
0000
0000
0130
0000
0000
,  // measure 40
1000
0010
1000
0100
0000
1001
0000
0000
,  // measure 41
0100
0001
1000
0010
0000
0110
0000
0000
,  // measure 42
0000
0000
1000
0010
0100
0001
0000
1000
,  // measure 43
0100
0000
0020
0000
0000
0031
0000
0000
,  // measure 44
0000
0000
0100
0010
1000
0001
1000
0000
,  // measure 45
0000
0000
0110
0000
0000
0011
0000
0000
,  // measure 46
0000
0000
0000
0000
1000
0000
0000
0010
0000
0000
1010
0000
0000
0000
0101
0000
,  // measure 47
0000
0000
0000
0000
0010
0000
0000
0000
1000
0000
0000
0000
0101
0000
0000
1010
,  // measure 48
0000
0000
0100
0001
0100
0010
1000
0000
,  // measure 49
0000
0000
0011
0000
0000
0110
0000
0000
,  // measure 50
0000
0000
0000
0000
1000
0000
0000
0001
0000
0000
0110
0000
0000
0000
1001
0000
,  // measure 51
0000
0000
0100
0000
0010
0000
0000
1100
,  // measure 52
0000
1001
0000
0000
0000
0000
0000
0000
;

//---------------dance-single - ----------------
#NOTES:
     dance-single:
     :
     Medium:
     5:
     0.269,0.244,0.012,0.060,0.054:
0000
0000
0000
0000
,
0000
0001
0100
0001
,
0000
0000
0000
0000
1000
0000
0000
0000
0000
0000
0000
0010
0000
0000
0000
0000
,
0000
0000
0000
0000
0001
0000
0000
0001
0000
0000
0001
0000
0000
0000
0100
0000
,
0000
0000
0000
0000
0010
0000
0000
0000
0010
0000
0000
0000
0010
0000
0000
1000
,
0000
1000
0010
1000
,
0000
0000
0000
0000
0001
0000
0000
0000
0000
0000
0000
0100
0000
0000
0000
0000
,
0000
0000
0000
0000
1000
0000
0000
1000
0000
0000
1000
0000
0000
0000
0010
0000
,
0000
0000
0100
0000
0100
0000
0000
0001
,
0000
0001
0000
0000
0100
0000
0010
0000
,
0000
0010
0000
0100
0000
0001
0000
0000
,
0000
0001
0000
0000
1000
0000
1000
0000
,
0000
0000
0100
0000
0000
0010
0000
0000
,
0000
0001
0100
0001
,
0000
1000
0000
0010
0000
1000
0000
0010
,
0000
1000
0000
0000
0001
0000
0001
0000
,
0000
0000
0100
0000
0000
0010
0000
0000
,
0000
0010
0000
1000
,
0000
0100
0000
0100
0000
0001
0000
0001
,
0000
1000
0010
1000
,
0010
0100
0000
0010
0000
0010
0000
0000
,
1000
1000
0010
0010
,
0000
0000
0000
0000
0100
0000
0000
0000
0100
0000
0000
0000
0100
0000
0000
0010
,
0000
0000
1000
0000
1000
0000
0100
0010
,
0000
0010
0000
0000
0010
0000
0100
0000
,
0000
0200
0000
0000
0300
0000
0000
0000
,
0000
0000
0010
0100
0000
0010
0100
0000
,
0001
0000
0100
0000
0000
0100
0000
0000
,
1000
0000
0010
0000
0000
0010
0000
0000
,
0000
0100
0010
0000
,
0100
0000
0020
0000
0000
0130
0000
0000
,
0100
0000
0100
0000
0000
0001
0000
0000
,
0001
0000
0001
0000
0000
0100
0000
0000
,
0000
1000
0010
0000
,
1000
0000
0020
0000
0000
0130
0000
0000
,
0100
0000
0100
0000
0000
0010
0000
0000
,
1000
0000
1000
0000
0000
0100
0000
0000
,
0000
0001
0100
0000
,
0001
0000
0200
0000
0000
0310
0000
0000
,
0010
0000
1000
0000
0000
1000
0000
0000
,
0001
0000
0100
0000
0000
0100
0000
0000
,
0000
0000
0001
0000
0001
0000
0000
0100
,
0010
0000
0200
0000
0000
0301
0000
0000
,
0000
0001
0100
0010
,
0000
0000
1000
0000
0000
0001
0000
0000
,
0000
0000
0000
0000
1000
0000
0000
1000
0000
0000
1000
0000
0000
0000
0010
0000
,
0000
0000
0000
0000
0100
0000
0000
0000
0100
0000
0000
0000
0100
0000
0000
0001
,
0000
1000
0010
1000
,
0000
0000
0010
0000
0000
1000
0000
0000
,
0000
0000
0000
0000
0010
0000
0000
0010
0000
0000
0010
0000
0000
0000
0100
0000
,
0000
0000
0001
0000
0100
0000
0000
0001
,
0000
1001
0000
0000
0000
0000
0000
0000
;

//---------------dance-single - ----------------
#NOTES:
     dance-single:
     :
     Easy:
     2:
     0.201,0.213,0.012,0.000,0.000:
0000
0000
0000
0000
,
0000
1000
0001
1000
,
0000
0000
0010
0000
0000
0010
0000
0000
,
0000
0000
0100
0000
0000
0001
0000
0000
,
0000
0100
0000
0001
,
0000
1000
0010
1000
,
0000
0000
0100
0000
0000
0100
0000
0000
,
0000
0000
0001
0000
0000
0100
0000
0000
,
0000
0000
0000
0001
0000
0000
0000
0100
,
0000
0100
0000
0000
0000
0000
1000
0000
,
0000
0010
0000
0000
0000
0100
0000
0000
,
0000
0001
0000
0000
0100
0000
0010
0000
,
0000
0000
1000
0000
0000
1000
0000
0000
,
0000
0000
0000
0010
,
0000
0100
0000
0000
0000
0001
0000
0000
,
0000
0100
0000
0000
0000
0000
0010
0000
,
0000
0000
1000
0000
0000
1000
0000
0000
,
0000
0001
0000
0001
,
0000
0100
0000
0010
,
0000
1000
0000
1000
,
0000
0010
0000
0100
,
0000
0001
0000
0001
,
0000
1000
0010
1000
,
0000
0100
0000
0100
,
0000
0001
0010
0001
,
0000
0100
0000
0010
,
0000
0100
0000
0100
,
0000
0000
0001
0000
0000
0001
0000
0000
,
0000
0000
1000
0000
0000
1000
0000
0000
,
0000
0010
0100
0000
,
0010
0000
0100
0000
0000
0010
0000
0000
,
0100
0000
0010
0000
0000
0100
0000
0000
,
0010
0000
0100
0000
0000
0010
0000
0000
,
0000
0000
1000
0000
0000
0001
0000
0000
,
0100
0000
0010
0000
0000
0100
0000
0000
,
0001
0000
0010
0000
0000
0100
0000
0000
,
1000
0000
0010
0000
0000
0001
0000
0000
,
0000
0100
0010
0000
,
0100
0000
0001
0000
0000
1000
0000
0000
,
0001
0000
0010
0000
0000
0100
0000
0000
,
1000
0000
0010
0000
0000
0100
0000
0000
,
0000
0001
0010
0000
,
0100
0000
1000
0000
0000
0001
0000
0000
,
0000
0100
0010
0100
,
0000
0000
0001
0000
0000
0001
0000
0000
,
0000
0000
1000
0000
0000
1000
0000
0000
,
0000
0010
0000
0010
,
0000
0100
0001
0100
,
0000
0000
0010
0000
0000
0010
0000
0000
,
0000
0000
1000
0000
0000
1000
0000
0000
,
0000
0000
0001
0000
0000
0000
0000
1000
,
0000
1001
0000
0000
0000
0000
0000
0000
;

//---------------dance-single - Copied from----------------
#NOTES:
     dance-single:
     Copied from:
     Beginner:
     1:
     0.063,0.061,0.000,0.000,0.000:
0000
0000
0000
0000
,
0000
0010
0000
0000
,
0000
0000
0000
0000
,
0000
0010
0000
0000
,
0000
0000
0000
0000
,
0000
0100
0000
0000
,
0000
0000
0000
0000
,
0000
0100
0000
0000
,
0000
0000
0000
0000
,
0000
0000
0000
0000
,
0000
0001
0000
0000
0000
0000
0000
0000
,
0000
0000
0000
0000
,
0000
0000
0000
0000
,
0000
1000
0000
0000
,
0000
0000
0000
0000
,
0000
0000
0000
0000
,
0000
0001
0000
0000
,
0000
0100
0000
0000
,
0000
0000
0000
0000
,
0000
0100
0000
0000
,
0000
0000
0000
0000
,
0000
0010
0000
0000
,
0000
0000
0000
0000
,
0000
0010
0000
0000
,
0000
0000
0000
0000
,
0000
0010
0000
0000
0000
0000
0000
0000
,
0000
0000
0000
0000
,
0000
1000
0000
0000
,
0000
1000
0000
0000
,
0000
0001
0000
0000
,
0000
0000
0000
0000
0000
0001
0000
0000
,
0000
1000
0000
0000
,
0000
1000
0000
0000
,
0000
0001
0000
0000
,
0000
0001
0000
0000
,
0000
0100
0000
0000
,
0000
0100
0000
0000
,
0000
0010
0000
0000
,
0000
0000
0000
0000
0000
0010
0000
0000
,
0000
0100
0000
0000
,
0000
0100
0000
0000
,
0000
0010
0000
0000
,
0000
0010
0000
0000
,
0000
1000
0000
0000
,
0000
1000
0000
0000
,
0000
0010
0000
0000
,
0000
0010
0000
0000
,
0000
0100
0000
0000
,
0000
0100
0000
0000
,
0000
0001
0000
0000
,
0000
0001
0000
0000
,
0000
0001
0000
0000
0000
0000
0000
0000
;
