#TITLE:ひとりぼっち;
#SUBTITLE:;
#ARTIST:ピンクカプセル;
#TITLETRANSLIT:Hitoribocchi;
#SUBTITLETRANSLIT:;
#ARTISTTRANSLIT:Pink Capsule;
#GENRE:;
#CREDIT:SupremeX;
#BANNER:Hitoribocchi.png;
#BACKGROUND:Hitoribocchi-bg.png;
#LYRICSPATH:;
#CDTITLE:CDTitle.png;
#MUSIC:Hitoribocchi.ogg;
#OFFSET:-1.549636;
#SAMPLESTART:42.279999;
#SAMPLELENGTH:12.000000;
#SELECTABLE:YES;
#BPMS:0.000000=212.022003
;
#STOPS:
;
#BGCHANGES:0.000=Hitoribocchi.avi=1.000=1=0=0=,
99999=-nosongbg-=1.000=0=0=0 // don't automatically add -songbackground-
;
#KEYSOUNDS:;
#ATTACKS:;

//---------------dance-single - ----------------
#NOTES:
     dance-single:
     :
     Beginner:
     1:
     0.069838,0.124932,0.000000,0.000000,0.000000,54.000000,54.000000,0.000000,0.000000,0.000000,0.000000,0.069838,0.124932,0.000000,0.000000,0.000000,54.000000,54.000000,0.000000,0.000000,0.000000,0.000000:
0000
0000
0000
0000
,
0000
0000
0000
0000
,
0000
0000
0000
0000
,
0000
0000
0000
0000
,
0000
0000
0000
0000
0000
0000
0000
0001
,
0000
0000
0000
0000
,
0000
0000
0000
0000
0000
0000
0000
1000
,
0000
0000
0000
0000
,
0000
0000
0000
0000
,
0000
0000
0000
0000
,
0010
0000
0000
0000
,
0000
0000
0000
0000
,
0100
0000
0000
0000
,
0000
0000
0100
0000
,
0000
0000
0000
0000
,
0000
0000
0010
0000
,
0000
0000
0000
0000
,
0000
0000
0100
0000
,
0000
0000
0000
0000
,
0000
0000
0000
0000
,
0001
0000
0000
0000
,
0000
0000
0000
0000
,
0001
0000
0000
0000
,
0000
0000
0000
0000
,
1000
0000
0000
0000
,
0000
0000
1000
0000
,
0000
0000
0000
0000
,
0010
0000
0000
0000
,
0100
0000
0000
0000
,
0000
0000
0000
0000
,
0000
0000
0100
0000
,
0000
0000
0000
0000
,
0010
0000
0000
0000
,
0000
0000
0000
0000
,
0010
0000
0000
0000
,
0000
0000
0000
0000
,
1000
0000
0000
0000
,
0000
0000
0000
0000
,
0000
0000
0010
0000
,
0000
0000
0000
0000
,
0100
0000
0000
0000
,
0000
0000
0000
0001
,
0000
0000
0000
0000
,
1000
0000
0000
0000
,
0010
0000
0000
0000
,
0000
0000
0000
0000
,
0000
0000
0000
0000
,
0100
0000
0000
0000
,
0010
0000
0000
0000
,
0000
0000
0000
0000
,
0000
0000
0000
0000
,
0100
0000
0000
0000
,
0010
0000
0000
0000
,
1000
0000
0000
0000
,
0001
0000
0000
0100
,
0000
0000
0000
0000
,
0000
0000
0000
0000
0000
0000
0000
0010
,
0000
0000
0000
0000
,
0000
0000
0000
0000
0000
0000
0000
1000
,
0000
0000
0000
0000
,
0010
0000
0000
0000
0000
0000
0000
0010
,
0000
0000
0000
0000
,
0100
0000
0000
0000
0000
0000
0000
0100
,
0000
0000
0000
0000
,
0001
0000
0000
0000
0000
0000
0000
0001
,
0000
0000
0000
0000
,
1000
0000
0000
0000
0000
0000
0000
1000
,
0000
0000
0000
0000
,
0000
0000
0010
0000
,
0000
0000
0000
0000
,
0000
0000
0000
0000
0000
0010
0000
0000
,
0000
0000
0000
0000
,
0000
0000
0100
0000
,
0000
0000
0000
0000
,
0000
0000
0000
0000
,
0010
0000
0000
0000
,
0100
0000
0000
0000
,
0000
0001
0000
0000
,
0000
0000
1000
0000
,
0000
0000
0000
0000
,
0010
0000
0000
0000
,
0000
0000
0000
0100
,
0000
0000
0001
0000
,
0000
0000
0000
0000
,
1000
0000
0000
0000
,
0000
0000
0010
0000
,
0000
0000
0000
0000
,
0000
0000
0000
0000
,
1000
0000
0000
0000
,
0000
0000
0010
0000
,
0000
0000
0000
0000
,
0000
0000
0000
0000
,
0100
0000
0000
0000
;

//---------------dance-single - ----------------
#NOTES:
     dance-single:
     :
     Hard:
     8:
     0.487571,0.624660,0.226326,0.271592,0.000000,377.000000,352.000000,25.000000,30.000000,0.000000,0.000000,0.487571,0.624660,0.226326,0.271592,0.000000,377.000000,352.000000,25.000000,30.000000,0.000000,0.000000:
0000
0000
0000
0000
,
0000
0000
0000
0000
,
0000
0000
0000
0000
,
0000
0000
0000
0000
,
1000
0000
0001
0000
0100
0010
0000
2002
,
0000
0000
3003
0000
0001
0100
0010
0000
,
1000
0000
0001
0000
0100
0010
0000
2000
,
3000
0001
1000
0001
0100
0000
0010
0000
,
1000
0000
0001
0000
0000
0200
0000
0302
,
0000
2003
0000
3010
0000
0100
0010
0000
,
1000
0000
1001
0000
0000
0002
0000
2003
,
0000
3020
0000
0230
0000
0301
1000
0000
,
0010
0000
0100
0000
0001
0000
1000
0010
,
0000
0100
0000
0001
0100
0000
0010
0000
,
1000
0001
1000
0000
0010
0100
0000
0001
,
0000
1000
0000
0010
0100
0000
0001
0000
,
1000
0100
1000
0000
0001
0000
0100
0010
,
0000
1000
0000
0001
0100
0000
0010
0000
,
1000
0001
1000
0000
0010
0000
0100
0010
,
0000
1001
0000
1001
0000
0100
0010
0000
,
1000
0000
0000
0000
0110
0000
0000
0001
,
0000
1000
0000
0001
0100
0000
0010
0000
,
1000
0010
0100
0001
1000
0000
0010
0100
,
0000
0001
0000
1000
0010
0000
0110
0000
,
0001
0010
0100
1000
0010
0000
0100
0001
,
0000
0001
0000
1000
0100
0000
0110
0000
,
0001
0100
0010
1000
0001
1000
0000
0010
,
0000
1010
0000
0100
0001
0000
0101
0000
,
1000
0010
1000
0001
,
0100
0001
1000
0110
,
0000
0001
1000
0001
,
0100
0000
0001
1000
0000
0010
0100
0000
,
0000
0001
1000
0010
,
0100
0001
1010
0101
,
0000
1000
0001
0100
,
1010
0000
0000
0101
0000
0000
1010
0000
,
0001
0000
1000
0000
0010
0100
0000
1010
,
0000
0000
0000
0100
0000
0001
1000
0000
,
0000
0000
0001
0000
1000
0010
0100
0001
,
1000
0010
0100
0002
0000
0000
0000
0003
,
1000
0000
0001
0000
0100
0010
0000
0101
,
0000
0000
0000
0010
0000
1000
0001
0000
,
0000
0000
1000
0000
0001
0010
0100
1000
,
0010
0000
0100
0020
0000
0000
0000
0030
,
0100
0000
0001
0000
1000
0010
0000
0100
,
0000
0000
0000
0001
0000
0100
0001
0000
,
0000
0000
1000
0000
0001
0100
0010
1000
,
0001
0100
0010
2000
0000
0000
0000
3000
,
0001
0000
1000
0000
0010
0100
0000
0010
,
0000
0000
0000
1000
0000
0100
1000
0000
,
0000
0000
0001
0000
1000
0100
0010
0001
,
0100
0010
1010
0101
,
1001
0000
0010
0000
0000
1000
0000
0002
,
0000
0003
0100
0000
0000
0010
1000
0000
,
0000
0000
0001
0000
0000
1000
0000
0020
,
0000
0030
0000
0100
0000
0001
0100
0000
,
0000
0000
0001
0000
0000
1000
0000
0200
,
0000
0300
0000
0010
0000
0001
0100
0000
,
0000
0000
0001
0000
0000
1000
0000
2000
,
0000
3000
0000
0010
0000
0100
0010
0000
,
0100
0000
0001
0000
1000
0010
0000
2000
,
0000
0000
0000
0000
0000
3000
0000
0000
,
0001
0000
0100
0000
0010
1000
0000
0002
,
0000
0000
0000
0003
,
0100
0000
0001
0000
0100
0010
0000
2000
,
0000
0000
0000
3000
,
0010
0000
0100
0000
0001
1000
0000
0020
,
0000
0000
0000
0000
0000
0030
0000
1000
,
0000
0001
0100
0000
0010
0000
1000
0000
,
0001
1000
0110
0110
,
0000
0001
1000
0010
,
0100
0000
0010
0000
1000
0001
1000
0000
,
0000
0010
1000
0010
,
0100
0001
1010
0101
,
0000
1000
0010
0100
,
0002
0000
0000
2003
0000
0000
3001
0000
,
1000
0000
0100
0000
1000
0001
0000
0020
,
0000
0000
0000
0130
0000
1000
0010
0000
,
0000
0000
0100
0000
0001
0100
0010
1000
,
0001
0100
0010
2000
0000
0000
0000
0000
,
3001
0000
0001
0000
1000
0010
0000
0200
,
0000
0000
0000
0301
0000
1000
0001
0000
,
0000
0000
0100
0000
0001
1000
0010
0100
,
0001
0000
1000
0020
0000
0000
0000
0000
,
0130
0000
0001
0000
1000
0001
0000
0200
,
0000
0000
0000
0310
0000
1000
0010
0000
,
0000
0000
0001
0000
1000
0100
0010
0001
,
1000
0010
0100
0002
0000
0000
0000
0000
,
1003
0000
0100
0000
1000
0001
0000
0020
,
0000
0000
0000
0130
0000
1000
0010
0000
,
0000
0000
0100
0000
0001
1000
0010
0100
,
0001
1000
0010
0100
,
1001
0000
0000
0000
;

//---------------dance-single - ----------------
#NOTES:
     dance-single:
     :
     Medium:
     6:
     0.408681,0.416440,0.009053,0.162955,0.000000,316.000000,315.000000,1.000000,18.000000,0.000000,0.000000,0.408681,0.416440,0.009053,0.162955,0.000000,316.000000,315.000000,1.000000,18.000000,0.000000,0.000000:
0000
0000
0000
0000
,
0000
0000
0000
0000
,
0000
0000
0000
0000
,
0000
0000
0000
0000
,
1000
0000
0001
0000
0100
0010
0000
2000
,
0000
3000
0001
0100
,
0010
0000
1000
0000
0001
0000
0000
2000
,
3000
0000
0001
0100
0001
0000
1000
0000
,
0010
0000
0100
0000
0000
0001
0000
1000
,
0000
0001
0000
0100
0000
0010
0100
0000
,
0001
0000
1000
0000
0000
0001
0000
1000
,
0000
0010
0000
0100
0000
0001
1000
0000
,
0010
0100
0001
1000
,
0010
0100
0001
1000
,
0001
0100
0001
0000
1000
0000
0001
0000
,
0100
0010
1000
0001
,
1000
0100
1000
0000
0001
0000
0100
0000
,
0010
1000
0001
0100
,
0010
1000
0010
0000
0100
0000
0001
1000
,
0000
0010
0000
0100
0000
0001
0000
0000
,
1000
0000
0000
0000
0010
0000
0000
0100
,
0000
0001
0000
1000
0000
0010
0000
0000
,
0100
0001
1000
0010
,
0000
0100
0000
0001
1000
0000
0100
0000
,
1000
0000
0001
0000
0100
0000
0010
1000
,
0000
0001
0000
0000
0100
0000
0010
0000
,
0100
0000
0001
0000
1000
0000
0000
0010
,
0000
1000
0000
0010
0100
0000
0001
0000
,
1000
0010
0100
0010
,
1000
0010
1000
0001
,
0000
0100
0010
1000
,
0001
0000
0100
0010
0000
0100
0010
0000
,
0000
1000
0001
0100
,
0010
1000
0001
0100
,
0000
1000
0001
0100
,
0010
0000
0000
1000
0000
0000
0001
0000
,
0100
0000
0100
0000
0001
1000
0000
0010
,
0000
0000
0000
0100
0000
0001
1000
0000
,
0000
0001
1000
0010
,
1000
0000
0001
0200
0000
0000
0000
0300
,
0010
0000
1000
0000
0001
0100
0000
0001
,
0000
0000
0000
1000
0000
0010
0100
0000
,
0000
1000
0001
0100
,
0010
0000
1000
0020
0000
0000
0000
0030
,
0100
0000
0001
0000
1000
0010
0000
0100
,
0000
0000
0000
0001
0000
0100
0001
0000
,
0000
1000
0001
0100
,
0001
0000
1000
0020
0000
0000
0000
0030
,
0100
0000
0001
0000
1000
0001
0000
0100
,
0000
0000
0000
0001
0000
1000
0001
0000
,
0000
0100
0010
1000
,
0001
0100
0010
1000
,
0001
0000
0100
0000
0000
0010
0000
2000
,
0000
3000
0001
0000
0000
0100
0001
0000
,
0000
0000
1000
0000
0000
0010
0000
2000
,
0000
3000
0000
0010
0000
0100
0001
0000
,
0000
0000
1000
0000
0000
0010
0000
0200
,
0000
0300
0000
0001
0000
1000
0010
0000
,
0000
0000
0100
0000
0000
0001
0000
2000
,
0000
3000
0000
0010
0000
0100
0001
0000
,
0010
0000
0100
0000
1000
0001
0000
0200
,
0000
0000
0000
0000
0000
0300
0000
0000
,
0010
0000
1000
0000
0001
0100
0000
0002
,
0000
0000
0000
0003
,
1000
0000
0001
0000
1000
0100
0000
0020
,
0000
0000
0000
0030
,
0001
0000
1000
0000
0010
0100
0000
0002
,
0000
0000
0000
0000
0000
0003
0000
1000
,
0000
0010
0100
0000
0010
0000
1000
0000
,
0001
1000
0010
0100
,
0000
0001
1000
0010
,
0100
0000
0010
0000
1000
0001
1000
0000
,
0000
0010
0100
0010
,
1000
0001
0100
0001
,
0000
1000
0010
0100
,
0001
0000
0000
1000
0000
0000
0001
0000
,
1000
0000
0100
0000
1000
0001
0000
0010
,
0000
0000
0000
0100
0000
1000
0001
0000
,
0000
1000
0001
0100
,
0001
0000
1000
0002
0000
0000
0000
0000
,
0103
0000
0010
0000
0100
0001
0000
2000
,
0000
0000
0000
3001
0000
0100
0001
0000
,
0000
1000
0001
0100
,
0001
0000
1000
0020
0000
0000
0000
0000
,
0130
0000
0001
0000
1000
0001
0000
0100
,
0000
0000
0000
0010
0000
1000
0010
0000
,
0000
0001
1000
0010
,
0100
0000
0001
0200
0000
0000
0000
0000
,
0310
0000
1000
0000
0001
0100
0000
0020
,
0000
0000
0000
0130
0000
0001
1000
0000
,
0000
0010
1000
0010
,
0100
0001
0100
0010
,
1001
0000
0000
0000
;

//---------------dance-single - ----------------
#NOTES:
     dance-single:
     :
     Easy:
     3:
     0.310390,0.374796,0.000000,0.000000,0.000000,240.000000,240.000000,0.000000,0.000000,0.000000,0.000000,0.310390,0.374796,0.000000,0.000000,0.000000,240.000000,240.000000,0.000000,0.000000,0.000000,0.000000:
0000
0000
0000
0000
,
0000
0000
0000
0000
,
0000
0000
0000
0000
,
0000
0000
0000
0000
,
0000
0000
0001
0000
0000
1000
0000
0000
,
0010
0000
0000
0100
0000
0000
0010
0000
,
0000
0000
1000
0000
0000
0001
0000
0000
,
0100
0000
0010
0000
,
1000
0000
1000
0000
0000
0001
0000
1000
,
0000
0001
0000
1000
0000
0000
0000
0000
,
0010
0000
0010
0000
0000
0100
0000
0001
,
0000
0100
0000
0001
0000
0000
0000
0000
,
1000
0000
0010
0000
,
0100
0000
0001
0001
,
1000
0000
0010
0000
,
0100
0000
0001
0001
,
0100
0000
0001
0000
,
0010
0000
0100
0100
,
1000
0000
0000
0000
0001
0000
0000
0100
,
0000
0010
0000
0100
0000
0000
0000
0000
,
0001
0000
1000
0000
,
0010
0100
0010
0000
,
1000
0000
0001
0000
,
1000
0010
0100
0000
,
0001
0000
1000
0000
,
0001
0100
0010
0000
,
1000
0000
0010
0000
,
0100
0001
0100
0010
,
0000
0000
1000
0000
,
1000
0000
0010
0000
,
0010
0000
0100
0010
,
0100
0010
0000
0100
,
0000
0001
1000
0001
,
1000
0010
0100
0010
,
0000
1000
0001
0100
,
0010
0000
0000
0010
0000
0000
0010
0000
,
0000
1000
0010
0000
0100
0000
0000
0001
,
0000
0000
0000
1000
0000
0000
0010
0000
,
0000
0000
0100
0001
,
0100
0000
0000
0010
0000
0000
0000
0000
,
1000
0000
0010
0000
0100
0000
0000
0001
,
0000
0000
0000
1000
0000
0000
0010
0000
,
0000
0000
0100
0001
,
1000
0000
0000
0010
0000
0000
0000
0000
,
1000
0000
0001
0000
0100
0000
0000
0001
,
0000
0100
0000
0001
,
0000
1000
0010
0100
,
0010
0000
0000
1000
0000
0000
0000
0000
,
0001
0000
0100
0000
0001
0000
0000
1000
,
0000
0000
0010
0100
,
0000
0001
0010
0100
,
1000
0100
0010
0001
,
1000
0000
0010
0000
0000
0010
0000
0100
,
0000
0000
0000
0001
0000
0000
1000
0000
,
0000
0000
0010
0000
0000
0010
0000
0100
,
0000
0000
0000
0001
0000
0000
1000
0000
,
0000
0000
0010
0000
0000
0100
0000
0010
,
0000
0000
0000
0100
0000
0000
0001
0000
,
0000
0000
1000
0000
0000
0010
0000
0100
,
0000
0000
0000
0001
0000
0000
0000
0000
,
1000
1000
0000
0010
,
0100
0000
0000
0000
,
0001
0001
0000
1000
,
0010
0000
0000
0000
,
0100
0100
0000
0001
,
1000
0000
0000
0000
,
0010
0000
0010
0000
0000
0100
0000
0001
,
0000
0000
0000
1000
,
0010
0100
0010
0100
,
0010
0100
0010
1000
,
0000
0001
0100
0010
,
1000
0100
0010
0001
,
0000
1000
0010
1000
,
0001
0100
0001
1000
,
0000
0010
0100
0001
,
1000
0000
0000
0010
0000
0000
0100
0000
,
0001
0000
1000
0000
0010
0000
0000
0100
,
0000
0000
0000
0001
0000
0000
0010
0000
,
0000
0000
0100
0000
1000
0000
0000
0010
,
0000
0100
0000
0000
0001
0000
0000
0000
,
1000
0000
0010
0000
0100
0000
0000
0001
,
0000
0000
0000
1000
0000
0000
0010
0000
,
0000
0100
0001
1000
,
0010
0000
0100
0000
,
1000
0000
0100
0000
0010
0000
0000
0001
,
0000
1000
0000
0010
,
0000
0100
0001
0010
,
0100
0000
0000
1000
0000
0000
0000
0000
,
0010
0000
0100
0000
0010
0000
0000
1000
,
0000
0000
0000
0001
0000
0000
0100
0000
,
0000
0001
0010
0100
,
1000
0001
1000
0010
,
0100
0000
0000
0000
;
