#TITLE:HEADPHONE PARTY;
#SUBTITLE:;
#ARTIST:A-One;
#TITLETRANSLIT:;
#SUBTITLETRANSLIT:;
#ARTISTTRANSLIT:;
#GENRE:;
#CREDIT:SupremeX;
#BANNER:HEADPHONE PARTY.png;
#BACKGROUND:HEADPHONE PARTY-bg.png;
#LYRICSPATH:;
#CDTITLE:CDTitle.png;
#MUSIC:HEADPHONE PARTY.ogg;
#OFFSET:-0.030429;
#SAMPLESTART:80.190002;
#SAMPLELENGTH:12.000000;
#SELECTABLE:YES;
#BPMS:0.000000=152.000000
;
#STOPS:
;
#BGCHANGES:36.000=flower1.avi=1.000=0=0=1=====,
52.000=light6.avi=1.000=0=0=1=====,
68.000=light7.avi=1.000=0=0=1=====,
84.000=mikeneko1.avi=1.000=0=0=1=====,
100.000=mikeneko2.avi=1.000=0=0=1=====,
115.000=mikeneko1.avi=1.000=0=0=1=====,
132.000=space1.avi=1.000=0=0=1=====,
147.000=mikeneko2.avi=1.000=0=0=1=====,
162.000=light6.avi=1.000=0=0=1=====,
178.500=Space1R.avi=1.000=0=0=1=====,
194.500=mikeneko1.avi=1.000=0=0=1=====,
203.000=flower1.avi=1.000=0=0=1=====,
219.000=space1.avi=1.000=0=0=1=====,
235.500=flower1.avi=1.000=0=0=1=====,
252.000=mikeneko2.avi=1.000=0=0=1=====,
268.000=light6.avi=1.000=0=0=1=====,
277.000=light7.avi=1.000=0=0=1=====,
284.000=light6.avi=1.000=0=0=1=====,
293.000=light7.avi=1.000=0=0=1=====,
301.750=HEADPHONE PARTY-bg.png=1.000=0=0=1=====,
99999=-nosongbg-=1.000=0=0=0 // don't automatically add -songbackground-
;
#KEYSOUNDS:;
#ATTACKS:;

//---------------dance-single - ----------------
#NOTES:
     dance-single:
     :
     Hard:
     8:
     0.357285,0.437312,0.091096,0.240162,0.033126,302.000000,291.000000,11.000000,29.000000,0.000000,0.000000,0.357285,0.437312,0.091096,0.240162,0.033126,302.000000,291.000000,11.000000,29.000000,0.000000,0.000000:
0000
0000
0000
0000
,
0000
0000
0000
0000
,
0000
0000
0000
0000
,
0000
0000
0000
0000
,
0000
0000
0000
0000
,
0000
0000
0000
0000
,
0000
0000
0000
0000
,
0000
0000
0000
0000
,
0000
0000
0000
0000
,
0100
0100
0100
0100
,
0100
0100
0100
0001
,
0001
0001
0001
0001
,
0001
0001
0001
0000
,
1000
0000
0010
0100
0000
0001
0100
0010
,
0000
1000
0010
0100
0000
0001
1000
0000
,
0110
0000
0000
1001
0000
0000
0220
0000
,
0000
0000
0000
0000
0000
0330
0000
0000
,
0001
0000
0000
0100
0000
0000
0010
0000
0000
0000
1000
0000
0100
0000
0010
0000
,
1000
0000
0000
0010
0000
0000
0100
0000
0000
0000
0001
0000
0010
0000
0100
0000
,
1000
0020
0000
0130
,
1000
0001
0100
0010
,
1000
0000
0000
0100
0000
0000
0010
0000
0000
0000
1000
0000
0010
0000
0100
0000
,
0001
0000
0000
0010
0000
0000
0100
0000
0000
0000
0001
0000
1000
0000
0100
0000
,
0010
2000
0000
3010
,
0100
0000
0001
0100
1000
0010
0001
0100
,
0010
0000
1000
1000
0000
0010
0000
0200
,
0000
0000
0010
0000
0310
0000
0001
0010
,
0100
0000
1000
0010
0000
0100
0000
0002
,
0000
0000
0010
0000
0013
0000
1000
0010
,
0100
0000
0001
1000
0000
0010
0000
0100
,
0000
0001
0000
1000
0000
0010
0000
0100
,
0000
0001
0000
2002
0000
0000
0000
3003
,
0000
1000
0010
0100
,
0001
0000
0001
0100
0000
0010
0000
0110
,
0000
1000
0100
0010
0000
0100
0001
1000
,
0100
0000
0010
0001
0000
0100
0000
0110
,
0000
1000
0000
0001
0000
0000
0010
1000
,
0010
0000
0100
0001
0000
0010
0000
1000
,
0000
0100
0000
0010
0000
0001
0000
2200
,
0000
0000
0000
0000
0000
3300
0000
0000
,
0000
0000
0000
0000
0010
1000
0010
0100
,
0001
0000
0010
0001
0000
0100
0000
1000
,
0000
0001
0000
0100
0001
0010
0100
1000
,
0010
0000
0100
0010
0000
0001
0000
1000
,
0000
0010
0000
0100
0000
0001
0010
0000
,
0200
0000
0000
0300
2000
0000
0000
3000
,
0002
0000
0000
0003
0200
0000
0000
0300
,
0010
0010
0010
0010
,
0010
1000
0100
0001
,
0100
1000
0001
0110
,
2002
0000
3003
0100
,
0001
0010
0100
1000
0000
0010
0000
2000
,
0000
0010
3010
0100
,
0001
0010
0100
1000
0000
0010
0000
0200
,
0000
0001
0301
0010
,
1000
0010
1000
0100
0000
0001
0100
0001
,
0000
0100
0010
1000
0000
0100
1000
0000
,
0010
0000
0100
0002
0000
0000
0000
0000
,
0003
0100
0010
1000
,
0010
0100
0001
0010
0000
0100
0000
2000
,
0000
0010
3010
0100
,
0001
0010
0100
1000
0000
0010
0000
0200
,
0000
0001
0301
0010
,
1000
0010
1000
0100
0000
0001
0100
0001
,
0000
1000
0010
0100
0000
0001
1000
0000
,
0020
0000
0030
0200
0000
0300
2002
0000
,
0000
0000
0000
3003
0000
0000
0000
0000
,
0010
0000
0000
1000
0000
0000
0100
0000
0000
0000
0001
0000
0010
0000
0100
0000
,
1000
0000
0000
0010
0000
0000
0100
0000
0000
0000
0001
0000
0010
0000
0100
0000
,
1000
0000
0010
0100
0001
0010
0002
0000
,
0103
0000
0010
1000
0010
1000
0100
0000
,
0001
0000
0000
0100
0000
0000
0010
0000
0000
0000
1000
0000
0100
0000
0010
0000
,
0001
0000
0000
0100
0000
0000
0010
0000
0000
0000
0001
0000
1000
0000
0100
0000
,
2000
0000
3000
0010
1000
0010
0100
0000
,
0001
0000
0100
0010
1000
0001
0100
0010
,
0220
0000
0000
0000
0000
0000
0000
0330
0000
0000
0000
0000
0000
0000
0000
0000
;

//---------------dance-single - ----------------
#NOTES:
     dance-single:
     :
     Medium:
     6:
     0.338356,0.468936,0.132503,0.041407,0.000000,286.000000,270.000000,16.000000,5.000000,0.000000,0.000000,0.338356,0.468936,0.132503,0.041407,0.000000,286.000000,270.000000,16.000000,5.000000,0.000000,0.000000:
0000
0000
0000
0000
,
0000
0000
0000
0000
,
0000
0000
0000
0000
,
0000
0000
0000
0000
,
0000
0000
0000
0000
,
0000
0000
0000
0000
,
0000
0000
0000
0000
,
0000
0000
0000
0000
,
0000
0000
0000
0000
,
1000
0000
0001
0000
,
1000
0000
0001
0000
,
0010
0000
0100
0000
,
0010
0000
0100
0000
,
1000
0001
1000
0010
,
0100
0001
1000
0010
,
0100
0001
0001
2000
,
0000
0000
0000
3000
0000
0000
0000
0000
,
0001
1000
0001
0100
,
1000
0001
0100
0010
,
0011
0000
1000
0010
1000
0000
0001
0000
,
0001
0100
0100
0100
,
0010
1000
0001
1000
,
0010
0100
0001
1000
,
1000
0010
0100
0001
,
1000
0000
0010
0000
0100
0001
1000
0000
,
0010
0100
1000
0100
,
0010
0001
0010
0100
,
1000
0010
0100
0001
,
1000
0010
0100
0001
,
1000
0010
0100
0100
,
0010
0010
1000
1000
,
0001
0001
0100
0010
,
1000
0010
1000
0000
0001
0100
0001
0000
,
0010
1010
0100
0101
,
0010
1010
0100
0101
,
0100
1100
0010
0011
,
0010
0011
0100
1100
,
0010
0100
0001
1000
,
0100
0010
0001
0010
,
0100
1000
0010
0100
,
0001
1000
1001
1001
,
0010
0100
0010
0000
1000
0000
1000
0000
,
0001
0001
1000
1000
,
0010
0100
0010
0000
0001
1000
0001
0000
,
0110
0110
1001
1001
,
0010
0010
0100
0100
,
0001
0001
1000
1000
,
0010
0100
0010
0000
1000
0001
1000
0000
,
0010
0100
0010
0000
1000
0000
0010
0000
,
0100
0001
0100
0000
0010
1000
0010
0020
,
0000
0000
0030
0000
,
1000
0001
0100
0010
,
1000
0010
1000
0000
0100
0001
0100
0000
,
0010
1000
0100
0100
,
0010
0010
0100
0100
,
0001
1000
0001
0000
0010
0100
0010
0000
,
1000
0000
0100
0000
0010
0000
0001
1000
,
0001
0000
0001
0000
0020
0000
0000
0030
,
0000
1000
0010
0100
,
0001
0001
1000
1000
,
0010
0010
0100
0100
,
0001
1000
0001
0000
0100
0010
0100
0000
,
0001
0001
1000
0010
,
0100
0000
0001
0001
0000
1000
1000
1000
,
0000
0010
0010
0010
0000
0100
0100
0000
,
0001
1000
0100
0020
,
0000
0000
0000
0000
0000
0030
0000
0000
,
1000
1000
1000
0001
,
0001
0001
0100
0100
,
0100
0000
0001
1000
0001
0000
1000
0001
,
1000
0010
0010
0100
,
0100
0001
0001
1000
,
1000
0001
0001
1000
,
1000
0000
0010
1000
0010
0000
0100
0001
,
0100
0010
0010
1000
,
1002
0000
0003
0000
;

//---------------dance-single - ----------------
#NOTES:
     dance-single:
     :
     Easy:
     4:
     0.233063,0.341609,0.016563,0.107659,0.000000,197.000000,195.000000,2.000000,13.000000,0.000000,0.000000,0.233063,0.341609,0.016563,0.107659,0.000000,197.000000,195.000000,2.000000,13.000000,0.000000,0.000000:
0000
0000
0000
0000
,
0000
0000
0000
0000
,
0000
0000
0000
0000
,
0000
0000
0000
0000
,
0000
0000
0000
0000
,
0000
0000
0000
0000
,
0000
0000
0000
0000
,
0000
0000
0000
0000
,
0000
0000
0000
0000
,
1000
0000
0001
0000
,
1000
0000
0010
0000
,
0100
0000
0001
0000
,
1000
0000
0001
0000
,
1000
0000
0001
0000
,
1000
0000
0001
0000
,
0010
0000
0100
0002
,
0000
0000
0003
0000
,
1000
1000
0000
0000
,
0001
0001
0000
0100
,
0100
0010
0010
0100
,
0001
1000
0001
1000
,
0010
0010
0000
0000
,
1000
1000
0000
0001
,
1000
0001
0100
0010
,
1000
0001
0100
0100
,
0001
1000
0010
0100
,
0100
0001
0001
0000
,
1000
0010
0100
0001
,
0001
0001
0001
0000
,
1000
1000
0010
0010
,
0100
0100
0001
0001
,
1000
1000
2000
0000
,
3000
0000
0000
0000
,
0001
0001
0100
0100
,
0010
0000
0000
0000
,
0001
0001
0010
1000
,
1000
0000
0000
0000
,
0010
0100
0001
0100
,
0100
0010
1000
0001
,
0100
0100
0100
0010
,
0001
1000
1000
0000
,
0001
0100
0010
1000
,
2000
0000
0000
3000
0000
0000
0000
0000
,
0010
0100
0001
0100
,
2000
0000
0000
3000
0000
0000
0000
0000
,
0001
0100
0010
0001
,
1000
1000
0010
0010
,
0200
0000
0000
0000
0000
0300
0000
0000
,
0000
0000
0000
0000
,
2000
0000
0000
3000
,
0002
0000
0003
0000
,
1000
0001
0100
0100
,
0020
0000
0030
1000
,
0001
0100
0010
1000
,
2000
0000
3000
0000
,
0001
0100
0010
1000
,
0100
0010
0001
0010
,
0100
1000
0002
0000
,
0003
1000
0010
0100
,
0001
0001
0010
0010
,
2000
0000
0000
3000
0000
0000
0100
0000
,
0010
0001
0010
0100
,
2000
0000
0000
3000
0000
0000
0100
0000
,
0010
0001
0010
0100
,
1000
1000
0010
0100
,
0100
0001
1000
2000
,
0000
0000
0000
3000
0000
0000
0100
0000
,
0100
0100
0100
0100
,
0001
0001
0001
0001
,
0001
1000
1000
1000
,
0010
0001
0001
0100
,
1000
1000
1000
0100
,
0001
0001
0001
1000
,
0001
0100
0100
0100
,
0001
0010
0010
1001
,
1001
0000
0000
0000
;

//---------------dance-single - Copied from----------------
#NOTES:
     dance-single:
     Copied from:
     Beginner:
     1:
     0.074533,0.187575,0.033126,0.057970,0.000000,63.000000,59.000000,4.000000,7.000000,0.000000,0.000000,0.074533,0.187575,0.033126,0.057970,0.000000,63.000000,59.000000,4.000000,7.000000,0.000000,0.000000:
0000
0000
0000
0000
,
0000
0000
0000
0000
,
0000
0000
0000
0000
,
0000
0000
0000
0000
,
0000
0000
0000
0000
,
0000
0000
0000
0000
,
0000
0000
0000
0000
,
0000
0000
0000
0000
,
0000
0000
0000
0000
,
1000
0000
0000
0000
,
0001
0000
0000
0000
,
1000
0000
0000
0000
,
0100
0000
0000
0000
,
0010
0000
0000
0000
,
0100
0000
0000
0000
,
1000
0000
0000
0002
,
0000
0000
0003
0000
,
0000
0000
0000
0000
,
1000
0000
0000
0000
,
0001
0000
0000
0000
,
0100
0000
0000
0000
,
0010
0000
0000
0000
,
1000
0000
0000
0000
,
0001
0000
0000
0000
,
0100
0000
0000
0000
,
0000
0010
0000
0000
,
0000
0000
0000
0000
,
1000
0000
0000
0000
,
0000
0000
0000
0000
,
0001
0000
0000
0000
,
0000
0000
0000
0000
,
1000
0000
0000
0000
,
0001
0000
0000
0000
,
0100
0000
0000
0000
,
0020
0000
0030
0000
,
0000
0000
0000
0000
0000
0000
0000
2000
,
0000
0000
0000
3000
0000
0000
0000
0000
,
0000
0000
0000
0000
0000
0000
0000
0002
,
0000
0003
0000
0000
,
0000
0000
0000
0000
,
0000
0000
0000
0000
,
1000
0000
0001
0000
,
0100
0000
0000
0000
,
0010
0000
0100
0000
,
1000
0000
0000
0000
,
0100
0000
0100
0000
,
0001
0000
0001
0000
,
1000
0000
0000
0000
,
0000
0000
0000
0000
,
0100
0000
0000
0000
,
0002
0000
0003
0000
,
0000
0000
0000
0000
,
1001
0000
0000
0000
,
0000
0000
0000
0000
,
1100
0000
0000
0000
,
0000
0000
0000
0000
,
0000
0000
0000
0000
,
0001
0000
0001
0000
,
1000
0000
1000
0000
,
0011
0000
0000
0000
,
0000
0000
0000
0000
,
1001
0000
0000
0000
,
0000
0000
0000
0000
,
1000
0000
0000
0000
,
1000
0000
0000
0000
,
0100
0000
0000
0020
,
0000
0000
0030
0000
,
0000
0000
0000
0000
,
1000
0000
0000
0000
,
0001
0000
0000
0000
,
0100
0000
0100
0000
,
0010
0000
0000
0000
,
1000
0000
0000
0000
,
0001
0000
0000
0000
,
0100
0000
0010
0000
,
2000
0000
3000
0000
;

//---------------dance-single - ----------------
#NOTES:
     dance-single:
     :
     Challenge:
     9:
     0.421170,0.593986,0.265006,0.240162,0.057970,356.000000,324.000000,32.000000,29.000000,0.000000,0.000000,0.421170,0.593986,0.265006,0.240162,0.057970,356.000000,324.000000,32.000000,29.000000,0.000000,0.000000:
0000
0000
0000
0000
,
0000
0000
0000
0000
,
0000
0000
0000
0000
,
0000
0000
0000
0000
,
0000
0000
0000
0000
,
0000
0000
0000
0000
,
0000
0000
0000
0000
,
0000
0000
0000
0000
,
0000
0000
0000
0000
,
1000
0010
1000
0100
1000
0010
1000
0100
,
1000
0010
1000
0100
1000
0000
0001
0010
,
0001
0100
0001
0010
0001
0100
0001
0010
,
0001
0100
0001
0010
0001
0000
0000
0000
,
0001
0000
0100
0010
0000
1000
0010
0100
,
0000
0001
0100
0010
0000
0001
1000
0000
,
0110
0000
0000
1001
0000
0000
0220
0000
,
0000
0000
0000
0000
0000
0330
0000
0000
,
0001
0000
0000
0100
0000
0000
0010
0000
0000
0000
1000
0000
0100
0000
0010
0000
,
0001
0000
0000
0100
0000
0000
0010
0000
0000
0000
1000
0000
0100
0000
0010
0000
,
0001
0000
0000
0000
0100
0010
0100
0010
0100
0010
0100
0000
0010
0000
1000
0000
,
0100
1001
0110
0110
,
0001
0000
0000
0010
0000
0000
0100
0000
0000
0000
1000
0000
0010
0000
0100
0000
,
0001
0000
0000
0010
0000
0000
0100
0000
0000
0000
1000
0000
0010
0000
0100
0000
,
0001
0000
0000
0000
0100
0010
0100
0010
0100
0010
0100
0000
0001
0000
0000
0000
,
0101
0000
1000
0010
0001
1000
0100
1000
,
0010
0110
1010
0101
,
0120
0000
0100
0000
0130
0000
0001
0100
,
0010
1010
1000
1001
,
0102
0000
0100
0000
1003
0000
0010
0100
,
0010
0000
1000
0001
0000
0100
0000
0110
,
0000
0010
0000
1010
0000
0100
0000
0101
,
0000
0010
0000
2002
0000
0000
0000
3003
,
0000
1000
0110
0110
,
0001
0000
0001
1000
0000
0010
0000
0110
,
0000
1000
0100
0010
0000
0001
0010
0100
,
1000
0000
0010
0100
0000
0001
0000
0110
,
0000
1000
0000
1001
0000
0000
0100
0010
,
1000
0000
0001
1000
0000
0010
0000
0110
,
0000
1000
0000
0101
0000
0010
0000
2200
,
0000
0000
0000
0000
0000
3300
0000
0000
,
0000
0000
0000
0000
0001
0010
0100
1000
,
0010
0000
0100
0001
0000
1000
0010
1000
,
0100
0010
0100
0001
0010
1000
0100
0010
,
0001
0000
1000
0010
0000
1001
0000
2010
,
0000
0000
0000
3001
0000
0100
0010
0000
,
2000
0000
0000
3000
0020
0000
0000
0030
,
0200
0000
0000
0300
0002
0000
0000
0003
,
2000
0010
0010
0010
,
3010
0002
0100
0100
,
0103
0010
1000
0100
,
2002
0000
3003
0010
,
0100
0010
0001
1000
0000
0010
0000
2000
,
0000
0100
0000
0100
0000
3100
0000
0010
,
0100
0000
0010
1000
0000
0100
0000
0002
,
0000
0010
0000
0010
0000
0013
1000
0000
,
0100
0010
0001
0100
0000
0010
1000
0010
,
0000
0100
0001
0100
0000
0010
1000
0000
,
0100
0000
0001
2000
0000
0100
0000
0100
,
0000
3100
0001
0000
0100
0000
0010
0000
,
1000
0100
0010
0001
0000
0100
0000
0002
,
0000
0010
0000
0010
0000
0013
0000
0000
,
1000
0100
0010
0001
0000
1000
0000
0200
,
0000
0010
0000
0010
0000
0310
0000
0000
,
0001
0010
1000
0100
0000
0010
0100
0001
,
0000
1000
0010
0100
0000
0001
1000
0000
,
0020
0000
0030
0200
0000
0300
2002
0000
,
0000
0000
0000
3003
0000
0000
0000
0000
,
0010
0000
0000
0100
0000
0000
1000
0000
0000
0000
0001
0000
0010
0000
0100
0000
,
1000
0000
0000
0010
0000
0000
1000
0000
0000
0000
0001
0000
0100
0000
0010
0000
,
1000
0000
0100
0010
0001
0100
0020
0000
,
0130
0000
1000
0100
0010
0001
0100
0000
,
0001
0000
0000
1000
0000
0000
0001
0000
0000
0000
1000
0000
0010
0000
0100
0000
,
0001
0000
0000
0010
0000
0000
1000
0000
0000
0000
0010
0000
0100
0000
1000
0000
,
0010
0000
0100
0001
0100
0010
1000
0000
,
1001
0000
0010
0100
0010
1000
0100
0010
,
2002
0000
3003
0000
;
