#TITLE:華爛漫 -Flowers- (2nd EDITION);
#SUBTITLE:;
#ARTIST:TЁЯRA;
#TITLETRANSLIT:HANA RANMAN -Flowers- (2nd EDITION);
#SUBTITLETRANSLIT:;
#ARTISTTRANSLIT:TERRA;
#CREDIT:SupremeX;
#BANNER:HANA RANMAN -Flowers- (2nd EDITION).png;
#BACKGROUND:HANA RANMAN -Flowers- (2nd EDITION)-bg.png;
#LYRICSPATH:;
#CDTITLE:CDTitle.png;
#MUSIC:HANA RANMAN -Flowers- (2nd EDITION).ogg;
#OFFSET:0.023;
#SAMPLESTART:93.650;
#SAMPLELENGTH:12.000;
#SELECTABLE:YES;
#BPMS:0.000=160.000;
#STOPS:182.000=1.120
;
#BGCHANGES:22.000=twist.avi=1.000=0=0=1,
38.000=drop.avi=1.000=0=0=1,
54.000=flower2.avi=1.000=0=0=1,
62.000=flower1.avi=1.000=0=0=1,
70.000=oilan.avi=1.000=0=0=1,
102.000=twist.avi=1.000=0=0=1,
134.000=sakura1.avi=1.000=0=0=1,
150.000=oilan.avi=1.000=0=0=1,
166.000=drop.avi=1.000=0=0=1,
182.000=HANA RANMAN -Flowers- (2nd EDITION)-bg.png=1.000=0=0=1,
183.000=flower2.avi=1.000=0=0=1,
199.000=flower1.avi=1.000=0=0=1,
215.000=oilan.avi=1.000=0=0=1,
231.000=drop.avi=1.000=0=0=1,
247.000=twist.avi=1.000=0=0=1,
263.000=flower2.avi=1.000=0=0=1,
280.000=flower1.avi=1.000=0=0=1,
285.000=HANA RANMAN -Flowers- (2nd EDITION)-bg.png=1.000=0=0=1,
99999=-nosongbg-=1.000=0=0=0 // don't automatically add -songbackground-
;

//---------------dance-single - ----------------
#NOTES:
     dance-single:
     :
     Beginner:
     1:
     0.158,0.157,0.000,0.000,0.000:
0000
0000
0000
0000
,
0000
0000
0000
0000
,
0000
0000
0000
0000
,
0000
0000
0000
0000
,
0000
0000
0000
0000
,
0000
0000
1000
0000
,
1000
0000
1000
0000
,
1000
0000
0001
0000
,
0001
0000
0001
0000
,
0001
0000
0100
0000
,
0100
0000
0100
0000
,
0100
0000
0010
0000
,
0010
0000
0010
0000
,
0010
0000
1000
0000
,
1000
0000
1000
0000
,
1000
0000
0001
0000
,
0001
0000
0001
0000
,
0001
0000
0010
0000
,
0010
0000
0100
0000
,
0100
0000
0010
0000
,
0010
0000
0100
0000
,
0100
0000
0001
0000
,
0001
0000
1000
0000
,
1000
0000
0001
0000
,
1000
0000
0001
0000
,
0000
0000
0010
0000
,
0010
0000
0100
0000
,
0100
0000
0001
0000
,
0001
0000
1000
0000
,
1000
0000
0010
0000
,
0010
0000
0100
0000
,
0100
0000
0001
0000
,
0001
0000
1000
0000
,
1000
0000
0010
0000
,
0000
0000
0100
0000
,
0000
0000
0010
0000
,
0000
0000
0100
0000
,
0000
0000
1000
0000
,
0010
0000
1000
0000
,
0000
0000
0001
0000
,
0100
0000
0001
0000
,
0000
0000
0010
0000
,
0010
0000
0010
0000
,
0010
0000
1000
0000
,
1000
0000
1000
0000
,
1000
0000
0001
0000
,
0000
1000
0000
0001
,
0000
1000
0000
0001
,
0000
1000
0000
0001
,
0000
1000
0000
0010
,
0000
0010
0000
0010
,
0000
0010
0000
0100
,
0000
0100
0000
0100
,
0000
0100
0000
0001
,
0000
0001
0000
0100
,
0000
0100
0000
0010
,
0000
0010
0000
1000
,
0000
1000
0000
0001
,
0000
0001
0000
0100
,
0000
0100
0000
0010
,
0000
0010
0000
1000
,
0000
1000
0000
0001
,
0000
0100
0000
0001
,
0000
0100
0000
0001
,
0000
0100
0000
0010
,
0000
0010
0000
1000
,
0000
0010
0000
1000
,
0000
0010
0000
1000
,
0000
0010
0000
0100
,
0000
0100
0000
0001
,
0000
1000
0000
0001
,
0000
1000
0000
0000
;

//---------------dance-single - ----------------
#NOTES:
     dance-single:
     :
     Hard:
     8:
     0.495,0.478,0.247,0.053,0.053: // measure 1
0000
0000
0000
0000
,  // measure 2
0000
0000
0000
0000
,  // measure 3
0000
0000
0000
0000
,  // measure 4
0000
0000
0000
0000
,  // measure 5
0000
0000
0000
0000
,  // measure 6
0000
0000
0000
0000
1100
0000
0100
0010
,  // measure 7
0100
0000
0001
1000
0010
0000
1000
0010
,  // measure 8
0100
0000
0000
0000
0001
0010
0100
0000
,  // measure 9
1000
0100
1000
0000
0110
0000
1001
0000
,  // measure 10
0110
0000
0000
0000
0001
0000
0100
0001
,  // measure 11
0100
0000
0001
0010
0000
0100
1000
0100
,  // measure 12
0010
0000
0001
0010
0001
0000
0010
0000
0100
0000
0000
0000
1000
0000
0100
0000
,  // measure 13
0010
0000
0001
0100
0000
0100
0010
1000
,  // measure 14
0001
0000
1100
0000
0010
0000
0100
0010
,  // measure 15
0100
0000
0001
1000
0000
1000
0100
0010
,  // measure 16
0001
0000
0110
0000
1000
0000
0100
1000
,  // measure 17
0100
0000
0010
0001
0010
0000
1100
0000
,  // measure 18
0110
0000
0000
0000
0001
0100
0010
0000
,  // measure 19
1000
0001
0100
0000
0010
1000
0001
0000
,  // measure 20
1000
0100
0010
0000
0001
0010
0100
0000
,  // measure 21
1000
0100
1000
0000
0001
1000
0001
0000
,  // measure 22
0100
0010
0100
0000
0010
0000
0000
0000
0110
0000
0000
0000
0101
0000
0000
0000
,  // measure 23
0010
0000
1010
0000
1100
0000
0001
0001
,  // measure 24
0000
1000
0000
1000
0100
0000
0000
0010
,  // measure 25
0100
0100
0020
0031
,  // measure 26
0100
0000
0100
0000
1001
0000
0010
0100
,  // measure 27
0010
0000
0000
0000
1000
0000
0100
0000
0010
0000
0000
0001
0010
0000
0001
0000
,  // measure 28
1000
0000
0100
1000
0100
0000
1000
0001
,  // measure 29
1000
0000
0000
0000
0001
0000
0010
0000
0100
0000
0000
1000
0100
0000
1000
0000
,  // measure 30
0100
0000
0010
0001
0010
0000
0100
1000
,  // measure 31
0100
0000
0000
0000
1000
0000
0010
0000
1000
0000
0000
0010
0100
0000
0010
0000
,  // measure 32
1000
0000
0100
0010
0001
0000
1000
0100
,  // measure 33
1000
0000
0000
0000
0001
0000
0100
0000
0001
0000
0000
1000
0100
0000
1000
0000
,  // measure 34
0100
0000
0010
0000
0200
0000
0000
0010
,  // measure 35
0010
0000
0000
0010
0010
0000
0300
0000
,  // measure 36
0001
0100
1000
0100
,  // measure 37
0001
0010
0100
1000
,  // measure 38
0010
0100
0201
0000
,  // measure 39
0010
0310
1000
0100
,  // measure 40
1100
0010
0012
0000
,  // measure 41
1003
0010
1010
0100
,  // measure 42
0101
0000
0010
1000
0010
0000
1000
0001
,  // measure 43
1000
0000
0010
0100
0010
0100
0001
1000
,  // measure 44
0001
0000
1000
0100
1000
0000
0001
0100
,  // measure 45
0001
0000
1000
0010
0100
0001
1000
0010
,  // measure 46
0100
1001
0110
0001
,  // measure 47
0100
0000
0100
0000
0100
0000
0000
0000
0010
0000
1000
0000
0010
0000
0000
1000
,  // measure 48
0100
1000
1000
0000
0100
0010
0001
0000
,  // measure 49
1000
0000
0100
0000
1000
0000
0000
0000
0001
0000
0010
0000
0100
0000
0000
1000
,  // measure 50
0100
1000
1000
0000
0010
0000
0100
0000
,  // measure 51
0001
0000
1000
0000
0010
0000
0000
0000
1000
0000
0001
0000
1000
0000
0000
0010
,  // measure 52
0100
0010
0010
0000
1000
0001
1000
0000
,  // measure 53
0010
0000
0100
0000
0010
0000
0000
0000
1000
0000
0100
0000
0010
0000
0000
0001
,  // measure 54
0100
0010
0010
0000
1000
0000
1100
0000
,  // measure 55
0100
0000
0110
0000
0010
0001
0010
0000
,  // measure 56
0100
1000
0100
0000
0010
0001
1000
0000
,  // measure 57
0010
0000
0100
0000
0001
0000
0000
0000
1000
0000
1000
0000
1000
0000
0000
0010
,  // measure 58
0100
0010
0100
0000
0001
0000
1001
0000
,  // measure 59
0100
0000
0110
0000
0001
1000
0001
0000
,  // measure 60
0100
0010
0100
0000
0001
0010
0100
0000
,  // measure 61
1000
0000
0100
0000
0010
0000
0000
0000
0001
0000
1000
0000
0001
0000
0000
0100
,  // measure 62
0010
0100
0010
0000
1001
0000
0100
0000
,  // measure 63
0010
1000
0000
1000
0000
0010
0100
0000
,  // measure 64
0100
0001
0000
0001
0000
1000
0100
0000
,  // measure 65
0100
1000
0000
1000
0000
0010
0010
0000
,  // measure 66
0100
0101
1000
1100
,  // measure 67
0010
0100
0000
0100
0000
0001
0001
0000
,  // measure 68
1000
0100
0000
0100
1000
0010
0010
0000
,  // measure 69
0100
0001
0000
0001
0000
1000
1000
0000
,  // measure 70
0010
0210
0000
0301
,  // measure 71
1000
0100
0010
0001
0010
0100
1000
0010
,  // measure 72
1000
0001
2000
0000
0000
0000
0000
0000
,  // measure 73
0000
3000
0000
0000
;

//---------------dance-single - ----------------
#NOTES:
     dance-single:
     :
     Medium:
     6:
     0.376,0.377,0.132,0.132,0.000:
0000
0000
0000
0000
,
0000
0000
0000
0000
,
0000
0000
0000
0000
,
0000
0000
0000
0000
,
0000
0000
0000
0000
,
0000
0000
1000
0010
,
1000
0000
0001
0100
0001
0000
0001
0100
,
0001
0000
0001
0100
,
0001
0000
1000
0010
1000
0000
1000
0010
,
1000
0000
0100
0000
0010
0000
0001
0001
,
0001
0000
1000
0001
0000
0100
0010
0100
,
0010
0000
0000
0000
1000
0000
0010
0100
,
0010
0000
0100
0001
0000
1000
0001
1000
,
0010
0000
0100
0000
0001
0000
1000
0010
,
1000
0000
0010
0100
0000
0001
0010
0100
,
1000
0000
0000
0000
0010
0000
1000
0001
,
0001
0000
0100
0010
0000
1000
0010
0000
,
0100
0000
0001
0010
,
0100
1000
0001
1000
,
0010
0100
0001
1000
,
0001
0010
0100
1000
,
1001
0000
0000
0000
0100
0010
0100
0000
,
0100
0010
0100
0000
0001
1000
0001
0000
,
0001
1000
0001
0000
0100
0000
0000
0000
,
0010
1000
1001
0000
,
0010
1000
0110
0001
,
0101
0010
1000
0010
,
0100
0001
0100
0001
,
1010
0100
0001
0100
,
0001
0000
1000
1000
1000
0000
0001
0001
,
0001
0100
0010
0100
,
0010
0000
1000
1000
1000
0000
0001
0001
,
0001
0000
0100
0000
0010
0000
1000
0001
,
0100
0110
0002
0000
,
0000
0000
0000
0000
0000
0003
0000
0000
,
1000
0010
1000
0001
,
0100
0001
1000
0010
,
0100
0001
2000
0000
,
3010
0000
0202
0000
,
0000
0303
0000
0000
2000
0000
0000
0000
,
3001
0000
0220
0000
,
0330
0000
0001
1000
,
0001
0000
1000
0000
0010
0100
0010
0100
,
0010
0000
1000
0001
,
1000
0000
0001
0000
0100
0010
0100
0010
,
0100
0010
1001
0100
,
0000
0010
0000
0100
,
0010
0110
0001
1000
,
0001
1001
0100
0010
,
0100
0000
0110
0000
1000
0010
1000
0000
,
1000
0010
1000
0000
0001
0000
1000
0000
,
0001
0000
1000
0000
0001
0100
0001
0000
,
0001
0100
0001
0000
1000
0000
0010
0000
,
0100
0001
1000
0001
,
0100
0010
1000
0001
,
0100
0010
1000
0000
0001
0000
0100
0000
,
0001
1000
0001
0100
,
1000
0010
1000
0000
0001
0000
0010
0000
,
1000
0010
0100
0001
,
1000
0010
1000
0000
0001
0000
0100
0000
,
0010
0000
1000
0000
0001
0100
0001
0000
,
1000
0010
0100
0002
,
0000
1003
0000
0000
0001
0000
0210
0000
,
0000
0301
0000
0000
1000
0000
1002
0000
,
0000
0103
0000
0000
0010
0000
0100
0000
,
0010
1000
0001
0200
,
0000
0310
0000
0000
1000
0001
0020
0000
,
0000
0130
1000
0000
0000
0010
0002
0000
,
0000
0103
0000
0000
1000
0000
0010
0000
,
0100
0000
2002
0000
0000
0000
0000
3003
,
0000
0100
0010
0100
,
0010
0100
0000
0000
;

//---------------dance-single - ----------------
#NOTES:
     dance-single:
     :
     Easy:
     3:
     0.292,0.314,0.212,0.062,0.000:
0000
0000
0000
0000
,
0000
0000
0000
0000
,
0000
0000
0000
0000
,
0000
0000
0000
0000
,
0000
0000
0000
0000
,
0000
0000
0001
0010
,
0100
1000
0001
0010
,
0100
0000
1000
0100
,
0010
0001
1000
0100
,
0010
0000
0001
0000
,
0001
0000
0100
0010
,
0100
0000
1000
0000
,
1000
0000
0010
0100
,
0010
0010
0001
1000
,
0001
1000
0001
1000
,
1000
0000
0001
1000
,
0001
1000
0001
0001
,
0001
0000
0100
0010
,
0100
0100
0001
1000
,
1000
0001
0100
0010
,
0010
0100
0001
1000
,
0001
0001
0100
0010
,
1000
1000
0001
0100
,
0010
0010
1001
0000
,
0100
0010
0110
0000
,
1000
0001
1001
0000
,
0110
0000
0001
1000
,
0001
0000
0110
0000
,
1001
0100
0010
0100
,
0010
0000
1010
0000
,
0101
0001
0010
0100
,
1000
0000
0011
0000
,
1100
0000
0010
0100
,
0010
0100
0200
0000
,
0000
0000
0000
0000
0000
0300
0000
0000
,
0002
0000
0000
0000
,
0000
0000
0000
0000
,
0003
0000
2000
0000
,
0000
3000
0000
0000
0000
0000
0000
0000
0000
0000
0000
0000
0000
0000
0000
0000
0000
0000
0000
0000
0000
0000
0000
0000
0000
0000
0000
0000
0000
0000
0000
0000
0000
0000
0000
0000
0000
0000
0000
0000
0000
0000
0000
0000
0000
0000
0000
0000
0000
0000
0000
0000
0000
0000
0000
0000
0000
0000
0000
0000
0000
0000
0000
0000
0000
0000
0000
0000
0000
0000
0000
0000
0000
0000
0000
0000
0000
0000
0000
0000
0000
0000
0000
0000
0000
0000
0000
0000
0000
0000
0000
0000
0000
0000
0000
0000
0020
0000
0000
0000
0000
0000
0000
0000
0000
0000
0000
0000
0000
0000
0000
0000
0000
0000
0000
0000
0000
0000
0000
0000
0000
0000
0000
0000
0000
0000
0000
0000
0000
0000
0000
0000
0000
0000
0000
0000
0000
0000
0000
0000
0000
0000
0000
0000
0000
0000
0000
0000
0000
0000
0000
0000
0000
0000
0000
0000
0000
0000
0000
0000
0000
0000
0000
0000
0000
0000
0000
0000
0000
0000
0000
0000
0000
0000
0000
0000
0000
0000
0000
0000
0000
0000
0000
0000
0000
0000
0000
0000
0000
0000
0000
0000
,
0000
0030
0002
0000
,
0000
0003
0200
0000
,
0300
0000
0010
0100
,
0010
0100
0010
0100
,
0100
0001
1000
0001
,
1000
0001
1000
1000
,
0010
0100
1001
0010
,
0010
0010
0100
0001
,
0100
0001
0100
0100
,
0100
0100
1000
0010
,
1000
0010
0100
0001
,
0010
0100
1000
0001
,
1000
0001
1000
0100
,
0010
0001
0001
1000
,
0001
1000
0010
0100
,
0010
0100
0001
1000
,
0001
1000
0010
0100
,
0010
0100
0001
1000
,
0001
1000
0100
0010
,
0100
0010
1000
0001
,
1000
0001
0100
0010
,
0100
0010
1000
0001
,
1000
0001
0100
0110
,
0000
1001
0000
0000
0000
0000
0110
0000
,
0000
1001
0000
0000
0000
0000
0011
0000
,
0000
0011
0000
0000
0000
0000
0100
0000
,
0100
1000
1000
0011
,
0000
0011
0000
0000
0000
0000
1100
0000
,
0000
1100
0000
0000
0000
0000
0110
0000
,
0000
0110
0000
0000
0000
0000
1000
0000
,
0100
0002
0000
0000
,
0000
0000
0003
1000
,
0001
1001
0000
0000
;
