#TITLE:Groovin' Motion;
#SUBTITLE:;
#ARTIST:SONIC dimension;
#TITLETRANSLIT:;
#SUBTITLETRANSLIT:;
#ARTISTTRANSLIT:;
#GENRE:;
#CREDIT:SupremeX;
#BANNER:Groovin' Motion-bn.png;
#BACKGROUND:Groovin' Motion-bg.png;
#LYRICSPATH:;
#CDTITLE:CDTitle.png;
#MUSIC:Groovin' Motion.ogg;
#OFFSET:-0.854649;
#SAMPLESTART:30.459999;
#SAMPLELENGTH:12.000000;
#SELECTABLE:YES;
#BPMS:0.000000=130.000000
;
#STOPS:
;
#BGCHANGES:-5.000=Groovin' Motion.avi=1.000=0=0=1=====,
99999=-nosongbg-=1.000=0=0=0 // don't automatically add -songbackground-
;
#KEYSOUNDS:;
#ATTACKS:;

//---------------dance-single - ----------------
#NOTES:
     dance-single:
     :
     Hard:
     7:
     0.377705,0.475909,0.143400,0.008963,0.327131,295.000000,279.000000,16.000000,1.000000,0.000000,0.000000,0.377705,0.475909,0.143400,0.008963,0.327131,295.000000,279.000000,16.000000,1.000000,0.000000,0.000000:
0000
0000
0000
0000
,
0000
0000
0000
0000
,
0000
0000
0000
0000
,
0000
0000
0000
0000
,
0100
0000
0000
0000
0010
0000
0000
0000
1000
0000
0000
0010
0000
0000
0100
0000
,
0000
0001
0000
0000
1000
0000
0000
0000
0010
0000
0000
0100
0000
0000
0001
0000
,
1000
0000
0000
0000
0010
0000
0000
0000
0100
0000
0000
0001
0000
0000
1000
0000
,
0000
0000
0010
0000
0000
1000
0000
0000
0001
0000
0000
0100
0000
0000
0010
0000
,
1010
0000
0000
0000
0001
0000
0000
0000
0100
0000
0000
0010
0000
0000
1000
0000
,
0000
0000
0001
0000
0000
0001
0000
0000
1000
0000
0000
0010
0000
0000
1000
0000
,
1001
0000
0000
0000
0100
0000
0000
0000
0010
0000
0000
1000
0000
0000
0001
0000
,
0000
0000
0100
0000
0000
0100
0000
0000
0001
0000
0000
1000
0000
0000
0010
0000
,
0110
0000
0000
0000
0001
0000
0000
0000
1000
0000
0000
0010
0000
0000
0100
0000
,
0000
0000
0001
0000
0000
0001
0000
0000
1000
0000
0000
0010
0000
0000
0100
0000
,
0101
0000
0000
0000
0010
0000
0000
0000
0100
0000
0000
1000
0000
0000
0010
0000
,
0000
0000
1000
0000
0000
1000
0000
0000
0001
0000
0000
0100
0000
0010
0000
0100
,
0010
0000
0000
0000
0100
0000
0001
0000
1000
0000
0000
0010
0000
0000
0100
0000
,
0000
0000
0001
0000
0000
1000
0000
0000
0100
0000
0000
0001
0000
0000
1000
0000
,
1010
0000
0000
0000
0100
0000
0000
0000
1000
0000
0000
0010
0000
0000
0100
0000
,
0000
0000
0001
0000
0000
1000
0000
0000
0010
0000
0000
0100
0000
0000
0001
0000
,
1001
0000
0000
0000
0001
0000
0000
0000
1000
0000
0000
0100
0000
0000
0010
0000
,
0000
0000
0001
0000
0000
0010
0000
0000
0100
0000
0000
0010
0000
0000
1000
0000
,
1010
0000
0000
0000
0100
0000
0000
0000
0001
0000
0000
0100
0000
0000
0001
0000
,
0000
0000
1000
0000
0000
0010
0000
0000
1000
0000
0000
0010
0000
0000
0100
0000
,
0101
0000
1000
0010
0001
0000
0001
0100
,
1000
0001
1010
0001
,
0010
0000
0000
0100
0000
0000
0010
0000
0000
0000
0000
0000
0100
0000
0000
0000
,
1000
0000
0000
0100
0000
0000
0010
0000
0100
0000
0000
0000
0001
0000
0100
0000
,
0001
0000
1000
0010
1000
0000
0001
0100
,
0010
0000
0000
0101
0000
0000
0000
0000
,
1000
0000
0000
0010
0000
0000
1000
0000
0000
0000
0000
0000
0001
0000
0000
0000
,
0110
0000
0000
0000
0001
1000
0001
1000
,
0010
0000
0000
0000
0100
0000
0000
0000
0010
0000
0000
0100
0000
0000
0100
0000
,
0010
1000
0000
1100
,
0001
0000
0000
0100
0000
0000
0001
0000
0000
0000
0000
0000
1000
0000
0000
0000
,
0100
0000
0000
0010
0000
0000
0100
0000
0001
0000
0000
0000
1000
0000
0100
0000
,
1000
0000
0000
0000
0010
0000
0000
0000
0100
0000
0000
0001
0000
0000
1000
0000
,
0010
0000
0100
0100
0000
0011
0000
0000
,
1000
0000
0000
0010
0000
0000
1000
0000
0000
0000
0000
0000
0001
0000
0000
0000
,
0110
0000
1000
0001
,
0100
0000
0010
0000
0100
0000
0010
0000
0100
0010
0100
0010
0100
0010
0100
0010
,
0100
0000
0000
0000
0001
0000
0100
0000
0001
0000
0000
1000
0000
0000
1000
0000
,
0000
0000
0001
0000
0000
0100
0000
0000
0001
0000
0000
1000
0000
0000
0010
0000
,
0100
0000
0000
0000
0001
0000
0010
0000
0001
0000
0000
1000
0000
0000
1000
0000
,
0000
0000
0100
0000
0000
0100
0000
0000
1000
0000
0000
0010
0000
0100
0000
0010
,
0100
0000
0000
0000
0001
0000
0000
0000
1000
0000
0000
0100
0000
0000
0100
0000
,
0000
0000
0010
0000
0000
0010
0000
0000
1000
0000
0000
0001
0000
0000
0100
0000
,
0010
0000
0000
0000
1000
0000
0100
0000
1000
0000
0000
0001
0000
0000
0010
0000
,
0000
0000
0100
0000
0000
0010
0000
0000
1000
0000
0000
0100
0000
0000
0010
0000
,
0001
0000
0000
0000
0100
0000
0010
0000
1000
0000
0000
0001
0000
0000
0001
0000
,
0000
0000
0010
0000
0000
0010
0000
0000
0100
0000
0000
0100
0000
0000
1000
0000
,
1001
0000
0000
0000
0010
0000
0100
0000
0010
0000
0000
1000
0000
0000
1000
0000
,
0000
0000
0001
0000
0000
0001
0000
0000
0100
0000
0000
0010
0000
0010
1000
0000
,
0100
0000
0000
0000
0001
0000
0100
0000
0001
0000
0000
0100
0000
0000
1000
0000
,
0000
0000
1000
0000
0000
0100
0000
0000
0010
0000
0000
0001
0000
0000
0000
0000
,
0110
0000
0000
0000
0001
0000
0010
0000
0100
0000
0000
0100
0000
0000
1000
0000
,
0000
0000
0001
0000
0000
1000
0000
0000
0001
0000
0000
1000
0000
0001
0000
0000
,
0200
0000
0000
0000
0000
0000
0000
0000
0001
0000
0000
0001
0000
0000
0000
0000
,
0001
0000
0000
0001
0000
0000
0000
0000
,
0301
0000
0000
0000
;

//---------------dance-single - ----------------
#NOTES:
     dance-single:
     :
     Medium:
     5:
     0.247109,0.264394,0.000000,0.008963,0.125475,193.000000,193.000000,0.000000,1.000000,0.000000,0.000000,0.247109,0.264394,0.000000,0.008963,0.125475,193.000000,193.000000,0.000000,1.000000,0.000000,0.000000:
0000
0000
0000
0000
,
0000
0000
0000
0000
,
0000
0000
0000
0000
,
0000
0000
0000
0000
,
0001
0000
0000
0000
0010
0000
0000
0000
1000
0000
0000
1000
0000
0000
1000
0000
,
0000
0000
0000
0000
0100
0000
0000
0000
0010
0000
0000
0001
0000
0000
0000
0000
,
0001
0000
0000
0000
0010
0000
0000
0000
1000
0000
0000
1000
0000
0000
1000
0000
,
0000
0000
0001
0000
,
1000
0000
0000
0000
0001
0000
0000
0000
0100
0000
0000
0100
0000
0000
0100
0000
,
0000
0000
0000
0000
0001
0000
0000
0000
1000
0000
0000
1000
0000
0000
0000
0000
,
0010
0000
0000
0000
0100
0000
0000
0000
0001
0000
0000
0001
0000
0000
0001
0000
,
0000
0000
0100
0000
0001
0000
0000
1000
,
0010
0000
0000
0000
0000
0000
0000
0000
1000
0000
0000
1000
0000
0000
1000
0000
,
0000
0000
0000
0000
0001
0000
0000
0000
1000
0000
0000
0010
0000
0000
0000
0000
,
0001
0000
0000
0000
0001
0000
0000
0000
1000
0000
0000
1000
0000
0000
1000
0000
,
0000
0010
0001
0000
,
0100
0000
0000
0000
0010
0000
0000
0000
0100
0000
0000
0010
0000
0000
1000
0000
,
0000
0000
0000
0000
0001
0000
0000
0000
0100
0000
0000
0010
0000
0000
0000
0000
,
0010
0000
0000
0000
1000
0000
0000
0000
0001
0000
0000
0100
0000
0000
0001
0000
,
0000
0000
1000
0000
0000
1000
0000
0000
0010
0000
0000
0000
0000
0000
0000
0000
,
1000
0000
0000
0000
0001
0000
0000
0000
0100
0000
0000
0010
0000
0000
0100
0000
,
0000
0010
0000
0100
,
0001
0000
0000
0000
1000
0000
0000
0000
0010
0000
0000
0010
0000
0000
0010
0000
,
0000
0000
1000
0000
,
0001
1000
0001
1000
,
0001
0000
0000
1000
0000
0000
0000
0000
,
0010
0000
0000
0100
0000
0000
0010
0000
0000
0000
0000
0000
0100
0000
0000
0000
,
0001
0000
0100
0001
,
1000
1000
0001
0100
,
0100
0000
0000
0010
0000
0000
0000
0000
,
1000
0000
0000
0100
0000
0000
1000
0000
0000
0000
0000
0000
0001
0000
0000
0000
,
0100
0000
0000
0000
0001
1000
0001
1000
,
0001
0100
0010
0000
,
0010
1000
0000
0000
,
0001
0000
0000
0100
0000
0000
0001
0000
0000
0000
0000
0000
1000
0000
0000
0000
,
0100
0000
0000
0000
0010
0000
0001
1000
,
0001
1000
0001
0000
,
0100
0000
0000
0001
0000
0000
0000
0000
,
1000
0000
0000
0010
0000
0000
1000
0000
0000
0000
0000
0000
0010
0000
0000
0000
,
1000
0000
0100
0001
,
0100
0000
0010
0000
0100
0010
0100
0010
,
0000
0000
0000
0000
0001
0000
0000
0000
1000
0000
0000
1000
0000
0000
1000
0000
,
0000
0001
0000
0000
0001
0000
0000
0010
,
0100
0000
0000
0000
0000
0000
0000
0000
0010
0000
0000
0010
0000
0000
0010
0000
,
0000
0100
0000
0000
1000
0000
0000
0000
,
0100
0000
0000
0000
0001
0000
0000
0000
1000
0000
0000
1000
0000
0000
1000
0000
,
0000
0010
0000
0000
0100
0000
0000
0000
,
0010
0000
0000
0000
1000
0000
0000
0000
0001
0000
0000
0001
0000
0000
0001
0000
,
0000
0100
0000
0000
1000
0000
0000
0000
,
0010
0000
0000
0000
0100
0000
0001
0000
0010
0000
0000
0010
0000
0000
0010
0000
,
0000
0100
0000
0000
1000
0000
0000
0001
,
1000
0000
0000
0000
0010
0000
0000
0000
0100
0000
0000
0100
0000
0000
0100
0000
,
0000
0001
0000
0000
1000
0000
0000
0000
,
0100
0000
0000
0000
0001
0000
1000
0000
0010
0000
0000
0010
0000
0000
0010
0000
,
0000
0000
1000
0000
0000
0000
0000
0000
0010
0000
0000
0100
0000
0000
0000
0000
,
1000
0000
0000
0000
0001
0000
0010
0000
1000
0000
0000
1000
0000
0000
1000
0000
,
0000
1000
0001
0000
,
0200
0000
0000
0000
,
0000
0000
0000
0000
,
0300
0000
0000
0000
;

//---------------dance-single - ----------------
#NOTES:
     dance-single:
     :
     Easy:
     3:
     0.201016,0.237450,0.000000,0.008963,0.000000,157.000000,157.000000,0.000000,1.000000,0.000000,0.000000,0.201016,0.237450,0.000000,0.008963,0.000000,157.000000,157.000000,0.000000,1.000000,0.000000,0.000000:
0000
0000
0000
0000
,
0000
0000
0000
0000
,
0000
0000
0000
0000
,
0000
0000
0000
0000
,
0001
0000
0000
0000
1000
0000
0000
0010
,
0000
0000
0100
0000
,
0001
0000
0000
0000
1000
0000
0000
1000
,
0000
0000
0000
0000
,
0010
0000
0100
0000
0010
0000
0000
0010
,
0000
1000
0001
1000
,
0001
0000
0100
0000
0010
0000
0000
0100
,
0000
0001
0000
0000
1000
0000
0001
0000
,
1000
0000
0010
0000
0100
0000
0000
0100
,
0000
0001
0010
0100
,
1000
0000
0001
0000
0100
0000
0000
0010
,
0000
0000
0000
0000
,
1000
0000
0001
0000
1000
0000
0000
1000
,
0000
0001
0100
0010
,
0100
0000
0010
0000
0001
0000
0000
0001
,
0000
0100
0010
1000
,
0010
0000
1000
0000
0100
0000
0000
0100
,
0000
0001
0010
0000
,
1000
0000
0001
0000
0010
0000
0000
0010
,
0000
1000
0010
0100
,
0001
0000
1000
0000
,
0010
0000
0000
0001
0000
0000
0000
0000
,
1000
0000
0000
1000
0000
0000
0010
0000
,
0100
0000
0100
0001
,
0010
1000
0001
1000
,
0010
0000
0000
0100
0000
0000
0000
0000
,
0001
0000
0000
0001
0000
0000
1000
0000
,
1000
0000
0010
0000
,
0100
0001
0100
0001
,
0100
0000
0000
0010
0000
0000
0000
0000
,
1000
0000
0000
1000
0000
0000
0001
0000
,
0100
0000
0100
0010
,
0100
0001
1000
0001
,
0100
0010
0000
0000
,
0100
0000
0000
0100
0000
0000
0100
0000
,
0010
0000
1000
0001
,
0100
0010
0100
0010
,
1000
0000
0001
0000
0100
0000
0000
0100
,
0000
0010
0100
0000
,
0100
0000
0001
0000
1000
0000
0000
0001
,
0000
0000
1000
0000
,
0001
0000
0010
0000
0100
0000
0000
0010
,
0000
0000
0010
0000
,
0010
0000
1000
0000
0001
0000
0000
0100
,
0000
0000
0000
0000
,
0010
0000
0100
0000
0001
0000
0000
0001
,
0000
1000
0010
0100
,
1000
0000
0001
0000
1000
0000
0000
1000
,
0000
0010
0100
0010
,
0100
0000
0001
0000
0100
0000
0000
0100
,
0000
0010
1000
0100
,
0001
0000
1000
0000
0010
0000
0000
0010
,
0000
1000
0001
0100
,
0020
0000
0000
0000
,
0000
0000
0000
0000
0000
0000
0000
0030
;

//---------------dance-single - Copied from----------------
#NOTES:
     dance-single:
     Copied from:
     Beginner:
     1:
     0.040971,0.076629,0.000000,0.000000,0.000000,32.000000,32.000000,0.000000,0.000000,0.000000,0.000000,0.040971,0.076629,0.000000,0.000000,0.000000,32.000000,32.000000,0.000000,0.000000,0.000000,0.000000:
0000
0000
0000
0000
,
0000
0000
0000
0000
,
0000
0000
0000
0000
,
0000
0000
0000
0000
,
0100
0000
0000
0000
,
0000
0000
0000
0000
,
0100
0000
0000
0000
,
0000
0000
0000
0000
,
0010
0000
0000
0000
,
0000
0000
0000
0000
,
0010
0000
0000
0000
,
0000
0000
0000
0000
,
1000
0000
0000
0000
,
0000
0000
0000
0000
,
1000
0000
0000
0000
,
0000
0000
0000
0000
,
0001
0000
0000
0000
,
0000
0000
0000
0000
,
0001
0000
0000
0000
,
0000
0000
0000
0000
,
0100
0000
0000
0000
,
0000
0000
0000
0000
,
0100
0000
0000
0000
,
0000
0000
0000
0000
,
0010
0000
0000
0000
,
0000
0000
0000
0000
,
0010
0000
0000
0000
,
0000
0000
0000
0000
,
0000
0000
0000
0000
,
1000
0000
0000
0000
,
0001
0000
0000
0000
,
1000
0000
0000
0000
,
0001
0000
0000
0000
,
0100
0000
0000
0000
,
0010
0000
0000
0000
,
0100
0000
0000
0000
,
0001
0000
0000
0000
,
1000
0000
0000
0000
,
0010
0000
0000
0000
,
0100
0000
0000
0000
,
0000
0000
0000
0000
,
1000
0000
0000
0000
,
0000
0000
0000
0000
,
0001
0000
0000
0000
,
0000
0000
0000
0000
,
0100
0000
0000
0000
,
0000
0000
0000
0000
,
0010
0000
0000
0000
,
0000
0000
0000
0000
,
1000
0000
0000
0000
,
0000
0000
0000
0000
,
1000
0000
0000
0000
,
0000
0000
0000
0000
,
0001
0000
0000
0000
,
0000
0000
0000
0000
,
0001
0000
0000
0000
,
0000
0000
0000
0000
,
0100
0000
0000
0000
;
