#TITLE:Grand Arc;
#SUBTITLE:;
#ARTIST:Tosh;
#TITLETRANSLIT:;
#SUBTITLETRANSLIT:;
#ARTISTTRANSLIT:;
#GENRE:;
#CREDIT:SupremeX;
#BANNER:Grand Arc.png;
#BACKGROUND:Grand Arc-bg.png;
#LYRICSPATH:;
#CDTITLE:CDTitle.png;
#MUSIC:Grand Arc.ogg;
#OFFSET:0.069672;
#SAMPLESTART:100.000000;
#SAMPLELENGTH:12.000000;
#SELECTABLE:YES;
#BPMS:0.000000=138.000000
;
#STOPS:
;
#BGCHANGES:20.000=gear.avi=1.000=0=0=1=====,
36.000=ring4.avi=1.000=0=0=1=====,
52.000=ring2.avi=1.000=0=0=1=====,
68.000=text11.avi=1.000=0=0=1=====,
84.000=gear.avi=1.000=0=0=1=====,
100.000=ring2.avi=1.000=0=0=1=====,
116.000=ring4.avi=1.000=0=0=1=====,
131.500=ring3.avi=1.000=0=0=1=====,
159.500=Grand Arc-bg.png=1.000=0=0=1=====,
164.000=text16r.avi=1.000=0=0=1=====,
172.000=text11.avi=1.000=0=0=1=====,
180.000=ring2.avi=1.000=0=0=1=====,
196.000=thunder1a.avi=1.000=0=0=1=====,
212.000=gear.avi=1.000=0=0=1=====,
228.000=thunder1a.avi=1.000=0=0=1=====,
244.000=text11.avi=1.000=0=0=1=====,
260.000=Grand Arc-bg.png=1.000=0=0=1=====,
99999=-nosongbg-=1.000=0=0=0 // don't automatically add -songbackground-
;
#KEYSOUNDS:;
#ATTACKS:;

//---------------dance-single - ----------------
#NOTES:
     dance-single:
     :
     Beginner:
     1:
     0.118615,0.140547,0.008649,0.017298,0.000000,96.000000,95.000000,1.000000,2.000000,0.000000,0.000000,0.118615,0.140547,0.008649,0.017298,0.000000,96.000000,95.000000,1.000000,2.000000,0.000000,0.000000:
0000
0000
0000
0000
,
0000
0000
1000
0000
,
1000
0000
0010
0000
,
0010
0000
0100
0000
,
0100
0000
0001
0000
,
0010
0000
1000
0000
,
0010
0000
1000
0000
,
0001
0000
0001
0000
,
0010
0000
1000
0000
,
0010
0000
0010
0000
,
0100
0000
0100
0000
,
0001
0000
0100
0000
,
0001
0000
0100
0000
,
0010
0000
1000
0000
,
0010
0000
1000
0000
,
0100
0000
0001
0000
,
0100
0000
0001
0000
,
0010
0000
0010
0000
,
0100
0000
0100
0000
,
1000
0000
1000
0000
,
1000
0000
1000
0000
,
0010
0000
0010
0000
,
0100
0000
0100
0000
,
0001
0000
0001
0000
,
0001
0000
0001
0000
,
0100
0000
0100
0000
,
0010
0000
0000
0000
,
0010
0000
0000
0000
,
0000
0000
0000
0000
,
0200
0000
0000
0300
,
0000
0000
0000
0000
,
0001
0000
0000
0000
,
1000
0000
0000
0000
,
0200
0000
0000
0000
,
0000
0000
0000
0000
,
0000
0000
0000
0000
0000
0300
0000
0000
,
0000
0000
0000
0000
,
0000
0000
0000
0000
,
0000
0000
0000
0000
,
0000
0000
0000
0000
,
0000
0000
0000
0000
,
1000
0000
0010
0000
,
1000
0000
0010
0000
,
1000
0000
0010
0000
,
1000
0000
0010
0000
,
0100
0000
0001
0000
,
0100
0000
0001
0000
,
0100
0000
0001
0000
,
0100
0000
0000
0000
,
0010
0000
0100
0000
,
0010
0000
0010
0000
,
0100
0000
0010
0000
,
0010
0000
0100
0000
,
0001
0000
1000
0000
,
0001
0000
1000
0000
,
1000
0000
0001
0000
,
1000
0000
0001
0000
,
0100
0000
0000
0000
,
0010
0000
0000
0000
,
1000
0000
0000
0000
,
0001
0000
0000
0000
,
1000
0000
0000
0000
,
0001
0000
0000
0000
,
0100
0000
0000
0000
,
0001
0000
0000
0000
,
1001
0000
0000
0000
;

//---------------dance-single - ----------------
#NOTES:
     dance-single:
     :
     Easy:
     4:
     0.274298,0.393531,0.138384,0.043245,0.000000,222.000000,206.000000,16.000000,5.000000,0.000000,0.000000,0.274298,0.393531,0.138384,0.043245,0.000000,222.000000,206.000000,16.000000,5.000000,0.000000,0.000000:
0000
0000
0000
0000
,
1000
0000
0010
0000
,
1000
0000
0010
0000
,
0001
0000
0100
0000
,
0001
0000
0000
0000
,
1000
1000
0010
0100
,
0001
0001
0100
0010
,
1000
1000
0010
0100
,
0001
0001
0100
0010
,
1000
0001
1000
1000
,
0010
0100
0010
0010
,
0001
1000
0001
0001
,
0100
0010
0100
0100
,
0001
1000
0001
0001
,
0010
0100
0010
0010
,
1000
0001
1000
1000
,
0010
0100
0010
0010
,
0001
1000
0001
0001
,
1000
0010
1000
1000
,
0010
0100
0001
0001
,
0010
0100
0001
0001
,
1000
0010
1000
1000
,
0010
1000
0010
0010
,
0001
0100
0001
0001
,
0100
0001
0100
0100
,
1000
0010
1000
1000
,
0100
0010
0001
0001
,
0100
0010
0001
0001
,
1000
1000
0010
0100
,
0200
0000
0000
0000
0000
0000
0000
0300
,
0000
0000
0000
0002
0000
0000
0000
0000
,
0003
0000
0000
2000
0000
0000
0000
3000
,
0000
0000
0000
0000
,
2002
0000
0000
0000
,
0000
0000
0000
0000
,
3003
0000
0000
0000
,
0000
0000
0000
0000
,
0000
1000
0000
0000
0000
0000
0000
0000
,
0000
0000
0000
0000
,
0000
0001
0000
0000
0000
0000
0000
0000
,
0000
0000
0000
0000
,
1000
0010
0100
1000
,
0010
0100
1000
1000
,
0010
0100
1000
1000
,
0001
0010
0100
1000
,
0001
0010
0100
1000
,
1000
0100
0010
0001
,
1000
0010
1000
0010
,
0100
0001
0100
0100
,
0001
0010
1001
1001
,
0010
0100
0010
1000
,
0001
0100
1001
1001
,
0010
0100
0010
0010
,
1000
0001
1001
1001
,
0010
0100
0001
0001
,
1000
1000
0010
0010
,
0100
0100
0001
0001
,
1000
0010
1001
1001
,
0010
0100
1001
1001
,
0010
0100
1001
1001
,
0001
0010
1010
1010
,
0001
0010
0100
1000
,
1000
0100
0010
0001
,
0001
0010
0100
1000
,
1000
0100
0010
0001
,
1001
0000
0000
0000
;

//---------------dance-single - Copied from----------------
#NOTES:
     dance-single:
     Copied from:
     Medium:
     6:
     0.363259,0.370340,0.017298,0.034596,0.000000,294.000000,292.000000,2.000000,4.000000,0.000000,0.000000,0.363259,0.370340,0.017298,0.034596,0.000000,294.000000,292.000000,2.000000,4.000000,0.000000,0.000000:
0000
0000
0000
0000
,
1000
0010
0100
0001
,
1000
0010
1000
0000
0001
0000
0100
0000
,
0010
1000
0001
1000
,
0010
0100
1000
0001
,
0100
0010
1000
0001
,
0100
0000
0010
0000
1000
0010
1000
0000
,
0001
0010
0100
1000
,
0001
0010
1000
1000
,
0001
1000
0001
0000
0100
0000
0010
0000
,
1000
0100
0010
0000
0001
0000
0001
0000
,
1000
0100
0010
0000
0001
0000
1000
0000
,
0001
0010
0100
0000
1000
0000
1000
0000
,
0010
0100
0010
0000
1000
0000
0001
0000
,
0100
0010
0100
0000
0010
0000
0100
0000
,
0001
1000
0001
0000
1000
0000
0001
0000
,
0100
0010
0100
0000
0001
0100
0001
0000
,
1000
0010
1000
0000
0001
0100
0010
0000
,
1000
1000
0010
0010
,
0100
0001
0010
0000
0100
1000
0010
0000
,
0100
0100
0001
0001
,
1000
0010
1000
0000
0001
0100
0001
0000
,
1000
1000
0010
0010
,
0100
0001
0100
0000
0010
1000
0010
0000
,
0100
0001
0100
0010
,
1001
0100
0001
0100
,
0010
1000
0010
0000
0100
0000
0100
0000
,
0001
0010
0100
1000
,
0010
1000
0010
0000
0100
0000
0100
0000
,
0001
0001
1000
1000
,
0010
1000
0010
0000
0100
0001
0100
0000
,
0010
0010
1000
1000
,
0001
0100
0010
0001
,
2000
0000
0000
0000
,
0000
0000
0000
0000
0000
0000
0000
0010
,
0010
0010
0020
0000
0000
0000
3030
0000
,
0000
0000
0000
0000
,
0001
0010
0100
1000
0010
0100
0010
0000
,
0000
0000
0000
0000
,
0001
0100
0001
1000
0010
1000
0001
0000
,
0000
0000
0000
0000
,
1000
0000
0010
0000
0100
0010
1000
0000
,
0001
0000
0001
0000
1000
0010
0100
0000
,
0010
0000
0010
0000
1000
0100
0010
0000
,
0100
0000
0100
0000
0001
1000
0010
0000
,
0100
0000
0001
0000
1000
0010
1000
0000
,
0001
0000
0001
0000
0100
0001
0100
0000
,
0010
1000
0010
0100
,
0001
0010
0100
0000
1000
0100
0010
0000
,
0100
0000
0001
0000
1000
0010
1000
0000
,
0001
0100
0001
0000
0010
0000
0010
0000
,
1000
0010
1000
0000
0001
0100
0001
0000
,
0010
0100
0010
0100
,
0010
1000
0100
0000
0001
0010
0100
0000
,
1000
0010
1000
0000
0001
0100
0010
0000
,
1000
0010
1000
0001
,
0100
0001
1000
1000
,
0010
0000
0100
0000
0001
0001
0001
0000
,
1000
0000
0010
0000
0100
0100
0100
0000
,
0010
0000
0010
0000
1000
1000
1000
0000
,
0100
0000
0010
0000
0001
0001
0001
0000
,
1000
0000
0001
0000
0100
0100
0100
0000
,
0001
0000
1000
0000
0010
0010
0010
0000
,
0001
0000
0100
0000
0001
1000
0001
0000
,
0100
0010
0100
0001
0000
1000
0001
0000
,
2002
0000
0000
0000
0000
0000
0000
3003
;

//---------------dance-single - Copied from----------------
#NOTES:
     dance-single:
     Copied from:
     Hard:
     9:
     0.483110,0.512779,0.051894,0.051894,0.194603,391.000000,385.000000,6.000000,6.000000,0.000000,0.000000,0.483110,0.512779,0.051894,0.051894,0.194603,391.000000,385.000000,6.000000,6.000000,0.000000,0.000000:
0000
0000
0000
0000
,
0100
0000
0001
0000
1000
0000
0000
0010
0100
0000
0010
0000
1000
0000
0000
0000
,
0001
0000
1000
0000
0010
0000
0100
0010
0000
0000
1000
0000
0001
0000
0000
0000
,
1000
0000
0100
0000
1000
0000
0000
0000
0000
0010
0100
0000
0001
0000
0000
0000
,
1000
0000
0100
0000
1000
0000
0100
0000
0010
0000
0001
0100
0000
0010
1000
0000
,
0000
0001
1000
0001
0000
0100
0100
0000
,
0010
0000
0000
0000
0010
0000
0100
0010
0000
0000
0100
0000
0001
0000
0000
0000
,
1000
0100
1000
0000
0010
0100
0110
0000
,
0001
1000
0010
1000
0001
0010
0001
0000
,
1000
0000
0010
0000
1000
0000
0000
0001
0100
0000
0001
0000
1000
0000
0000
0000
,
0010
0000
0100
0000
0010
0000
0000
0100
0001
0000
1000
0000
1000
0000
0000
0000
,
0010
0000
0100
0000
0010
0000
0000
1000
0001
0000
1000
0000
0010
0000
0000
0000
,
0100
0000
0001
0000
1000
0000
0000
0010
0100
0000
0010
0000
1000
0000
0000
0000
,
0001
0000
1000
0000
0001
0000
0000
0001
0100
0000
0001
0000
1000
0000
0000
0000
,
0100
0000
1000
0000
0001
0000
0000
1000
0100
0000
1000
0000
1000
0000
0000
0000
,
0001
1000
0100
0010
0001
0100
0100
0000
,
0010
1000
0100
0010
0001
0010
0100
0000
,
1000
0000
0000
1000
0000
0000
0100
0000
0000
0010
0000
0000
1001
0000
0000
0000
,
0010
0000
0000
0010
0000
0000
0100
0000
0000
0001
0000
0000
1001
0000
0000
0000
,
0100
0001
0100
0010
1000
0010
0100
0000
,
0010
1000
0010
0100
0001
1000
0001
0000
,
1000
0100
1000
0010
0100
0010
1000
0000
,
0100
0001
1000
0001
0100
0010
0100
0000
,
0001
0010
0100
1000
0100
0010
0001
0000
,
1000
0010
0100
0001
1000
0010
0100
0000
,
0001
0000
0000
0001
0000
0000
1000
0000
0000
1000
0000
0000
0110
0000
0000
0000
,
0001
0000
0001
0000
1000
0100
1000
0000
,
0010
0000
0000
0010
0000
0000
0100
0000
0000
0100
0000
0000
1001
0000
0000
0000
,
0010
1000
0010
0100
,
0001
0000
0000
1000
0000
0000
1000
0000
0000
1000
0000
0000
0100
0000
0000
0000
,
0010
0000
0000
0010
0000
0000
0010
0000
0000
0001
0000
0000
1000
0000
0000
0000
,
0100
0000
0000
0100
0000
0000
0100
0000
0000
1000
0000
0000
1000
0000
0000
0000
,
0010
0100
0001
0000
1000
0100
0010
0002
,
0000
0000
0000
0000
,
0000
0000
0000
0000
0000
0000
0003
1000
,
1000
0010
2000
0000
0000
0000
0000
0000
,
0000
0000
0000
3000
,
0001
0100
0010
1000
0001
0100
0100
0020
,
0000
0000
0000
0000
0000
0000
0000
0030
,
1000
0010
0100
0001
0100
0010
1000
0200
,
0000
0000
0000
0000
,
1300
1000
0010
0010
,
0100
0100
0001
0001
,
1000
1000
0100
0100
,
0010
0010
0001
0001
,
1000
0000
0010
0000
1000
0000
0000
0010
0100
0000
0010
0000
0100
0000
0000
0000
,
0001
0000
0010
0000
0100
0000
0000
1000
0100
0000
1000
0000
0100
0000
0000
0000
,
0010
0000
0001
0000
0010
0000
0000
0100
0010
0000
0100
0000
1000
0000
0000
0000
,
0010
0100
0010
0000
0100
0000
0000
0001
0010
0000
0001
0000
0010
0000
0000
0000
,
0100
0000
1000
0000
0100
0000
0000
0010
0100
0000
0010
0000
0100
0000
0000
0001
,
0010
0000
0100
0000
1000
0000
0000
0100
0010
0000
0100
0000
0010
0000
0000
0000
,
0001
0100
0000
0000
0100
0000
0000
0000
0000
0010
0100
0000
0010
0000
0000
1000
,
0100
1000
0100
0000
0010
0001
0010
0000
,
0100
0000
1000
0000
0010
0000
1000
0010
0000
0000
0100
0000
0001
0000
0000
0000
,
0100
0010
0100
0000
0010
0000
0000
0000
1000
0000
0010
0000
1000
0000
0000
0000
,
0001
0000
0010
0000
0100
0000
1000
0000
0010
0000
0100
0000
0010
0000
0000
0100
,
0001
0000
0100
0000
0010
0000
0000
1000
0010
0000
0100
0000
0100
0000
0000
0000
,
0001
0000
0010
0000
0100
0000
0000
1000
0100
0000
1000
0000
0100
0000
0000
0010
,
0001
0010
0100
0000
1000
0100
0000
0100
,
0000
1000
0100
0000
1000
0000
0000
0000
0001
0000
0100
0000
0001
0000
0000
0000
,
0100
0001
0100
0000
0001
0000
1000
0000
0010
0000
1000
0000
1000
0000
0000
0000
,
0001
0010
0100
1000
0010
0100
0010
1000
,
0100
0010
0001
0100
0010
1000
0010
0100
,
0001
0010
0100
1000
0010
1000
0100
0010
,
0001
0100
0001
1000
0010
1000
0001
0100
,
2002
0000
0000
0000
0000
0000
0000
3003
;
