#TITLE:Gimme a big beat;
#SUBTITLE:;
#ARTIST:Kors K;
#TITLETRANSLIT:;
#SUBTITLETRANSLIT:;
#ARTISTTRANSLIT:;
#GENRE:;
#CREDIT:SupremeX;
#BANNER:Gimme a big beat.png;
#BACKGROUND:Gimme a big beat-bg.png;
#LYRICSPATH:;
#CDTITLE:CDTitle.png;
#MUSIC:Gimme a big beat.ogg;
#OFFSET:-1.572090;
#SAMPLESTART:92.230003;
#SAMPLELENGTH:12.000000;
#SELECTABLE:YES;
#BPMS:0.000000=138.000000
;
#STOPS:
;
#BGCHANGES:32.500=wheel.avi=1.000=0=0=1=====,
60.000=Gimme a big beat-bg.png=1.000=0=0=1=====,
64.000=blackhole1.avi=1.000=0=0=1=====,
80.000=circle1.avi=1.000=0=0=1=====,
96.000=face3.avi=1.000=0=0=1=====,
112.000=beads1.avi=1.000=0=0=1=====,
128.000=tripbox.avi=1.000=0=0=1=====,
160.000=bottle1.avi=1.000=0=0=1=====,
176.000=face3.avi=1.000=0=0=1=====,
192.000=wheel.avi=1.000=0=0=1=====,
208.000=beads1.avi=1.000=0=0=1=====,
224.000=circle1.avi=1.000=0=0=1=====,
240.000=tripbox.avi=1.000=0=0=1=====,
256.000=blackhole1.avi=1.000=0=0=1=====,
272.000=Gimme a big beat-bg.png=1.000=0=0=1=====,
99999=-nosongbg-=1.000=0=0=0 // don't automatically add -songbackground-
;
#KEYSOUNDS:;
#ATTACKS:;

//---------------dance-single - ----------------
#NOTES:
     dance-single:
     :
     Hard:
     7:
     0.420329,0.471895,0.095685,0.119606,0.159474,369.000000,357.000000,12.000000,15.000000,0.000000,0.000000,0.420329,0.471895,0.095685,0.119606,0.159474,369.000000,357.000000,12.000000,15.000000,0.000000,0.000000:
0000
0000
0000
0000
,
0000
0000
0000
0000
,
0000
0000
0000
0000
,
0000
0000
0000
0000
,
0000
0000
0001
0000
0000
0000
0000
0000
1000
0000
1000
0000
0000
0100
0000
0000
,
1000
0000
0000
0000
0000
0001
0100
0001
,
0100
0000
0010
0000
0000
0000
0000
0000
0100
0000
0100
0000
0000
0010
0000
0000
,
1000
0000
0000
0000
0000
0100
0000
0100
,
0000
0000
0001
0010
0001
0000
0100
0001
,
0100
0000
0010
1000
0010
0000
0010
0100
,
0010
0000
1000
0100
1000
0000
0001
0100
,
0001
0000
0100
0010
0100
0000
0010
1000
,
0010
0100
0001
0010
0100
1000
0100
0010
,
0001
1000
0010
0100
0001
1000
0010
0100
,
0001
1000
0010
0100
0001
0010
0100
1000
,
0100
0010
0001
0001
0000
0110
0000
1001
,
0000
0000
1000
0000
0000
0010
0000
0100
0010
0000
1000
0000
0001
0000
1000
0000
,
0000
0000
0001
0000
0000
0100
0000
0010
1000
0000
0010
0000
1000
0000
0100
0000
,
0000
0000
0010
0000
0000
0001
0000
0100
0001
0000
0100
0000
0010
0000
1000
0000
,
0000
0000
0001
0000
0000
1000
0000
0100
1000
0000
0100
0000
0010
0000
0001
0000
,
0000
0000
0010
0000
0000
0001
0000
0010
0001
0000
0010
0000
0100
0000
1000
0000
,
0100
0000
0010
0000
0000
0001
0000
1000
0010
0000
0100
0000
0010
0000
1000
0000
,
0000
0000
0001
0000
0000
1000
0000
0100
1000
0000
0100
0000
0010
0000
0001
0000
,
0010
0000
0200
0000
0000
0000
0000
0000
0000
0000
1300
0000
0000
0100
0000
0000
,
0100
0000
1000
0000
0000
1000
0000
0010
0100
0000
0010
0000
0010
0000
0000
0000
,
0000
0000
0001
0000
0000
1000
0000
0010
0100
0000
0010
0000
0010
0000
0000
0000
,
0000
0000
0100
0000
0000
0001
0000
1000
0100
0000
1000
0000
1000
0000
0000
0000
,
0000
0000
0001
0000
0000
0100
0000
0000
0001
0000
1000
0000
0100
0000
1000
0000
,
0001
0000
0100
0000
0000
0010
0000
0100
0010
0000
0010
0000
1000
0000
0000
0000
,
0000
0000
0001
0000
0000
1000
0100
0000
0000
0010
0001
0000
0000
0000
0000
0000
,
0000
0100
0010
0100
0010
1000
0001
0100
,
0001
2200
0000
0000
0000
3300
0000
0000
,
0000
0002
0000
1000
0000
0100
0000
1000
,
0000
0203
0000
0010
0000
0001
0000
0010
,
0000
0320
0000
1000
0000
0100
0000
1000
,
0000
0230
0000
0010
0000
0001
0000
0010
,
0000
0302
0000
0100
0000
1000
0000
0100
,
0000
2003
0000
0001
0000
0100
0000
0001
,
0000
3100
1000
0100
0010
0001
0010
0100
,
1000
0100
0010
0001
0010
0100
1000
0100
,
0010
0000
0020
0000
0000
0000
0000
0000
0100
0000
0130
0000
0000
0010
0000
0000
,
0101
0000
0000
1000
0000
1000
0000
0001
,
0000
0000
0200
0000
0000
0000
0000
0000
0310
0000
0010
0000
0000
0100
0000
0000
,
1010
0000
0000
0001
0000
0001
0000
1000
,
0000
0000
0002
0000
0000
0000
0000
0000
0103
0000
0100
0000
0000
0010
0000
0000
,
0110
0000
0000
0001
0000
0010
0000
0100
,
0000
0000
2000
0000
0000
0000
0000
0000
3010
0000
0010
0000
0000
0100
0000
0000
,
1001
0000
0000
0010
0000
0100
0000
0010
,
0000
1000
0001
1000
0100
0000
1000
0001
,
1000
0000
0010
0100
0010
0000
0100
0001
,
0100
0000
0010
1000
0010
0000
1000
0100
,
0010
0000
0001
0010
0100
1000
0000
1100
,
0000
0000
0010
0000
0000
0000
0000
0000
1000
0000
1000
0000
0000
0010
0000
0000
,
0010
0000
0000
0100
0001
1000
0010
0100
,
0000
0000
0001
0000
0000
0000
0000
0000
1000
0000
1000
0000
0000
0010
0000
0000
,
0010
0000
0000
1000
0010
0100
0001
1000
,
0000
0000
0010
0000
0000
0000
0000
0000
0100
0000
0100
0000
0000
0001
0000
0000
,
0001
0000
0000
1000
0100
0010
0001
1000
,
0000
0000
0010
0000
0000
0000
0000
0000
0100
0000
0100
0000
0000
0010
0000
0000
,
0010
0000
0000
1000
0100
1000
0001
0100
,
0001
0000
1000
0000
0000
0000
0000
0000
0100
0000
0100
0000
0000
1000
0000
0000
,
1000
0100
0010
0001
0010
0100
1000
0010
,
0100
0000
0010
0000
0000
0000
0000
0000
1000
0000
1000
0000
0000
0010
0000
0000
,
0101
0000
1000
0010
0100
0010
1000
0010
,
0100
0000
0001
0000
0000
0000
0000
0000
0100
0000
0100
0000
0000
0010
0000
0000
,
0110
0000
0001
0001
1000
0100
0010
0001
,
1000
0000
0100
0000
0000
0000
0000
0000
0010
0000
0001
0000
0000
1000
0000
0000
,
1001
1000
0100
0010
0001
0010
0100
1000
,
0010
0220
0000
0000
0000
0000
0000
0000
,
0000
0000
0000
0000
0000
0330
0000
0000
;

//---------------dance-single - ----------------
#NOTES:
     dance-single:
     :
     Medium:
     5:
     0.285915,0.332504,0.007974,0.111632,0.111632,251.000000,250.000000,1.000000,14.000000,0.000000,0.000000,0.285915,0.332504,0.007974,0.111632,0.111632,251.000000,250.000000,1.000000,14.000000,0.000000,0.000000:
0000
0000
0000
0000
,
0000
0000
0000
0000
,
0000
0000
0000
0000
,
0000
0000
0000
0000
,
1000
0000
0000
0000
0000
0000
0001
0000
0100
0000
0000
0001
0000
0000
0100
0000
,
0000
0000
1000
0001
,
1000
0000
0000
0000
0000
0000
0100
0000
0010
0000
0000
0100
0000
0000
0010
0000
,
0000
0000
0001
0001
,
0000
1000
0100
1000
0000
0010
0000
0100
,
0000
0001
0010
0001
0000
0100
0000
0010
,
0000
1000
0001
1000
0000
0001
0000
1000
,
0000
0010
1000
0010
0000
0100
0000
0010
,
1000
0001
1000
0001
,
0100
0010
0100
0010
,
1000
0001
1000
0001
,
1000
0001
0010
1000
,
0001
0000
0000
0001
0000
0000
0001
0000
0100
0000
0000
0000
0010
0000
0000
0000
,
1000
0000
0000
1000
0000
0000
1000
0000
0100
0000
0000
0000
0010
0000
0000
0000
,
0001
0000
0000
0001
0000
0000
0001
0000
1000
0000
0000
0000
0100
0000
0000
0000
,
0010
0000
0000
0010
0000
0000
0010
0000
1000
0000
0000
0000
0010
0000
0000
0000
,
0100
0000
0000
0100
0000
0000
0100
0000
0010
0000
0000
0000
0001
0000
0000
0000
,
1000
0000
0000
1000
0000
0000
1000
0000
0001
0000
0000
0000
0100
0000
0000
0000
,
0001
0000
0000
0001
0000
0000
0001
0000
1000
0000
0000
0000
0010
0000
0000
0000
,
2000
0000
3001
0000
,
0100
0000
0000
0100
0000
0000
0100
0000
0001
0000
0100
0000
0000
0000
0000
0000
,
1000
0000
0000
1000
0000
0000
1000
0000
0010
0000
1000
0000
0000
0000
0000
0000
,
0001
0000
0000
0001
0000
0000
0001
0000
1000
0000
0001
0000
0000
0000
0000
0000
,
0100
0000
0000
0100
0000
0000
0100
0000
0001
0000
0000
0000
1000
0000
0000
0000
,
0010
0000
0000
0010
0000
0000
0010
0000
0100
0000
0100
0000
0000
0000
0000
0000
,
0001
0000
0000
0001
0010
0000
0000
0001
0100
0000
0000
0000
0000
0000
0000
0000
,
1000
0000
1000
0000
0010
0001
1000
0001
,
1000
0000
0000
0000
0020
0000
0000
0030
,
1000
0000
1000
0010
,
0001
0100
1000
0010
,
0001
0000
0001
0010
,
1000
0100
0001
0010
,
0100
0000
0100
0001
,
0010
1000
0010
0001
,
1000
0000
1000
0100
,
0001
0010
1000
0100
,
0001
0000
0000
0000
0000
0000
1000
0000
1000
0000
0000
0100
0000
0000
0020
0000
,
0000
0000
0000
0030
,
0100
0000
0000
0000
0000
0000
0001
0000
0001
0000
0000
0010
0000
0000
0200
0000
,
0000
0000
0300
0000
,
1000
0000
0000
0000
0000
0000
0010
0000
0100
0000
0000
0100
0000
0000
0002
0000
,
0000
0000
0000
0000
0000
0000
0000
0003
,
0100
0000
0000
0000
0000
0000
0001
0000
1000
0000
0000
0001
0000
0000
2000
0000
,
0000
0000
3000
0001
,
0100
0020
0000
0000
0000
0000
0032
0000
,
0000
2003
0000
3200
,
0000
0320
0000
0032
,
0000
0003
1000
0001
1000
0000
0100
0000
,
0001
0000
0000
0000
0000
0000
0010
0000
0010
0000
0000
0010
0000
0000
0010
0000
,
0000
0100
0100
0100
,
1000
0000
0000
0000
0000
0000
0001
0000
0001
0000
0000
0001
0000
0000
0001
0000
,
0000
0010
0010
0010
,
0100
0000
0000
0000
0000
0000
1000
0000
1000
0000
0000
1000
0000
0000
1000
0000
,
0000
0100
0001
0100
,
0001
0000
0000
0000
0000
0000
0100
0000
0100
0000
0000
0100
0000
0000
0100
0000
,
0000
1000
1000
0010
,
0010
0000
0000
0000
0000
0000
1000
0000
1000
0000
0000
0100
0000
0000
0001
0000
,
0000
0010
0001
1000
,
0100
0000
0000
0000
0000
0000
0001
0000
0010
0000
0000
0100
0000
0000
1000
0000
,
0000
1000
0010
0100
,
0001
0000
0000
0000
0000
0000
1000
0000
0100
0000
0000
0010
0000
0000
0001
0000
,
0000
0001
0100
1000
,
0010
0000
0000
0000
0000
0000
0001
0000
0010
0000
0000
0100
0000
0000
1000
0000
,
0000
0010
1000
0001
,
0220
0000
0000
0000
,
0000
0000
0330
0000
;

//---------------dance-single - ----------------
#NOTES:
     dance-single:
     :
     Easy:
     3:
     0.160613,0.243996,0.000000,0.031895,0.000000,141.000000,141.000000,0.000000,4.000000,0.000000,0.000000,0.160613,0.243996,0.000000,0.031895,0.000000,141.000000,141.000000,0.000000,4.000000,0.000000,0.000000:
0000
0000
0000
0000
,
0000
0000
0000
0000
,
0000
0000
0000
0000
,
0000
0000
0000
0000
,
0100
0000
0000
0000
0000
0000
0000
0010
,
0000
0000
0001
0001
,
0100
0000
0000
0000
0000
0000
0000
1000
,
0000
0000
0010
0010
,
0000
1000
0000
0001
,
0000
1000
0000
0010
,
0000
0100
0000
0001
,
0000
1000
0000
0001
,
0100
0010
0100
0010
,
0100
0010
0100
0010
,
0100
0010
0100
0010
,
0000
0000
1000
1000
,
0001
0000
0010
0000
,
0100
1000
1000
0000
,
0010
0000
0001
0000
,
0100
0010
0010
0000
,
0001
0000
1000
0000
,
0100
0001
0001
0000
,
0010
0000
0100
0000
,
1000
0000
0100
0000
,
0001
0010
0100
0000
,
1000
0100
0010
0000
,
0001
0010
0100
0000
,
1000
0100
0010
0000
,
0001
0000
0001
0000
,
1000
0000
1000
0000
,
0100
0000
0010
0000
,
0100
0000
0000
0000
,
0020
0000
0000
0000
,
0000
0000
0000
0030
,
2000
0000
0000
0000
,
0000
0000
0000
3000
,
0002
0000
0000
0000
,
0000
0000
0000
0000
0000
0003
0000
0000
,
0200
0000
0000
0000
,
0000
0000
0300
0000
,
0010
0000
0000
0000
0100
0000
0000
0010
,
0000
0000
0000
0000
,
1000
0000
0000
0000
0001
0000
0000
1000
,
0000
0000
0000
0000
,
0100
0000
0000
0000
0001
0000
0000
0010
,
0000
0000
0000
0000
,
1000
0000
0000
0000
0100
0000
0000
0010
,
0000
0000
0001
0000
,
0000
0010
0000
0000
0000
0100
0000
0000
,
0000
0010
0000
0000
0000
1000
0000
0000
,
0000
0010
0000
0000
0000
0001
0000
0000
,
0000
0100
0010
0100
,
0001
0000
0000
0000
1000
0000
0000
1000
,
0000
0100
0100
0010
,
0001
0000
0000
0000
0001
0000
0000
0100
,
0000
1000
1000
0100
,
0010
0000
0000
0000
0001
0000
0000
0010
,
0000
0000
0001
0001
,
0100
0000
0000
0000
1000
0000
0000
0010
,
0000
0100
0001
0100
,
0010
0000
0000
0000
0100
0000
0000
1000
,
0000
0001
0010
0100
,
1000
0000
0000
0000
0001
0000
0000
0100
,
0000
0010
0001
1000
,
0001
0000
0000
0000
0100
0000
0000
0010
,
0000
0000
1000
0001
,
0100
0000
0010
0100
,
0001
0000
1000
0001
,
0100
0000
0000
0000
;

//---------------dance-single - Copied from----------------
#NOTES:
     dance-single:
     Copied from:
     Beginner:
     1:
     0.054677,0.081332,0.007974,0.000000,0.000000,48.000000,47.000000,1.000000,0.000000,0.000000,0.000000,0.054677,0.081332,0.007974,0.000000,0.000000,48.000000,47.000000,1.000000,0.000000,0.000000,0.000000:
0000
0000
0000
0000
,
0000
0000
0000
0000
,
0000
0000
0000
0000
,
0000
0000
0000
0000
,
0001
0000
0000
0000
,
0000
0000
0000
0000
,
0100
0000
0000
0000
,
0000
0000
0000
0000
,
0010
0000
0000
0000
,
0010
0000
0000
0000
,
1000
0000
0000
0000
,
1000
0000
0000
0000
,
0001
0000
0000
0000
,
0001
0000
0000
0000
,
0100
0000
0000
0000
,
0100
0000
0000
0000
,
1000
0000
0000
0000
,
1000
0000
0000
0000
,
1000
0000
0000
0000
,
1000
0000
0000
0000
,
0001
0000
0000
0000
,
0001
0000
0000
0000
,
0001
0000
0000
0000
,
0001
0000
0000
0000
,
0100
0000
0000
0000
,
0100
0000
0000
0000
,
0100
0000
0000
0000
,
0100
0000
0000
0000
,
0010
0000
0000
0000
,
0010
0000
0000
0000
,
0010
0000
0000
0000
,
0010
0000
0000
0000
,
1000
0000
0000
0000
,
0000
0000
0000
0000
,
0001
0000
0000
0000
,
0000
0000
0000
0000
,
1000
0000
0000
0000
,
0000
0000
0000
0000
,
0001
0000
0000
0000
,
0000
0000
0000
0000
,
0100
0000
0000
0000
,
0000
0000
0000
0000
,
0010
0000
0000
0000
,
0000
0000
0000
0000
,
1000
0000
0000
0000
,
0000
0000
0000
0000
,
0001
0000
0000
0000
,
0000
0000
0000
0000
,
0100
0000
0000
0000
,
0100
0000
0000
0000
,
0010
0000
0000
0000
,
0010
0000
0000
0000
,
1000
0000
0000
0000
,
0000
0000
0000
0000
,
0001
0000
0000
0000
,
0000
0000
0000
0000
,
0100
0000
0000
0000
,
0000
0000
0000
0000
,
0010
0000
0000
0000
,
0000
0000
0000
0000
,
1000
0000
0000
0000
,
0000
0000
0000
0000
,
0001
0000
0000
0000
,
0000
0000
0000
0000
,
0100
0000
0000
0000
,
0000
0000
0000
0000
,
0010
0000
0000
0000
,
0000
0000
0000
0000
,
1001
0000
0000
0000
;
