#TITLE:GO GO JAM;
#SUBTITLE:;
#ARTIST:BLUE ROSES;
#TITLETRANSLIT:;
#SUBTITLETRANSLIT:;
#ARTISTTRANSLIT:;
#GENRE:;
#CREDIT:SupremeX;
#BANNER:GOGO JAM.png;
#BACKGROUND:GOGO JAM-bg.png;
#LYRICSPATH:;
#CDTITLE:CDTitle.png;
#MUSIC:GO GO JAM.ogg;
#OFFSET:-0.572526;
#SAMPLESTART:64.000000;
#SAMPLELENGTH:12.000000;
#SELECTABLE:YES;
#BPMS:0.000000=158.000000
;
#STOPS:
;
#BGCHANGES:20.000=Scissors1.avi=1.000=0=0=1=====,
28.000=8 Bubble.avi=1.000=0=0=1=====,
35.000=danceb160.avi=1.000=0=0=1=====,
43.000=frog1.avi=1.000=0=0=1=====,
51.000=clouds1.avi=1.000=0=0=1=====,
59.000=face1.avi=1.000=0=0=1=====,
68.000=square2.avi=1.000=0=0=1=====,
72.000=square5.avi=1.000=0=0=1=====,
79.500=dots1.avi=1.000=0=0=1=====,
87.500=square5.avi=1.000=0=0=1=====,
94.500=8 Bubble.avi=1.000=0=0=1=====,
104.000=square5.avi=1.000=0=0=1=====,
111.500=dots1.avi=1.000=0=0=1=====,
119.500=square5.avi=1.000=0=0=1=====,
126.500=8 Bubble.avi=1.000=0=0=1=====,
135.500=Scissors1.avi=1.000=0=0=1=====,
143.500=sheep1.avi=1.000=0=0=1=====,
151.500=Scissors1.avi=1.000=0=0=1=====,
159.500=clouds1.avi=1.000=0=0=1=====,
167.000=face1.avi=1.000=0=0=1=====,
175.000=danceb160.avi=1.000=0=0=1=====,
183.000=face1.avi=1.000=0=0=1=====,
191.000=danceb160.avi=1.000=0=0=1=====,
200.000=Scissors1.avi=1.000=0=0=1=====,
208.000=frog1.avi=1.000=0=0=1=====,
216.000=dots1.avi=1.000=0=0=1=====,
224.000=sheep1.avi=1.000=0=0=1=====,
231.000=8 Bubble.avi=1.000=0=0=1=====,
239.000=danceb160.avi=1.000=0=0=1=====,
247.000=square2.avi=1.000=0=0=1=====,
255.000=Scissors1.avi=1.000=0=0=1=====,
261.500=GOGO JAM-bg.png=1.000=0=0=1=====,
99999=-nosongbg-=1.000=0=0=0 // don't automatically add -songbackground-
;
#KEYSOUNDS:;
#ATTACKS:;

//---------------dance-single - ----------------
#NOTES:
     dance-single:
     :
     Hard:
     8:
     0.522563,0.512896,0.500147,0.039227,0.000000,373.000000,322.000000,51.000000,4.000000,0.000000,0.000000,0.522563,0.512896,0.500147,0.039227,0.000000,373.000000,322.000000,51.000000,4.000000,0.000000,0.000000:
0000
0000
0000
0000
,
0000
0000
0000
0000
,
0000
0000
0000
0000
,
0000
0000
0000
0000
,
0000
0000
0000
0000
,
0100
0010
1000
0010
,
0100
0001
0100
0010
,
1000
1000
0001
0001
,
0100
0010
0000
0110
0000
0000
0001
0010
,
0100
0000
1100
0000
1100
0000
0001
0010
,
0001
0010
0000
0110
0000
0000
1000
0100
,
0010
0000
0011
0000
0011
0100
0010
0100
,
1000
0100
0000
0110
0000
0000
0001
0010
,
1000
0000
1010
0000
1010
0000
0100
0001
,
0100
0010
0000
0110
0000
0000
1000
0100
,
0001
0000
0101
0000
0101
0010
1000
0010
,
0100
0001
0000
0001
0000
1000
0100
0000
,
0010
0001
0010
0100
1000
0100
0010
0001
,
0100
0010
1000
0010
,
0200
0000
0000
0301
0000
0000
0000
0010
,
0000
0100
1000
0100
0010
0001
0010
1000
,
0010
0100
0000
0101
0000
0000
0000
1000
,
0100
0010
0001
0100
0010
0100
0001
0010
,
0001
1000
0000
1010
0000
0100
0001
0100
,
0000
0010
1000
0010
0000
0100
0001
0010
,
0000
0100
1000
0000
0001
0010
1000
0010
,
0100
0001
0100
0010
,
1000
0000
0001
0100
0000
0010
1000
0001
,
0010
1000
0100
0010
0001
0010
0100
0010
,
1000
0100
0000
1100
0000
0000
0000
0001
,
0000
0100
0010
1000
0100
0010
0001
0100
,
0010
1000
0000
1100
0000
0001
0100
0001
,
0000
1000
0010
1000
0000
0010
0100
0010
,
0000
0100
0001
0000
1000
0010
0100
0010
,
1000
0001
0010
0100
1000
0100
0010
0001
,
0010
0100
0000
0110
0000
0000
0000
1000
,
0010
0100
0010
1000
0010
0001
0010
0100
,
1000
0100
0000
0110
0000
0101
0000
0010
,
0000
1000
0100
1000
0010
0100
0010
1000
,
0001
1000
0000
0110
0000
0001
0010
0200
,
0000
0000
2300
0000
,
3002
0000
0000
0000
0003
0000
0100
0010
,
1000
0000
0110
0000
0110
0000
0001
0010
,
0100
1000
0000
1100
0000
0000
0001
0010
,
0100
0000
1100
0000
1100
0010
0001
0010
,
0100
0010
0000
1010
0000
0000
0001
0100
,
0010
0000
0110
0000
0110
1000
0100
0010
,
0001
0100
0000
0101
0000
0000
1000
0100
,
0010
0000
0110
0000
0110
0001
0010
0100
,
1000
0010
0000
0110
0000
0000
0000
0000
,
1000
0000
0100
0010
0100
0000
0010
0001
,
0000
0100
0010
1000
0100
0000
0010
0000
,
0011
0000
0100
0010
0100
0000
0001
0010
,
0100
0100
0000
1000
0000
0000
0000
0000
,
0001
0000
0010
0100
1000
0000
0100
0010
,
0000
0001
0010
0100
1000
0000
1100
0000
,
1001
0101
1010
0101
,
0010
1000
0000
1100
0000
0000
0100
0010
,
0100
0000
0011
0000
0011
0000
0100
0010
,
1000
0001
0000
0101
0000
0000
1000
0010
,
1000
0000
0110
0000
0110
0001
0010
0100
,
1000
0010
0000
1010
0000
0000
0100
0010
,
0100
0000
0011
0000
0011
0100
1000
0010
,
0100
0010
0000
0110
0000
0000
0001
0010
,
0100
0000
1010
0000
1010
0100
0001
0010
,
0100
1000
0000
1001
0000
0000
0000
0000
;

//---------------dance-single - ----------------
#NOTES:
     dance-single:
     :
     Medium:
     6:
     0.385267,0.416728,0.235363,0.078454,0.000000,275.000000,251.000000,24.000000,8.000000,0.000000,0.000000,0.385267,0.416728,0.235363,0.078454,0.000000,275.000000,251.000000,24.000000,8.000000,0.000000,0.000000:
0000
0000
0000
0000
,
0000
0000
0000
0000
,
0000
0000
0000
0000
,
0000
0000
0000
0000
,
0000
0000
0000
0000
,
0100
0010
1000
0010
,
0100
0001
0100
0010
,
1000
1000
0001
0001
,
0100
0010
0000
0110
0000
0000
0001
0000
,
1000
0001
1001
0100
,
0010
0000
0000
0110
0000
0000
1000
0000
,
0001
1000
1001
0010
,
0100
0010
0000
1010
0000
0000
0001
0000
,
0100
0001
1001
0100
,
0010
0000
0000
0110
0000
0000
1000
0000
,
0001
1000
1001
0010
,
0100
0001
0000
0101
0000
0000
1000
0000
,
0010
0100
0001
1000
,
0010
1000
0100
1000
,
0020
0000
0000
0130
0000
0000
0000
0001
,
0000
0001
0010
0001
,
0200
0000
0000
0301
0000
0000
0000
0000
,
1000
0010
1000
0001
,
0100
0010
0000
0110
0000
1000
1000
1000
,
0000
0010
0010
0010
0000
0100
0100
0100
,
0000
0001
0001
0010
,
0100
1000
0100
0010
,
0002
0000
0000
0103
0000
0000
0000
0000
,
1000
0100
1000
0001
,
0200
0000
0000
0310
0000
0000
0000
1000
,
0000
0010
0100
0001
,
2000
0000
0000
3100
0000
0010
0010
0010
,
0000
0001
0001
0001
0000
0100
0100
0100
,
0000
0010
0010
0000
1000
0001
1000
0001
,
0100
0100
0100
0100
,
0010
1000
0000
1010
0000
0000
0000
0000
,
0010
0010
0010
0010
,
0100
0001
0000
0101
0000
0110
0000
1000
,
0000
1000
1000
1000
,
0010
0100
0000
0110
0000
0001
1000
0020
,
0000
0000
2030
0000
,
3002
0000
0000
0000
0003
0000
0010
0100
,
1000
0010
0100
0001
,
1000
0000
0000
0110
0000
0000
0001
0010
,
0001
1000
0001
0100
,
0001
1000
0000
1001
0000
0000
0010
0100
,
0001
0000
1000
0000
0001
0100
0010
1000
,
0010
0000
0000
0110
0000
0000
1000
0000
,
0010
0000
0100
0000
0001
0000
1000
0010
,
1000
0100
0000
0011
0000
0000
0000
0000
,
1000
0000
0100
0010
0001
0000
0100
0010
,
0000
1000
0100
0010
,
0001
0000
0100
0010
0100
0000
0001
0010
,
0001
0001
0000
0101
0000
0000
0000
0000
,
1000
0000
0010
0100
0010
0000
0100
0010
,
0000
1000
0001
1000
0001
0000
0100
0000
,
0010
1000
0001
0100
,
0010
1000
0000
1010
0000
0000
0100
0010
,
0100
0001
1000
0010
,
0100
0001
0000
0101
0000
0000
1000
1000
,
1000
0000
0010
0000
0100
0000
0001
1000
,
0100
1000
0000
1100
0000
0000
0001
0010
,
0001
1000
0100
1000
,
0001
0010
0000
0011
0000
0000
0100
0010
,
0100
0000
0001
0000
1000
0000
0001
0100
,
0010
0100
0000
1001
0000
0000
0000
0000
;

//---------------dance-single - ----------------
#NOTES:
     dance-single:
     :
     Easy:
     3:
     0.282996,0.320560,0.205943,0.039227,0.000000,202.000000,181.000000,21.000000,4.000000,0.000000,0.000000,0.282996,0.320560,0.205943,0.039227,0.000000,202.000000,181.000000,21.000000,4.000000,0.000000,0.000000:
0000
0000
0000
0000
,
0000
0000
0000
0000
,
0000
0000
0000
0000
,
0000
0000
0000
0000
,
0000
0000
0000
0000
,
1000
0001
1000
0010
,
0000
0100
0010
0100
,
0001
0010
0001
0010
,
1000
0010
0000
1000
0000
0000
0001
0000
,
0100
0010
1000
0001
,
0100
0000
0000
0110
0000
0000
1000
0000
,
0010
0100
0001
1000
,
0001
0000
0000
0110
0000
0000
0001
0000
,
0010
0100
1000
0010
,
0100
0000
0000
1001
0000
0000
1000
0000
,
0100
0010
0001
0100
,
0010
0000
0000
1001
0000
0000
1000
0000
,
0010
0010
0010
0010
,
0100
0001
0100
0001
,
1000
0000
0000
1010
0000
0000
0000
0000
,
0001
0010
0100
1000
,
0100
0000
0000
0101
0000
0000
0000
0000
,
0010
1000
0010
0100
,
0010
0000
0000
1010
0000
0000
0000
0001
,
0000
0000
0000
1000
0000
0000
0000
0001
,
0000
0000
0000
0000
,
0100
0010
0100
0001
,
0101
0000
0000
1010
0000
0000
0000
0000
,
0010
0100
1000
0010
,
0110
0000
0000
1001
0000
0000
0000
0000
,
1000
0100
0010
0001
,
0011
0000
0000
1100
0000
0000
0000
0001
,
0000
0000
0000
1000
0000
0000
0000
0001
,
0000
0000
0000
0000
,
1000
1000
1000
1000
,
1000
0000
0000
0020
0000
0030
0000
0000
,
0100
0100
0100
0100
,
0001
0000
0000
1000
0000
0100
0000
0000
,
0010
0010
0010
0010
,
0010
0000
0000
0001
0000
0000
0000
2000
,
0000
0000
3020
0000
,
0230
0000
0300
0000
,
0001
1000
0001
0100
,
0010
0000
0000
0110
0000
0000
0000
0000
,
1000
0001
1000
0001
,
0100
0000
0000
0110
0000
0000
0000
0000
,
0001
1000
0010
0100
,
0001
0000
0000
0011
0000
0000
0000
0000
,
1000
0100
0010
0001
,
0100
0000
0000
1100
0000
0000
0000
0000
,
0010
0000
0100
0000
,
0000
0010
0100
0010
,
1000
0001
1000
0001
,
0100
0000
0000
0110
0000
0000
0000
0000
,
0001
0000
1000
0000
,
0000
0001
1000
0010
,
0100
0010
0100
0010
,
1000
0000
0000
1001
0000
0000
0000
0000
,
0010
1000
0001
0100
,
0010
0000
0000
1000
0000
0000
0000
0000
,
0001
0100
0010
1000
,
0010
0000
0000
0100
0000
0000
0000
0000
,
0001
0010
0001
1000
,
0010
0000
0000
1010
0000
0000
0000
0000
,
0001
0100
0010
1000
,
0100
0000
0000
0101
0000
0000
0000
0000
;

//---------------dance-single - Copied from----------------
#NOTES:
     dance-single:
     Copied from:
     Beginner:
     2:
     0.095266,0.159361,0.000000,0.019614,0.000000,68.000000,68.000000,0.000000,2.000000,0.000000,0.000000,0.095266,0.159361,0.000000,0.019614,0.000000,68.000000,68.000000,0.000000,2.000000,0.000000,0.000000:
0000
0000
0000
0000
,
0000
0000
0000
0000
,
0000
0000
0000
0000
,
0000
0000
0000
0000
,
0000
0000
0000
0000
,
0100
0000
0000
0000
,
0000
0000
0000
0000
,
0010
0000
0000
0000
,
0000
0000
0000
0000
,
0100
0000
0000
0000
,
0100
0000
0000
0000
,
0001
0000
0000
0000
,
0001
0000
0000
0000
,
0010
0000
0000
0000
,
0010
0000
0000
0000
,
1000
0000
0000
0000
,
1000
0000
0000
0000
,
0020
0000
0000
0000
0000
0000
0000
0030
,
0000
0000
0000
0000
,
0100
0000
0000
0100
0000
0000
0000
0000
,
0000
0000
0000
0000
,
0100
0000
0000
0100
0000
0000
0000
0000
,
0000
0000
0000
0000
,
0100
0000
0000
0100
0000
0000
0000
0001
,
0000
0000
0000
1000
0000
0000
0000
0001
,
0000
0000
0000
0000
,
0000
0000
0000
0000
,
1000
0000
0000
1000
0000
0000
0000
0000
,
0000
0000
0000
0000
,
1000
0000
0000
1000
0000
0000
0000
0000
,
0000
0000
0000
0000
,
1000
0000
0000
1000
0000
0000
0000
0010
,
0000
0000
0000
0100
0000
0000
0000
0001
,
0000
0000
0000
0000
,
0100
0000
0000
0000
,
0000
0000
0000
0010
0000
0000
0000
0100
,
0000
0000
0000
0000
,
0000
0000
0000
0000
0000
0000
0000
0010
,
0000
0000
0000
0000
,
0100
0000
0000
0000
0000
0000
0000
0002
,
0000
0000
0000
0000
,
0000
0000
0003
0000
,
1000
0000
1000
0000
,
0010
0000
0010
0000
,
0100
0000
0100
0000
,
0001
0000
0001
0000
,
0100
0000
0100
0000
,
0010
0000
0010
0000
,
1000
0000
1000
0000
,
0010
0000
0100
0000
,
0001
0000
0000
0000
,
0000
0000
1000
0000
,
0010
0000
0000
0000
,
0100
0000
0000
0000
,
0001
0000
0000
0000
,
0000
0000
1000
0000
,
0010
0000
0100
0000
,
0010
0000
0000
0000
,
0100
0000
0000
0000
,
0100
0000
0000
0000
,
0001
0000
0000
0000
,
0001
0000
0000
0000
,
1000
0000
0000
0000
,
1000
0000
0000
0000
,
0001
0000
0000
0000
,
0001
0000
0000
0000
;
