#TITLE:Firestorm;
#SUBTITLE:;
#ARTIST:ETIA.;
#TITLETRANSLIT:;
#SUBTITLETRANSLIT:;
#ARTISTTRANSLIT:;
#GENRE:;
#CREDIT:SupremeX;
#BANNER:Firestorm.png;
#BACKGROUND:Firestorm-bg.png;
#LYRICSPATH:;
#CDTITLE:CDTitle.png;
#MUSIC:Firestorm.ogg;
#OFFSET:-0.612179;
#SAMPLESTART:69.709999;
#SAMPLELENGTH:12.000000;
#SELECTABLE:YES;
#BPMS:0.000000=177.000000
;
#STOPS:
;
#BGCHANGES:32.000=8 Bubble.avi=1.000=0=0=1=====,
48.000=9 Bubble.avi=1.000=0=0=1=====,
60.000=Firestorm-bg.png=1.000=0=0=1=====,
64.000=10 Bubble.avi=1.000=0=0=1=====,
79.000=8 Bubble.avi=1.000=0=0=1=====,
95.500=10 Bubble.avi=1.000=0=0=1=====,
112.000=9 Bubble.avi=1.000=0=0=1=====,
128.000=8 Bubble.avi=1.000=0=0=1=====,
136.000=fire3.avi=1.000=0=0=1=====,
152.000=fire2.avi=1.000=0=0=1=====,
168.000=fire1.avi=1.000=0=0=1=====,
200.000=Firestorm-bg.png=1.000=0=0=1=====,
204.000=tunnel11.avi=1.000=0=0=1=====,
220.000=fire1.avi=1.000=0=0=1=====,
236.000=8 Bubble.avi=1.000=0=0=1=====,
252.000=9 Bubble.avi=1.000=0=0=1=====,
268.000=10 Bubble.avi=1.000=0=0=1=====,
284.000=tunnel11.avi=1.000=0=0=1=====,
300.000=8 Bubble.avi=1.000=0=0=1=====,
316.000=10 Bubble.avi=1.000=0=0=1=====,
332.000=Firestorm-bg.png=1.000=0=0=1=====,
99999=-nosongbg-=1.000=0=0=0 // don't automatically add -songbackground-
;
#KEYSOUNDS:;
#ATTACKS:;

//---------------dance-single - ----------------
#NOTES:
     dance-single:
     :
     Beginner:
     1:
     0.085453,0.140142,0.000000,0.000000,0.000000,70.000000,70.000000,0.000000,0.000000,0.000000,0.000000,0.085453,0.140142,0.000000,0.000000,0.000000,70.000000,70.000000,0.000000,0.000000,0.000000,0.000000:
0000
0000
0000
0000
,
0000
0000
0000
0000
,
0000
0000
0000
0000
,
0000
0000
0000
0000
,
0100
0000
0000
0000
,
0100
0000
0000
0000
,
0010
0000
0000
0000
,
0010
0000
0000
0000
,
0100
0000
0000
0000
,
0100
0000
0000
0000
,
0010
0000
0000
0000
,
0010
0000
0000
0000
,
1000
0000
0000
0000
,
1000
0000
0000
0000
,
0001
0000
0000
0000
,
0001
0000
0000
0000
,
0100
0000
0000
0000
,
0100
0000
0000
0000
,
0100
0000
0000
0000
,
0100
0000
0000
0000
,
0010
0000
0000
0000
,
0010
0000
0000
0000
,
0010
0000
0000
0000
,
0010
0000
0000
0000
,
1000
0000
0000
0000
,
1000
0000
0000
0000
,
1000
0000
0000
0000
,
1000
0000
0000
0000
,
0001
0000
0000
0000
,
0001
0000
0000
0000
,
0001
0000
0000
0000
,
0001
0000
0000
0000
,
0100
0000
0000
0000
,
0010
0000
0000
0000
,
0100
0000
0000
0000
,
0100
0000
0000
0000
,
0100
0000
0000
0000
,
0000
0000
0000
0000
,
0001
0000
0000
0000
,
0001
0000
0000
0000
,
0001
0000
0000
0000
,
0000
0000
0000
0000
,
1000
0000
0000
0000
,
0000
0000
0000
0000
,
1000
0000
0000
0000
,
0000
0000
0000
0000
,
0010
0000
0000
0000
,
0000
0000
0000
0000
,
0010
0000
0000
0000
,
0000
0000
0000
0000
,
0100
0000
0000
0000
,
0010
0000
0000
0000
,
0000
0000
0000
0000
,
0010
0000
0000
0000
,
0000
0000
0000
0000
,
0100
0000
0000
0000
,
0100
0000
0000
0000
,
0001
0000
0000
0000
,
0001
0000
0000
0000
,
1000
0000
0000
0000
,
1000
0000
0000
0000
,
0010
0000
0000
0000
,
0010
0000
0000
0000
,
0100
0000
0000
0000
,
0100
0000
0000
0000
,
0001
0000
0000
0000
,
0001
0000
0000
0000
,
1000
0000
0000
0000
,
0000
0000
0010
0000
,
0000
0000
0000
0000
,
0000
0000
1000
0000
,
0001
0000
0000
0000
,
0000
0000
0100
0000
,
0000
0000
0000
0000
,
0010
0000
0100
0000
,
0001
0000
0000
0000
,
0001
0000
0000
0000
,
1000
0000
0000
0000
,
1000
0000
0000
0000
,
0010
0000
0000
0000
,
0010
0000
0000
0000
,
0100
0000
0000
0000
,
0100
0000
0000
0000
;

//---------------dance-single - ----------------
#NOTES:
     dance-single:
     :
     Hard:
     9:
     0.539572,0.683941,0.333265,0.145269,0.281993,442.000000,403.000000,39.000000,17.000000,0.000000,0.000000,0.539572,0.683941,0.333265,0.145269,0.281993,442.000000,403.000000,39.000000,17.000000,0.000000,0.000000:
0000
0000
0000
0000
,
0000
0000
0000
0000
,
0000
0000
0000
0000
,
0000
0000
0000
0000
,
0010
0000
0000
1000
0000
0000
0010
0000
0100
0000
0000
0001
0000
0000
0100
0000
,
0010
0110
1010
1001
,
0001
0000
0000
0100
0000
0000
0001
0000
0100
0000
0000
0010
0000
0000
1000
0000
,
0020
0000
0000
0030
0100
0001
0000
1000
,
0100
0000
0000
0010
0000
0000
0001
0000
0010
0000
0000
0100
0000
0000
0010
0000
,
1000
0110
1010
1001
,
0001
0000
0000
0100
0000
0000
0010
0000
0100
0000
0000
0001
0000
0000
1000
0000
,
0001
0000
0000
0100
0000
0000
0010
0000
1000
0000
0000
0000
1010
0000
0000
0000
,
0001
0000
0000
0010
0000
0000
0100
0000
1000
0000
0000
0100
0000
0000
0010
0000
,
0001
0000
0000
0100
0000
0000
0001
0000
1000
0000
0000
0000
0101
0000
0000
0000
,
0001
0000
0000
0010
0000
0000
0100
0000
1000
0000
0000
0001
0000
0000
0010
0000
,
0200
0000
0000
0000
0000
0300
0000
0000
,
1000
0010
1000
0001
0100
0010
0100
0001
,
1000
0000
0010
0100
0001
1000
0010
0100
,
0001
0000
1000
0010
0100
0001
1000
0000
,
0001
0100
0010
0100
0001
0000
1000
0100
,
0010
0001
0100
0010
1000
0000
0001
0010
,
0100
1000
0010
0100
0001
0000
0010
0001
,
0010
0100
1000
0100
0010
0000
0001
1000
,
0100
0010
0001
0100
0010
0000
0000
1000
,
0010
0100
0001
0000
1100
0000
0010
1000
,
0010
0100
0001
0000
0101
0000
1010
0000
,
0000
0001
0000
0100
0010
0000
1000
0010
,
0100
0001
1000
0000
0010
0100
0001
0000
,
1000
0000
0000
0100
0000
0000
0010
0000
0001
0000
0000
0100
0000
0000
0001
0000
,
0010
0000
0000
0100
0000
0000
1000
0000
0010
0000
0000
0000
0000
0000
1000
0000
,
0100
0000
0000
0010
0000
0000
0001
0000
0100
0000
0000
0010
0000
0000
1000
0000
,
0001
0000
0000
0100
0000
0000
0001
0000
1000
0000
0000
0010
0000
0000
1000
0000
,
0002
0000
0000
0003
,
2000
0000
0000
3000
,
0020
0000
0000
0000
0000
0000
0000
0030
,
2000
0000
0000
3002
0000
0000
0103
0000
,
0220
0000
0000
0000
,
0000
0000
0000
0330
,
2000
0000
0000
0000
,
3002
0000
0000
0203
0000
0000
0310
0000
,
2002
0000
0000
3003
,
0020
0000
0000
0230
0000
0000
0000
0000
,
0301
0000
0000
0110
0000
0000
1010
0000
,
0000
0101
0000
0000
0010
0000
1000
0000
,
0110
0000
0000
1100
0000
0000
0101
0000
,
0000
1010
0000
0000
0100
0000
0001
0000
,
0100
0000
0000
1010
0000
0000
0110
0000
,
0000
0101
0000
0000
1000
0000
0001
0000
,
0110
0000
0000
0011
0000
0000
1001
0000
,
0000
1100
0000
0000
0010
0000
0100
0000
,
0010
0000
0000
0000
1000
1000
0000
0000
,
0001
0000
0000
0100
0000
0000
0010
0000
1000
0000
0000
0001
0000
0000
1000
0000
,
0010
0100
0110
1010
,
0001
0000
0000
0010
0000
0000
0100
0000
1000
0000
0000
0001
0000
0000
1000
0000
,
0100
0010
0101
1001
,
0001
0000
0000
1000
0000
0000
0100
0000
0010
0000
0000
0001
0000
0000
0010
0000
,
0100
0000
1000
0000
0001
0100
0001
0000
,
1000
0000
0000
0010
0000
0000
0100
0000
0001
0000
0000
1000
0000
0000
0010
0000
,
1000
0000
0000
0001
0000
0000
0100
0000
0001
0000
0000
1000
0000
0000
0010
0000
,
0100
0000
0001
1000
0001
0000
0100
0010
,
0100
0010
0101
1010
,
0110
0000
1000
0001
1000
0000
0010
0100
,
0010
1000
0101
1001
,
0001
0000
0000
0100
0000
0000
0010
0000
1000
0000
0000
0001
0000
0000
1000
0000
,
0100
0000
0000
0010
0000
0000
0001
0000
1000
0000
0000
0000
0110
0000
0000
0000
,
0001
0000
0000
0010
0000
0000
0100
0000
1000
0000
0000
0010
0000
0000
1000
0000
,
0100
0000
0000
0010
0000
0000
0001
0000
0010
0000
0000
0100
0000
0000
1000
0000
,
0010
0000
0000
0100
0000
0000
0010
0000
1000
0000
0000
0100
0000
0000
0010
0000
,
0001
0000
0000
0100
0000
0000
0001
0000
1000
0010
1000
0010
1000
0010
0000
0000
,
0100
0000
0000
0001
0000
0000
0010
0000
0100
0000
0000
1000
0000
0000
0010
0000
,
0100
0000
0000
0010
0000
0000
1000
0000
0100
0000
0000
0010
0000
0000
0001
0000
,
0100
0000
0000
0001
0000
0000
0010
0000
0100
0000
0000
1000
0000
0000
0010
0000
,
0100
0000
0000
0001
0000
0000
1000
0000
0010
0100
0010
0100
0010
0100
0000
0000
,
0001
0000
0000
1000
0000
0000
0100
0000
0010
0000
0000
0001
0000
0000
0100
0000
,
0010
0000
0000
1000
0000
0000
0010
0000
0100
0000
0000
0001
0000
0000
1000
0000
,
0100
1000
0010
0100
0010
1000
0001
1000
,
0010
0000
0100
0000
0010
0000
0000
0000
0100
0001
0100
0001
0100
0001
0000
0000
,
1000
0001
0100
0010
1000
0001
0100
0010
,
1000
0001
0100
0000
1010
0000
0101
0000
,
1000
0100
0010
0001
0100
0010
1000
0100
,
0010
0000
0001
0000
1000
0000
0001
0000
0100
0010
0100
0010
0100
0010
0000
0000
,
1000
0100
0010
0001
0100
0010
0100
0001
,
0010
0000
0000
0100
0000
0000
1000
0000
0010
0000
0000
0100
0000
0000
0001
0000
,
2000
0000
0000
0000
,
0000
3000
0000
0000
;

//---------------dance-single - ----------------
#NOTES:
     dance-single:
     :
     Medium:
     6:
     0.386978,0.467960,0.128179,0.093998,0.068362,317.000000,302.000000,15.000000,11.000000,0.000000,0.000000,0.386978,0.467960,0.128179,0.093998,0.068362,317.000000,302.000000,15.000000,11.000000,0.000000,0.000000:
0000
0000
0000
0000
,
0000
0000
0000
0000
,
0000
0000
0000
0000
,
0000
0000
0000
0000
,
1000
0000
0000
0010
1000
0000
0000
0010
,
0100
0010
1000
0001
,
0100
0000
0000
0001
0100
0000
0000
0100
,
0002
0000
0000
0003
0100
0010
0000
1000
,
0001
0000
0000
0100
0010
0000
0000
1000
,
0001
0100
0010
1000
,
0001
0000
0000
0010
0100
0000
0000
1000
,
0100
0000
0000
0010
0001
0000
1000
0000
,
0010
0000
0000
0100
0001
0000
0000
1000
,
0010
0000
0000
0100
0010
0000
0001
0000
,
1000
0000
0000
0000
0000
0000
0010
0000
1000
0000
0000
0001
0000
0000
0100
0000
,
0020
0000
0000
0000
0000
0030
0000
0000
,
1000
0000
0010
0100
0010
0000
1000
0100
,
1000
0000
0001
0100
0001
0000
0100
0010
,
0100
0001
0010
0100
,
1000
0001
0010
0100
,
1000
0000
0010
0100
0010
0000
1000
0000
,
0001
0000
0100
0010
0100
0000
0001
0000
,
1000
0000
0001
0100
0001
0000
1000
0000
,
0001
0000
1000
0010
1000
0000
0000
0000
,
0010
0100
0110
0100
,
0001
0101
1001
1000
,
0000
0001
0000
0100
0010
0000
1000
0000
,
0010
0000
1000
0000
0001
0100
0001
0000
,
1000
0000
0000
1000
0000
0000
1000
0000
0001
0000
0000
0001
0000
0000
0001
0000
,
0100
0000
0000
0100
0000
0000
0100
0000
0010
0000
0000
0000
0000
0000
0000
0000
,
1000
0000
0000
1000
0000
0000
1000
0000
0010
0000
0000
0010
0000
0000
0010
0000
,
0100
0000
0000
0100
0000
0000
0100
0000
0001
0000
0000
0001
0000
0000
0001
0000
,
2000
0000
0000
3000
,
0002
0000
0000
0003
,
0200
0000
0000
0000
0000
0000
0000
0300
,
0001
0000
0000
0100
0000
0000
0001
0000
,
2000
0000
0000
0000
,
0000
0000
0000
3000
,
0020
0000
0000
0000
0000
0000
0000
0030
,
1000
0000
0000
0010
0000
0000
1000
0000
,
0002
0000
0000
0003
,
2000
0000
3000
0020
0000
0000
0000
0000
,
1030
0000
0000
0001
0000
0000
0100
0000
,
0000
0001
0000
0000
1000
0000
0100
0000
,
0101
0000
0000
1000
0000
0000
0010
0000
,
0000
0100
0000
0000
0001
0000
0100
0000
,
1010
0000
0000
0001
0000
0000
0100
0000
,
0000
0010
0000
0000
1000
0000
0001
0000
,
1100
0000
0000
0100
0000
0000
0010
0000
,
0000
0100
0000
0000
0001
0000
0010
0000
,
0001
0000
0000
0000
1000
1000
0000
0000
,
0001
0000
0000
0100
0010
0000
0000
0100
,
0001
1000
0010
1000
,
0001
0000
0000
0100
0010
0000
0000
1000
,
0001
0100
0010
0110
,
0000
0000
0000
1000
0000
0000
1000
0000
0010
0000
0000
0010
0000
0000
0100
0000
,
0001
0001
1000
1000
,
0001
0000
0000
0001
0000
0000
0100
0000
0010
0000
0000
0010
0000
0000
1000
0000
,
0100
0000
0000
0100
0000
0000
0010
0000
0001
0000
0000
0001
0000
0000
0000
0000
,
1000
0010
0100
0010
,
1000
0010
0110
1100
,
0101
0001
0100
0001
,
0100
0010
1010
1001
,
0001
0000
0000
0001
0100
0000
0000
0100
,
0010
0000
0000
0010
0100
0000
0110
0000
,
0001
0000
0000
1000
0000
0000
0000
1000
,
0100
0000
0000
0100
0010
0000
0000
0010
,
0001
0000
0000
0100
0010
0000
0000
1000
,
0001
0000
0000
0100
0010
0100
0010
0000
,
1000
0000
0000
0001
0100
0000
0000
0010
,
1000
0000
0000
0100
0010
0000
0000
0010
,
0001
0000
0000
1000
0010
0000
0000
0100
,
0001
0000
0000
1000
0010
1000
0010
0000
,
0100
0000
0000
0001
0010
0000
0000
0010
,
0100
0000
0000
0100
1000
0000
0000
0000
,
0001
0001
0100
0100
,
0010
0000
0010
0000
1000
0100
1000
0000
,
0001
0001
0100
0100
,
0010
0010
1010
1001
,
0001
0100
0010
1000
,
0010
0000
0010
0000
1000
0100
1000
0000
,
0001
0010
0100
1000
,
0010
0000
0000
0010
0000
0000
0010
0000
0100
0000
0000
0100
0000
0000
0100
0000
,
0002
0000
0000
0000
,
0000
0003
0000
0000
;

//---------------dance-single - ----------------
#NOTES:
     dance-single:
     :
     Easy:
     4:
     0.277110,0.354628,0.034181,0.051272,0.000000,227.000000,223.000000,4.000000,6.000000,0.000000,0.000000,0.277110,0.354628,0.034181,0.051272,0.000000,227.000000,223.000000,4.000000,6.000000,0.000000,0.000000:
0000
0000
0000
0000
,
0000
0000
0000
0000
,
0000
0000
0000
0000
,
0000
0000
0000
0000
,
0001
0000
0001
0000
,
0100
0010
0100
0000
,
0010
0000
0010
0000
,
0200
0000
0000
0000
0000
0300
0000
0000
,
0010
0010
0100
0100
,
0001
0001
1000
1000
,
0010
0010
0100
0100
,
0001
0001
1000
0001
,
1000
0000
0001
0000
,
1000
2000
0000
0000
0000
0000
3000
0000
,
0001
0000
1000
0000
,
0002
0000
0000
0003
,
0100
0010
0100
0001
,
0010
0001
1000
0010
,
0100
0010
0100
0001
,
1000
0010
0100
0001
,
0010
0100
1000
0010
,
1000
0010
1000
0001
,
0100
0010
1000
0010
,
0100
0001
1000
0000
,
0010
0100
0001
0000
,
1000
0010
0100
0000
,
0001
0010
0100
0000
,
1000
0010
0100
0000
,
0001
0010
0100
1000
,
0010
0100
0010
0000
,
1000
0001
0100
0010
,
1000
0001
0100
0010
,
0002
0000
0000
0003
,
1000
0000
0000
0000
,
0100
0000
0000
0000
,
0010
0000
0000
0100
0000
0000
0010
0000
,
0100
0000
0000
0000
,
0001
0000
0000
0000
,
1000
0000
0000
0000
,
0010
1000
0000
0010
,
1000
0000
0001
0000
,
0100
0000
0010
0000
,
1000
0000
0000
0001
0000
0000
1000
0000
,
0000
0010
0000
0000
0100
0000
0010
0000
,
0100
0000
0000
0001
0000
0000
0100
0000
,
0000
0001
0000
0000
0010
0000
0100
0000
,
1000
0000
0000
0010
0000
0000
1000
0000
,
0000
0010
0000
0000
0100
0000
0010
0000
,
0001
0000
0000
0010
0000
0000
0100
0000
,
0000
0001
0000
0000
0100
0000
0001
0000
,
1000
0000
0000
0000
0001
0001
0000
0000
,
0100
0000
0010
0000
,
0100
0010
0100
0000
,
1000
0000
0001
0000
,
1000
0000
0010
0010
,
0100
0000
0001
0000
,
1000
0010
0100
0000
,
0001
0000
0001
0000
,
0100
0000
1000
0000
,
0010
0100
0010
0100
,
0001
0001
0010
0010
,
1000
0100
1000
0100
,
0100
0100
0010
0010
,
0001
0000
1000
0000
,
0001
0000
1001
0000
,
1000
0000
0001
0000
,
1001
0000
0110
0000
,
1000
0000
1000
0000
,
0010
0000
0100
0010
,
0001
0000
0001
0000
,
0100
0000
0010
0000
,
0100
0000
0010
0000
,
1000
0000
1000
0100
,
0010
0000
0010
0000
,
1000
0000
1000
0000
,
0001
0100
0001
0100
,
0001
0000
0100
0000
0020
0000
0000
0030
,
1000
0010
1000
0010
,
1000
0001
0100
0000
,
0010
1000
0010
0100
,
0001
0000
0010
0000
0200
0000
0000
0300
,
0001
0010
0100
1000
,
0010
1000
0001
1000
,
1001
0000
0000
0000
;
