#TITLE:EVERLASTING FIRE;
#SUBTITLE:;
#ARTIST:MELISSA WHITE;
#TITLETRANSLIT:;
#SUBTITLETRANSLIT:;
#ARTISTTRANSLIT:;
#CREDIT:SupremeX;
#BANNER:Everlasting Fire.png;
#BACKGROUND:Everlasting Fire-bg.png;
#LYRICSPATH:;
#CDTITLE:CDtitle.png;
#MUSIC:Everlasting Fire.ogg;
#OFFSET:-0.040;
#SAMPLESTART:38.460;
#SAMPLELENGTH:12.000;
#SELECTABLE:YES;
#BPMS:0.000=148.000;
#STOPS:;
#BGCHANGES:16.000=fire1.avi=1.000=0=0=1,
32.000=Tracy3.avi=1.000=0=0=1,
40.500=fire1r.avi=1.000=0=0=1,
48.000=Tracy3.avi=1.000=0=0=1,
56.500=fire1r.avi=1.000=0=0=1,
64.000=fire2.avi=1.000=0=0=1,
72.000=Fire3.avi=1.000=0=0=1,
80.000=fire2.avi=1.000=0=0=1,
88.000=Fire3.avi=1.000=0=0=1,
95.000=fire1.avi=1.000=0=0=1,
103.500=Tracy3.avi=1.000=0=0=1,
111.000=fire1r.avi=1.000=0=0=1,
118.500=Fire3.avi=1.000=0=0=1,
127.000=fire1.avi=1.000=0=0=1,
135.500=Tracy3.avi=1.000=0=0=1,
143.000=fire1r.avi=1.000=0=0=1,
150.500=Fire3.avi=1.000=0=0=1,
160.000=fire2.avi=1.000=0=0=1,
176.000=Tracy3.avi=1.000=0=0=1,
192.000=fire1.avi=1.000=0=0=1,
208.000=Everlasting Fire-bg.png=1.000=0=0=1,
99999=-nosongbg-=1.000=0=0=0 // don't automatically add -songbackground-
;

//---------------dance-single - ----------------
#NOTES:
     dance-single:
     :
     Beginner:
     1:
     0.115,0.143,0.000,0.143,0.000:
0000
0000
0000
0000
,
0000
0000
0000
0000
,
0000
0000
0000
0000
,
0000
0000
0000
0000
,
2000
0000
0000
0000
0000
3000
0000
0000
,
0020
0000
0030
0000
,
0200
0000
0300
0000
,
0002
0000
0000
0003
0000
0000
0000
0000
,
0000
1000
0000
1000
,
0000
0000
0000
0000
,
0000
0010
0000
0010
,
0000
0000
0000
0000
,
0000
0100
0000
0100
,
0000
0000
0000
0000
0000
0000
0000
0001
,
0000
0000
0000
0000
,
1000
0000
0000
0000
,
0001
0100
0010
0000
,
0000
0000
0000
0000
,
1000
0010
0100
0000
,
0000
0000
0000
0000
,
0001
0010
0100
0000
,
0000
0000
0000
0000
,
0000
0000
0000
0000
,
2000
0000
3000
0000
,
0010
0100
0010
0000
,
0000
0000
0000
0000
,
0001
1000
0001
0000
,
0000
0000
0000
0000
,
1000
0010
1000
0000
,
0000
0000
0000
0000
0000
0000
0000
0002
,
0000
0000
0003
0000
,
0000
0000
0000
0000
,
0001
0100
0001
0000
,
0000
0000
0000
0000
,
1000
0100
0010
0001
,
0000
0000
0000
0000
,
1000
0100
1000
0000
,
0000
0000
0000
0020
,
0000
0000
0030
0000
,
0100
0010
0001
0000
,
2000
0000
3000
0000
,
0000
0000
0000
0000
,
0002
0000
0000
0003
0000
0000
0000
0000
,
0000
0000
0010
0000
,
0200
0000
0300
0000
,
0000
0000
0000
0000
,
2000
0000
3000
0000
,
0000
0000
0002
0000
,
0003
1000
0000
0001
,
0000
1000
0000
0001
,
0000
1000
0000
0001
,
0000
0100
0000
0020
,
0030
0000
0000
0000
;

//---------------dance-single - ----------------
#NOTES:
     dance-single:
     :
     Easy:
     3:
     0.269,0.316,0.011,0.220,0.000:
0000
0000
0000
0000
,
0000
0000
0000
0000
,
0000
0000
0000
0000
,
0000
0000
0000
0000
,
0200
0310
0001
1000
,
0010
0200
0301
0010
,
1000
0002
0103
0010
,
2000
3010
0100
0001
,
1000
0100
0010
0001
,
1000
0010
0100
0000
,
0000
0001
1000
0010
,
0100
0001
2000
0010
,
3010
0100
0001
1000
,
0001
0001
0000
1000
,
0010
0100
0002
0003
,
1000
0010
0200
0300
,
0001
0100
0010
1000
,
0100
0010
0001
0000
,
0100
0010
1000
0010
,
0100
0000
0001
0000
0200
0000
0000
0300
,
0010
1000
0020
0030
,
0100
0001
0010
0000
,
1000
0000
0100
0000
,
1001
0000
0000
0000
,
0001
0100
0001
0100
,
0010
1000
0010
1000
,
0001
1000
0001
1000
,
0010
0000
0000
0000
,
0100
0010
0100
0010
,
1000
0100
0010
0001
,
0200
0000
0300
0000
,
0001
0010
0100
1000
,
0010
0100
0010
1000
,
0100
0010
0001
0000
,
0010
1000
0001
0100
,
0000
0000
0000
0000
,
1000
0010
0100
0001
,
1000
0100
0010
0001
,
0200
0000
0000
0000
0000
0300
0000
0000
,
0001
0100
0010
1000
,
0200
0000
0300
0010
,
0002
0000
0000
0003
0000
0000
0100
0000
,
0020
0000
0030
1000
,
0200
0000
0000
0300
0001
0000
0001
0000
,
2000
0000
3000
0001
,
0002
0000
0003
0010
,
0020
0000
0030
0100
,
0200
0000
0000
0300
1000
0000
1000
0000
,
0001
0100
0010
1000
,
0001
0100
0010
1000
,
0001
0100
0010
1000
,
0001
0100
0010
2000
,
0000
3000
0000
0000
0000
0000
0000
0000
;

//---------------dance-single - Copied from----------------
#NOTES:
     dance-single:
     Copied from:
     Medium:
     5:
     0.307,0.344,0.011,0.242,0.039:
0000
0000
0000
0000
,
0000
0000
0000
0000
,
0000
0000
0000
0000
,
0000
0000
0000
0000
,
2000
0000
3010
0000
0100
0000
0001
1000
,
0002
0010
0013
0100
,
0200
0010
0310
1000
,
0100
0010
0001
0000
0100
0000
0010
0000
,
0000
1000
0010
0100
,
0001
0000
1000
0000
0010
0000
0100
0010
,
1000
0001
0100
0010
,
1000
0000
0001
0000
0100
1000
0010
0000
,
0100
0001
0010
0100
,
1000
0000
0010
1000
0000
0000
0000
0001
,
0000
0200
0000
0000
0300
0000
0000
0010
,
0000
2000
0000
0000
3000
0000
0000
0000
,
0010
0000
0000
0100
0000
0000
0001
0000
0000
0000
0000
0000
0010
0000
0000
0000
,
0100
0000
0000
0000
1000
0000
0000
0000
0010
0000
0000
0100
0000
0000
0000
0000
,
0001
0000
0000
0010
0000
0000
0100
0000
0000
0000
0000
0000
0010
0000
0000
0000
,
1000
0000
0001
0000
0200
0000
0000
0300
,
0001
0000
0000
0000
0100
0000
0000
0010
0000
0000
0000
0000
1000
0000
0000
0000
,
0010
0100
0001
0010
,
0100
0000
1000
0010
0000
0100
0000
0001
,
0000
1000
0010
1000
0100
0000
0001
0000
,
0100
0010
1000
0001
,
0010
0100
0010
1000
,
0020
0000
0100
0000
0130
0000
0000
0001
,
0000
0100
0010
1000
,
0010
0001
0100
0010
,
1000
0100
0010
0001
,
0200
0000
0000
0000
0000
0300
0000
0000
,
0010
1000
0001
0100
,
0010
0000
2000
0000
0010
3000
0000
0010
,
0000
1000
0010
0000
,
0002
0000
0100
0000
0103
0000
0000
0010
,
0000
1000
0001
0100
,
0010
0000
1000
0000
0001
0000
0000
0010
,
0000
2000
0000
3000
0000
0000
0100
0000
,
0020
0000
0100
0000
0130
0000
0000
0100
,
0000
0000
0001
0000
0100
0010
1000
0000
,
0002
0000
0000
0003
0000
0000
1000
0000
,
0020
0000
0030
0100
,
0200
0000
0000
0000
0000
0000
0000
0000
0300
0000
0000
0000
0010
0000
0000
0002
,
0000
0000
0000
0000
0000
0000
0003
0000
0100
0000
0000
0010
0000
0000
1000
0000
,
0020
0000
0030
0100
,
2000
0000
0000
3000
0000
0000
0010
0000
,
0002
0000
0000
0003
0000
0000
0010
0000
,
0200
0000
0000
0000
0000
0000
0300
0000
0001
0000
0000
0010
0000
0000
0100
0000
,
0000
0000
1000
0000
0010
0100
0010
0000
,
1000
0000
0001
0000
1000
0001
1000
0000
,
0010
0000
0100
0000
0010
1000
0010
0000
,
1000
0001
0100
0220
,
0330
0000
0000
0000
;

//---------------dance-single - Copied from----------------
#NOTES:
     dance-single:
     Copied from:
     Hard:
     7:
     0.397,0.430,0.033,0.264,0.149: // measure 1
0000
0000
0000
0000
,  // measure 2
0000
0000
0000
0000
,  // measure 3
0000
0000
0000
0000
,  // measure 4
0000
0000
0000
0000
,  // measure 5
0020
0000
0000
0000
0130
0000
0000
0000
0000
0000
0001
0000
0100
0001
0100
0002
,  // measure 6
0000
0000
0000
0000
1003
0000
0000
0000
0000
0000
0100
0000
0010
0100
0010
0200
,  // measure 7
0000
0000
0000
0000
0301
0000
0000
0000
0000
0000
0010
0000
0100
0010
0100
0020
,  // measure 8
0000
0000
0000
0000
1030
0000
0000
0000
0100
0000
0000
0010
0000
0000
0001
0000
,  // measure 9
0000
0100
0010
1000
,  // measure 10
0001
0000
0010
0000
1000
0000
0100
0000
0000
0000
0010
0000
0000
1000
0000
0000
,  // measure 11
0100
0000
0001
0010
2000
0000
0010
3000
,  // measure 12
0100
0010
0001
0000
0100
0010
0100
0001
,  // measure 13
1000
0001
0100
0010
,  // measure 14
1000
0000
0001
0001
0000
0100
0010
1000
,  // measure 15
0000
0002
0000
0000
0003
0000
0000
0110
,  // measure 16
0000
2000
0000
0000
3000
0000
0000
0000
,  // measure 17
0010
0000
0000
0000
0100
0000
0000
0020
0000
0000
0000
0000
1000
0000
0000
0000
,  // measure 18
1000
0000
0000
0000
1030
0000
0000
0000
0100
0000
0000
0010
0000
0000
0000
0000
,  // measure 19
0001
0000
0000
0000
0010
0000
0000
0002
0000
0000
0000
0000
0100
0000
0000
0000
,  // measure 20
0100
0000
0103
0000
0020
0000
0000
0030
,  // measure 21
1000
0000
0000
0000
0100
0000
0000
2000
0000
0000
0000
0000
0010
0000
0000
0000
,  // measure 22
0010
3010
0100
0000
,  // measure 23
1000
0000
0010
0100
0000
0001
0000
1000
,  // measure 24
0000
0001
0100
0001
1000
0000
0000
0000
,  // measure 25
0001
0000
0010
0000
1000
0000
0010
0100
,  // measure 26
0000
0000
0001
0000
0100
0000
1000
0000
0100
0000
0000
0010
0000
0000
0000
0000
,  // measure 27
0001
0100
0001
1000
0010
0100
0010
0001
,  // measure 28
0000
1000
0010
0001
,  // measure 29
0100
0000
0010
0000
1000
0000
0001
0100
,  // measure 30
0000
0001
0010
0100
1000
0010
0100
0002
,  // measure 31
0000
0000
0000
0000
0000
0003
0000
0000
,  // measure 32
0100
0010
1000
0010
,  // measure 33
0001
0000
0200
0000
0010
0000
0310
0100
,  // measure 34
0000
0000
0001
0000
0000
0000
1000
0000
0010
0000
0000
0100
0000
0000
0000
0000
,  // measure 35
0001
0010
0100
1000
0010
0100
0001
0000
,  // measure 36
0100
1000
0001
0100
,  // measure 37
0010
0000
1000
0000
0100
0000
0001
0010
,  // measure 38
0000
1000
0100
0010
0001
0000
0100
0020
,  // measure 39
0000
1000
1000
1030
,  // measure 40
0100
0001
0010
0100
1000
0010
0100
0000
,  // measure 41
0020
0000
0000
0000
0000
0000
0030
0000
0000
0000
1000
0000
0010
1000
0010
2000
,  // measure 42
0000
0000
0000
0000
0010
0000
0000
0000
3000
0000
0001
0000
0100
0001
0100
0002
,  // measure 43
0000
0000
0000
0000
0100
0000
0000
0000
0003
0000
0000
0000
1000
0000
0000
0020
,  // measure 44
0000
0000
0000
0000
0130
0000
0000
0000
0001
0000
0000
0010
0000
0000
0100
0000
,  // measure 45
2000
0000
0000
0000
0000
0000
0000
0000
3000
0000
0010
0000
0100
0010
0100
0020
,  // measure 46
0000
0000
0000
0000
0130
0000
0000
0000
0000
0000
0001
0000
0100
0001
0100
0002
,  // measure 47
0000
0000
0000
0000
0103
0000
0000
0000
0000
0000
0010
0000
0100
0010
0100
0020
,  // measure 48
0000
0000
0000
0000
0130
0000
0000
0000
1000
0000
0000
0010
0000
0000
1000
0000
,  // measure 49
0000
0000
0010
0000
0100
0010
0001
0000
,  // measure 50
0100
0000
0100
0000
0010
0100
1000
0000
,  // measure 51
0010
0000
0100
0000
0001
0010
0100
0000
,  // measure 52
1000
0110
0001
2002
,  // measure 53
3003
0000
0000
0000
;
