#TITLE:Duppy Huppy (Happy Mix);
#SUBTITLE:;
#ARTIST:BARBIE YOUNG;
#TITLETRANSLIT:;
#SUBTITLETRANSLIT:;
#ARTISTTRANSLIT:;
#GENRE:;
#CREDIT:SupremeX;
#BANNER:Duppy Huppy.png;
#BACKGROUND:Duppy Huppy-bg.png;
#LYRICSPATH:;
#CDTITLE:CDTitle.png;
#MUSIC:Duppy Huppy (Happy Mix).ogg;
#OFFSET:-0.175457;
#SAMPLESTART:68.730003;
#SAMPLELENGTH:12.000000;
#SELECTABLE:YES;
#BPMS:0.000000=140.000000
;
#STOPS:
;
#BGCHANGES:32.000=Scissors1.avi=1.000=0=0=1=====,
40.000=Scissors1R.avi=1.000=0=0=1=====,
48.000=text12.avi=1.000=0=0=1=====,
64.000=star1.avi=1.000=0=0=1=====,
72.000=star8.avi=1.000=0=0=1=====,
80.000=star1.avi=1.000=0=0=1=====,
88.000=star8R.avi=1.000=0=0=1=====,
96.000=star2b.avi=1.000=0=0=1=====,
104.000=text12.avi=1.000=0=0=1=====,
112.000=Star2.avi=1.000=0=0=1=====,
120.000=text12.avi=1.000=0=0=1=====,
128.000=Star2R.avi=1.000=0=0=1=====,
136.000=Scissors1.avi=1.000=0=0=1=====,
144.000=Star2R.avi=1.000=0=0=1=====,
151.500=Scissors1R.avi=1.000=0=0=1=====,
160.000=star8.avi=1.000=0=0=1=====,
176.000=Star2.avi=1.000=0=0=1=====,
192.000=star1.avi=1.000=0=0=1=====,
208.000=star8.avi=1.000=0=0=1=====,
216.000=star2b.avi=1.000=0=0=1=====,
224.000=Scissors1.avi=1.000=0=0=1=====,
232.000=star8.avi=1.000=0=0=1=====,
240.000=Scissors1R.avi=1.000=0=0=1=====,
248.000=star8R.avi=1.000=0=0=1=====,
254.000=Duppy Huppy-bg.png=1.000=0=0=1=====,
99999=-nosongbg-=1.000=0=0=0 // don't automatically add -songbackground-
;
#KEYSOUNDS:;
#ATTACKS:;

//---------------dance-single - ----------------
#NOTES:
     dance-single:
     :
     Hard:
     7:
     0.423200,0.458811,0.334173,0.162571,0.167087,328.000000,291.000000,37.000000,18.000000,0.000000,0.000000,0.423200,0.458811,0.334173,0.162571,0.167087,328.000000,291.000000,37.000000,18.000000,0.000000,0.000000:
0000
0000
0000
0000
,
0000
0000
0000
0000
,
0000
0000
0000
0000
,
0000
0000
0000
0000
,
1000
0000
0000
0001
0000
0000
0000
0000
0100
0000
0010
0000
0100
0000
0000
0000
,
0001
0000
0000
1000
0000
0000
0000
0000
0010
0000
0100
0000
0010
0000
0000
0000
,
1000
0000
0000
0010
0000
0000
0000
0000
0100
0000
0001
0000
0100
0000
0000
0000
,
0010
0000
0000
1000
0000
0000
0000
0000
0010
0000
0100
0000
0010
0000
0000
0000
,
1000
0000
0000
0001
0000
0000
0001
0000
0100
0000
0000
0100
0000
0000
0010
0000
,
1000
0000
0000
1000
0000
0000
0010
0000
0100
0000
0000
0000
0101
0000
0000
0000
,
1000
0000
0000
0010
0000
0000
1000
0000
0001
0000
0000
0100
0000
0000
0001
0000
,
1000
0101
1001
0000
,
0010
0000
0000
1000
0000
0000
1000
0000
0001
0000
0000
0001
0000
0000
0100
0000
,
0010
0000
0000
0010
0000
0000
0100
0000
0001
0000
0000
0000
1010
0000
0000
0000
,
0001
0000
0000
0100
0000
0000
0001
0000
1000
0000
0000
0010
0000
0000
1000
0000
,
0001
1010
1001
0000
,
0011
0000
0110
0000
0001
0010
0100
2000
,
0000
3010
0000
0000
0100
0000
0001
0000
,
1100
0000
0110
0000
0001
0100
0010
2000
,
0000
0000
3010
0000
0000
0000
0000
0000
0100
0001
0100
0000
0001
0000
1000
0000
,
1010
0000
0101
0000
1000
0001
0100
0002
,
0000
0103
0000
0000
1000
0000
0010
0000
,
0101
0000
1010
0000
0001
0010
1000
0002
,
0000
0103
0000
0000
0010
0000
1000
0000
,
0001
0101
1000
1010
,
0100
0001
1000
0001
0100
0000
0000
0000
,
0001
0010
0100
1000
,
0010
0100
0000
0001
0000
1001
0000
0000
,
1000
1100
0001
0011
,
0100
1000
0010
0100
0001
0000
0000
0000
,
1000
0001
1000
0010
,
0220
0000
0330
0001
,
1000
0000
1010
0000
0110
0000
0001
1000
,
0010
0101
1001
0000
,
0001
0100
0001
1000
,
0010
0100
0001
1000
0000
1010
0000
0000
,
0001
0000
0110
0000
0101
0000
1000
0010
,
0100
1001
1010
0000
,
0100
0000
0001
1000
0010
0100
0001
1000
,
0010
0100
0001
0200
0000
0310
1000
0000
,
0100
0000
0000
0100
0000
0000
0010
0000
0001
0000
0000
0001
0000
0000
0100
0000
,
0010
0000
0000
0010
0000
0000
1000
0000
0002
0000
0000
0000
1003
0000
0000
0000
,
0100
0000
0000
0100
0000
0000
0010
0000
0001
0000
0000
0001
0000
0000
1000
0000
,
0010
0110
0101
0000
,
1000
0000
0000
1000
0000
0000
0100
0000
0010
0000
0000
0010
0000
0000
0001
0000
,
0100
0000
0000
0100
0000
0000
0010
0000
1000
0000
0000
0000
0001
0000
0000
0000
,
1000
0000
0000
1000
0000
0000
0100
0000
0010
0000
0000
0001
0000
0000
0001
0000
,
0100
1010
0101
0000
,
0010
0000
0100
0000
0001
1000
0010
0200
,
0000
0301
0000
0000
1010
0000
1001
0000
,
0100
0000
0001
0000
1000
0010
0100
0002
,
0000
0000
1003
0000
0000
0000
0000
0000
0100
0010
0100
0000
0001
0000
0001
0000
,
1000
0000
0001
0000
0100
0001
1000
0020
,
0000
0130
0000
0000
1010
0000
0101
0000
,
1000
0000
1000
0000
0001
0100
0010
2000
,
0000
0000
3001
0000
0000
0000
0000
0000
0001
0100
0001
0000
0100
0000
0100
0000
,
0010
0000
0000
0010
0000
0000
1000
0000
0100
0000
0000
0100
0000
0000
0010
0000
,
0001
0000
0000
0001
0000
0000
0010
0000
0200
0000
0000
0000
1300
0000
0000
0000
,
0001
0000
0000
0001
0000
0000
0010
0000
0100
0000
0000
0100
0000
0000
1000
0000
,
0002
0203
0301
0000
,
1000
0000
0000
1000
0000
0000
0100
0000
0010
0000
0000
0010
0000
0000
0001
0000
,
0100
0000
0000
0100
0000
0000
0010
0000
2000
0000
0000
0000
3010
0000
0000
0000
,
0100
0000
0000
0100
0000
0000
0001
0000
1000
0000
0000
1000
0000
0000
0010
0000
,
0200
0302
1003
0000
;

//---------------dance-single - ----------------
#NOTES:
     dance-single:
     :
     Medium:
     5:
     0.298046,0.315432,0.018063,0.000000,0.000000,231.000000,229.000000,2.000000,0.000000,0.000000,0.000000,0.298046,0.315432,0.018063,0.000000,0.000000,231.000000,229.000000,2.000000,0.000000,0.000000,0.000000:
0000
0000
0000
0000
,
0000
0000
0000
0000
,
0000
0000
0000
0000
,
0000
0000
0000
0000
,
1000
0001
0100
0100
,
0001
1000
0010
0010
,
1000
0001
0100
0100
,
0001
1000
0010
0010
,
1000
0000
0001
0000
,
1000
0000
0010
0100
,
0001
0000
1000
0000
,
0001
0100
0001
0000
,
1000
0000
0010
0000
,
0100
0001
1000
0001
,
0100
0000
0010
0000
,
1000
0001
0100
0000
,
0010
0000
0010
0000
1000
0001
1000
0001
,
0000
0100
0000
0000
0010
0000
0100
0000
,
0001
0000
0001
0000
1000
0100
0010
0001
,
0000
1000
0000
0000
0010
0000
0100
0000
,
0001
0000
0001
0000
1000
0010
1000
0010
,
0000
0100
0000
0000
0001
0000
0001
0000
,
1000
0000
0010
0000
0100
0001
0100
0001
,
0000
1000
0000
0000
0001
0000
0100
0000
,
0010
0010
1000
1000
,
0001
0100
0001
0100
0001
0000
0000
0000
,
1000
0010
1000
0010
,
0100
0000
0000
0001
0000
0001
0000
0000
,
1000
0010
0100
0001
,
1000
0001
0100
0010
1000
0000
0000
0000
,
0001
0100
0010
1000
,
0001
0000
0000
1000
,
0010
0100
0101
1000
,
0001
0100
1001
0000
,
0010
0100
0010
0100
,
0001
0001
0000
1000
0000
1000
0000
0000
,
0010
0100
0001
1000
,
0010
0100
0001
0000
,
1000
0001
0100
0010
,
1000
0000
0000
0001
0000
0000
0100
0000
,
0001
0001
1000
1000
,
0010
0100
0010
0100
,
0001
0001
1000
1000
,
0010
0100
0010
0000
,
0100
0001
0100
0001
,
1000
1000
0010
0100
,
0001
0100
0001
0100
,
0010
1000
0010
0000
,
0100
0000
0100
0000
0001
1000
0001
1000
,
0000
0001
0000
0000
0100
0000
0010
0000
,
1000
0000
0001
0000
0100
0010
0100
0010
,
0000
0100
0000
0000
0001
0000
1000
0000
,
0010
0000
0100
0000
0001
1000
0001
1000
,
0000
0010
0000
0000
0100
0000
0001
0000
,
1000
0000
0010
0000
0100
0010
0100
0100
,
0000
0010
0000
0000
1000
0000
0001
0000
,
0100
0010
1000
0001
,
1000
0010
0100
0100
,
0001
1000
0010
0100
,
0001
1000
0001
0000
,
0100
0001
1000
0010
,
0100
0001
1000
1000
,
0010
0100
0001
1000
,
0001
1000
0010
0000
;

//---------------dance-single - ----------------
#NOTES:
     dance-single:
     :
     Easy:
     3:
     0.260629,0.258081,0.000000,0.000000,0.000000,202.000000,202.000000,0.000000,0.000000,0.000000,0.000000,0.260629,0.258081,0.000000,0.000000,0.000000,202.000000,202.000000,0.000000,0.000000,0.000000,0.000000:
0000
0000
0000
0000
,
0000
0000
0000
0000
,
0000
0000
0000
0000
,
0000
0000
0000
0000
,
0010
0000
0100
0100
,
0001
0000
1000
1000
,
0010
0000
0100
0100
,
0001
0000
0010
0010
,
0100
0000
0100
0000
,
0100
0000
1000
0000
,
0001
0000
0001
0000
,
0100
0010
0100
0000
,
0010
0000
1000
0000
,
0010
0100
0001
0000
,
1000
0000
0010
0000
,
0100
0001
0100
0000
,
0010
0010
1000
1000
,
1000
0000
0001
0001
,
0100
0100
0010
0010
,
0010
0000
1000
0001
,
0100
0100
0001
0001
,
0001
0000
1000
0010
,
0100
0100
0001
0010
,
0100
0000
1000
1000
,
0001
0100
0001
0100
,
0010
0010
1000
0000
,
0001
0100
0001
0100
,
0010
0000
0000
1000
0000
0000
0000
0000
,
0001
0100
0010
1000
,
0001
0100
0001
0000
,
1000
0100
0010
0001
,
0100
0000
0000
0010
,
0010
1000
1000
0001
,
0001
0100
0100
0000
,
0010
1000
0010
1000
,
0010
0100
0000
0001
,
0001
1000
1000
0010
,
0010
0100
0100
0000
,
0001
1000
0001
1000
,
0010
0000
0100
0000
,
0010
0010
1000
1000
,
0001
0001
0100
0001
,
1000
1000
0010
0010
,
0100
0001
0100
0000
,
0010
0010
1000
1000
,
0001
0001
0100
0010
,
1000
1000
0010
0010
,
0100
0001
0100
0000
,
0010
0010
1000
1000
,
1000
1000
0001
0001
,
0100
0010
1000
0001
,
1000
0001
0100
0100
,
0010
0010
1000
0001
,
0001
0000
0100
0010
,
1000
0001
0100
0010
,
1000
0000
0001
0001
,
0100
0100
0010
0010
,
1000
1000
0001
1000
,
0010
0010
0100
0100
,
0001
1000
0001
0000
,
1000
1000
0001
0001
,
0100
0100
0001
1000
,
0010
0010
1000
1000
,
0001
0100
0001
0000
;

//---------------dance-single - Copied from----------------
#NOTES:
     dance-single:
     Copied from:
     Beginner:
     1:
     0.077415,0.085350,0.000000,0.000000,0.000000,60.000000,60.000000,0.000000,0.000000,0.000000,0.000000,0.077415,0.085350,0.000000,0.000000,0.000000,60.000000,60.000000,0.000000,0.000000,0.000000,0.000000:
0000
0000
0000
0000
,
0000
0000
0000
0000
,
0000
0000
0000
0000
,
0000
0000
0000
0000
,
0100
0000
0000
0000
,
0100
0000
0000
0000
,
0100
0000
0000
0000
,
0100
0000
0000
0000
,
0001
0000
0000
0000
,
0001
0000
0000
0000
,
0001
0000
0000
0000
,
0001
0000
0000
0000
,
1000
0000
0000
0000
,
1000
0000
0000
0000
,
1000
0000
0000
0000
,
1000
0000
0000
0000
,
0010
0000
0000
0000
,
0010
0000
0000
0000
,
0010
0000
0000
0000
,
0010
0000
0000
0000
,
0100
0000
0000
0000
,
0100
0000
0000
0000
,
0100
0000
0000
0000
,
0100
0000
0000
0000
,
0001
0000
0000
0000
,
0001
0000
0000
0000
,
1000
0000
0000
0000
,
1000
0000
0000
0000
,
0001
0000
0000
0000
,
0001
0000
0000
0000
,
1000
0000
0000
0000
,
1000
0000
0000
0000
,
0010
0000
0000
0000
,
0100
0000
0000
0000
,
0010
0000
0000
0000
,
0100
0000
0000
0000
,
0001
0000
0000
0000
,
1000
0000
0000
0000
,
0001
0000
0000
0000
,
1000
0000
0000
0000
,
0010
0000
0000
0000
,
0010
0000
0000
0000
,
0010
0000
0000
0000
,
0010
0000
0000
0000
,
0100
0000
0000
0000
,
0100
0000
0000
0000
,
0100
0000
0000
0000
,
0100
0000
0000
0000
,
0001
0000
0000
0000
,
0001
0000
0000
0000
,
0001
0000
0000
0000
,
0001
0000
0000
0000
,
1000
0000
0000
0000
,
1000
0000
0000
0000
,
1000
0000
0000
0000
,
1000
0000
0000
0000
,
0001
0000
0000
0000
,
0001
0000
0000
0000
,
0100
0000
0000
0000
,
0100
0000
0000
0000
,
0010
0000
0000
0000
,
0010
0000
0000
0000
,
1000
0000
0000
0000
,
1000
0000
0000
0000
;
