#TITLE:Don't Don't Go Away (disko warp main mix);
#SUBTITLE:;
#ARTIST:Foxxie;
#TITLETRANSLIT:;
#SUBTITLETRANSLIT:;
#ARTISTTRANSLIT:;
#GENRE:;
#CREDIT:SupremeX;
#BANNER:Don't Don't Go Away.png;
#BACKGROUND:Don't Don't Go Away-bg.png;
#LYRICSPATH:;
#CDTITLE:CDtitle.png;
#MUSIC:Don't Don't Go Away.ogg;
#OFFSET:-0.204249;
#SAMPLESTART:48.000000;
#SAMPLELENGTH:12.000000;
#SELECTABLE:YES;
#BPMS:0.000000=160.000000
;
#STOPS:
;
#BGCHANGES:-0.900=Don't Don't Go Away.avi=1.000=1=0=0=StretchNoLoop==CrossFade==,
99999=-nosongbg-=1.000=0=0=0 // don't automatically add -songbackground-
;
#KEYSOUNDS:;
#ATTACKS:;

//---------------dance-single - ----------------
#NOTES:
     dance-single:
     :
     Beginner:
     2:
     0.129136,0.192984,0.008950,0.053700,0.000000,101.000000,100.000000,1.000000,6.000000,0.000000,0.000000,0.129136,0.192984,0.008950,0.053700,0.000000,101.000000,100.000000,1.000000,6.000000,0.000000,0.000000:
0000
0000
0000
0000
,
0000
0000
0000
0000
,
0000
0000
0000
0000
,
0000
0000
0000
0000
,
0000
0000
0000
0000
,
0000
0000
0000
0000
,
0000
0000
0000
0000
,
0000
0000
0000
0000
0000
0000
0000
1000
,
0000
0010
0000
0000
0000
0000
0000
0100
,
0000
0001
0000
0000
0000
0000
0000
0100
,
0000
0100
0000
0000
0000
0000
0000
1000
,
0000
1000
0000
0000
0000
0000
0000
0001
,
0000
0100
0000
0000
0000
0000
0000
0010
,
0000
1000
0000
0000
0000
0000
0000
0100
,
0000
0100
0000
0000
0000
0000
0000
1000
,
0000
0000
0000
0001
0000
0000
0000
0100
,
0000
0000
0000
0000
,
0000
0000
0000
0000
,
0000
0000
0000
2000
,
0000
3000
0000
0000
0000
0000
0000
0000
,
0000
0000
0000
0000
,
0000
0000
0000
0020
,
0000
0000
0000
0000
,
0000
0000
0030
0000
0000
0000
0000
1000
,
0000
0000
0000
0001
0000
0000
0000
0100
,
0000
0000
0000
0010
0000
0000
0000
0100
,
0000
0000
0000
0001
0000
0000
0000
1000
,
0000
0000
0000
0000
0000
0000
0000
0010
,
0000
0000
0000
1000
0000
0000
0000
0010
,
0000
0000
0000
0001
0000
0000
0000
0100
,
0000
0000
0000
0010
0000
0000
0000
1000
,
0000
0000
0000
0000
0000
0000
0000
0100
,
0000
0100
0000
0000
0000
0000
0000
0001
,
0000
0001
0000
0000
0000
0000
0000
0100
,
0000
0100
0000
0000
0000
0000
0000
2000
,
0000
0000
0000
0000
3000
0000
0000
0010
,
0000
0010
0000
0000
0000
0000
0000
0100
,
0000
0100
0000
0000
0000
0000
0000
0001
,
0000
0001
0000
0000
0000
0000
0000
1000
,
0000
0000
0000
0000
0000
0000
0000
0001
,
0000
0000
0000
0000
0000
0000
0000
1000
,
0000
0000
0000
0000
0000
0000
0000
0010
,
0000
0000
0000
0000
,
0000
0000
0000
0000
0000
0000
0000
1000
,
0000
0000
0000
0000
0000
0000
0000
0001
,
0000
0000
0000
0000
0000
0000
0000
0010
,
0000
0000
0000
0000
0000
0000
0000
1000
,
0000
0000
0000
0000
0000
0000
0000
0100
,
0000
0100
0000
0000
0000
0000
0000
0001
,
0000
0001
0000
0000
0000
0000
0000
0010
,
0000
0010
0000
0000
0000
0000
0000
1000
,
0000
1000
0000
0000
0000
0000
0000
0100
,
0000
0100
0000
0000
0000
0000
0000
0001
,
0000
0001
0000
0000
0000
0000
0000
0010
,
0000
0010
0000
0000
0000
0000
0000
1000
,
0000
1000
0000
0000
0000
0000
0000
0001
,
0000
1000
0000
0000
0000
0000
0000
0010
,
0000
0010
0000
0000
0000
0000
0000
1000
,
0000
0001
0000
0000
0000
0000
0000
0200
,
0000
0000
0000
0300
0000
0000
0000
0010
,
0000
0010
0000
0000
0000
0000
0000
1000
,
0000
0001
0000
0000
0000
0000
0000
0010
,
0000
0010
0000
0000
0000
0000
0000
1000
,
0000
0000
1000
0000
0000
0000
0000
0010
,
0000
0010
0000
0000
0000
0000
0000
0001
,
0000
0001
0000
0000
0000
0000
0000
0100
,
0000
0100
0000
0000
0000
0000
0000
1000
,
0000
1000
0000
0000
0000
0000
0000
0010
,
0000
0010
0000
0000
0000
0000
0000
0001
,
0000
0001
0000
0000
0000
0000
0000
0100
,
0000
0100
0000
0000
0000
0000
0000
2002
,
0000
0000
0000
0000
0000
0000
0000
3003
;

//---------------dance-single - ----------------
#NOTES:
     dance-single:
     :
     Easy:
     3:
     0.277450,0.321640,0.026850,0.098450,0.017900,217.000000,214.000000,3.000000,11.000000,0.000000,0.000000,0.277450,0.321640,0.026850,0.098450,0.017900,217.000000,214.000000,3.000000,11.000000,0.000000,0.000000:
0000
0000
0000
0000
,
0000
0000
0000
0000
,
0000
0000
0000
0000
,
0000
0000
0000
0000
,
0000
0000
0000
0000
,
0000
0000
0000
0000
,
0000
0000
0000
0000
,
0000
0000
0000
0000
0000
0000
0000
1000
,
0000
0001
0000
0100
0000
0100
0000
0001
,
0000
1000
0000
0010
0000
0010
0000
1000
,
0000
0001
0000
0100
0000
0100
0000
0001
,
0000
0010
0000
0100
0000
1000
0000
0001
,
0000
1000
0000
0001
0000
0001
0000
1000
,
0000
0001
0000
1000
0000
1000
0000
0010
,
0000
0100
0000
0010
0000
0010
0000
1000
,
0000
0001
0000
0100
0000
0010
0000
1000
,
0000
1000
0000
1000
0000
0000
0010
0000
,
0100
0000
0000
0000
0000
0000
0000
0001
,
0000
0001
0000
0001
0000
0000
0100
0000
,
0020
0000
0030
0000
0000
0000
0000
0100
,
0000
0010
0000
1000
0000
0000
0100
0000
,
0100
0000
0100
0000
0000
0001
0000
1000
,
0000
0001
0000
0100
0000
0000
0000
0010
,
0000
0010
0000
0000
0000
0000
0000
2000
,
0000
0000
3000
0002
0000
0000
0003
0100
,
0000
0100
0000
0000
0010
0000
0000
1000
,
0000
0010
0000
1000
0000
0001
0000
0000
,
0100
0000
0010
0000
0000
0001
0000
0000
,
2000
0000
0000
0000
0000
3000
0000
0001
,
0000
0000
0100
0000
0000
0002
0000
0000
,
0000
0000
0003
0100
,
0010
0000
0100
0000
0000
0000
0000
0001
,
0000
0000
1000
0000
0000
0000
0010
0000
0000
0010
0000
0000
0000
0000
0100
0000
,
0000
1000
0000
0001
0000
1000
0000
0010
,
0000
0100
0000
0001
0000
1000
0000
0010
,
0000
0000
1000
0000
0000
0000
0000
0010
,
0000
0000
0100
0000
0000
0000
0001
0000
0000
0001
0000
0000
0000
0000
1000
0000
,
0000
1000
0000
0010
0000
0100
0000
0001
,
0000
0010
0000
0100
0000
1000
0000
0010
,
0000
0000
0100
0000
0000
0000
0000
0001
,
0000
1000
0000
0110
0000
0000
0000
0001
,
0000
0001
0000
1000
0000
1000
0000
0020
,
0000
0000
0000
0000
0030
0000
0000
0100
,
0000
0000
0100
0000
0000
0000
0000
0001
,
0000
1000
0000
0110
0000
0000
0000
1000
,
0000
1000
0000
0010
0000
0100
0000
0002
,
0000
0000
0000
0000
0000
0003
0000
1000
,
0000
0010
0000
0100
0000
0000
0000
0001
,
0000
0001
0000
1000
0000
0010
0000
1000
,
0000
1000
0000
0001
0000
0100
0000
0010
,
0000
0010
0000
1000
0000
0001
0000
1000
,
0000
0100
0000
0010
0000
0001
0000
1000
,
0000
0100
0000
0010
0000
0010
0000
0001
,
0000
0010
0000
0100
0000
0100
0000
0010
,
0000
1000
0000
0010
0000
0100
0000
0001
,
0000
0010
0000
0100
0000
1000
0000
0001
,
0000
0000
0001
0000
0000
0000
0100
0000
0000
0100
0000
0000
0000
0000
0010
0000
,
0000
1000
0000
0001
0000
0100
0000
0010
,
0000
1000
0000
0001
0000
0100
0000
0010
,
0000
0000
0002
0000
0003
0000
0000
1000
,
0000
0000
0010
0000
0000
0000
0100
0000
0000
0100
0000
0000
0000
0000
0001
0000
,
0000
1000
0000
0010
0000
0100
0000
0001
,
0000
0010
0000
0100
0000
1000
0000
0010
,
0000
0000
2000
0000
3000
0000
0000
0001
,
0000
0100
0000
0010
0000
0001
0000
1000
,
0000
0010
0000
0100
0000
0001
0000
1000
,
0000
0010
0000
1000
0000
0001
0000
1000
,
0000
0100
0000
0010
0000
0001
0000
1000
,
0000
0100
0000
0010
0000
0010
0000
0001
,
0000
0100
0000
1000
0000
0001
0000
1000
,
0000
0010
0000
0001
0000
0001
0000
1000
,
0000
0100
0000
0001
0000
2002
0000
3003
;

//---------------dance-single - Copied from----------------
#NOTES:
     dance-single:
     Copied from:
     Hard:
     8:
     0.444942,0.513729,0.107400,0.071600,0.044750,348.000000,336.000000,12.000000,8.000000,0.000000,0.000000,0.444942,0.513729,0.107400,0.071600,0.044750,348.000000,336.000000,12.000000,8.000000,0.000000,0.000000:
0000
0000
0000
0000
,
0000
0000
0000
0000
,
0000
0000
0000
0000
,
0000
0000
0000
0000
,
0000
0000
0000
0000
,
0000
0000
0000
0000
,
0000
0000
0000
0000
,
0000
0000
0000
0000
0000
0000
0000
0100
,
0000
0010
0000
1000
0100
1000
0000
0010
,
0000
0100
0000
0001
0010
0001
0000
1000
,
0000
0100
0000
0001
0100
0010
0000
1000
,
0100
0010
0000
0001
0100
0001
0000
0100
,
0000
0010
0000
1000
0100
1000
0000
0010
,
0000
0100
0000
0001
0010
0001
0000
1000
,
0000
0100
0000
0001
0100
0010
0000
1000
,
0100
0010
0000
0001
0100
0001
0000
1000
,
0000
0001
0000
0100
0010
0000
1000
0000
,
0020
0000
1030
1000
0100
0000
0001
0000
,
0100
0010
0000
1000
0010
0000
0001
0000
,
0100
0010
0000
0000
0000
1000
0100
0000
,
0010
0001
0000
0001
0100
0000
0010
0000
,
1000
0000
0001
0000
0100
0001
0010
0000
,
0010
0000
0100
1000
0000
0000
0001
0000
,
0100
0100
0000
0000
0000
0001
0010
0000
,
0100
1000
0000
0010
0100
0010
0000
1000
,
0100
0010
0001
0000
0200
0000
0320
0000
,
0030
1000
0100
0010
0100
0010
0001
0000
,
0100
0010
1000
0000
0010
0000
0100
0000
,
0001
0010
0100
1000
0010
0100
0000
0001
,
0100
0001
1000
0000
0010
0100
0010
0001
,
0000
0100
0100
0001
0000
0010
1000
0000
,
0100
0000
0101
0000
1000
1000
0000
0010
,
0000
0000
0100
0000
0000
0000
0001
0000
0000
0100
0010
0000
0000
0000
1000
0000
,
0000
0010
0000
1000
0000
0101
0000
0010
,
0000
0010
0000
0000
0100
0001
0000
0000
0001
0000
1000
0000
0100
0000
0010
0000
,
0000
0000
0002
0000
0000
0000
0003
0100
,
0000
0000
0100
0000
0000
0000
0010
0000
0000
1000
0010
0000
0000
0000
0100
0000
,
0000
0001
0000
0100
0010
0001
0000
0100
,
0010
0100
0000
1000
0010
1000
0000
0001
,
0100
0000
0011
0000
0000
0000
0000
1000
,
0000
1000
0000
0010
0000
0010
0000
0100
,
0010
1000
0010
0100
0001
1000
0000
0020
,
0000
0030
0200
0000
0000
0300
0000
0001
,
0010
0100
1000
0010
0100
0100
0000
0001
,
0000
0100
0000
0010
0000
1000
0000
0100
,
0001
0100
0010
1000
0010
0100
0000
0002
,
0000
0003
2000
0000
0000
3000
0000
0010
,
0100
0010
0100
1000
0010
1000
0000
0001
,
0100
0001
0000
0100
0010
1000
0000
0010
,
1000
0010
0000
0100
0010
0001
0000
0100
,
0010
1000
0000
0010
0100
0010
0000
0100
,
0010
1000
0001
0010
0100
1000
0000
0010
,
1000
0010
0000
1100
0000
1010
0000
0100
,
0001
0100
0000
0011
0000
0101
0000
0010
,
0100
0010
0000
1010
0000
1001
0000
0100
,
0010
0100
0000
0001
0000
0011
0000
1000
,
0000
0000
1000
0000
0000
0000
0010
0000
0000
0100
0010
0000
0000
0000
1000
0000
,
0100
0010
0001
0100
0010
0100
0000
0010
,
1000
0100
0000
0001
0100
0001
0000
0100
,
0010
0000
0110
0000
0000
0000
0000
0001
,
0000
0000
0001
0000
0000
0000
0100
0000
0000
0010
1000
0000
0000
0000
0010
0000
,
0100
0010
1000
0100
0010
0001
0000
0100
,
0010
0100
0000
0010
1000
0010
0100
0001
,
0100
0000
1001
0000
0000
0000
0000
0010
,
0100
0010
0000
1000
0000
0001
0000
0100
,
0010
0100
0000
0001
0000
1000
0000
0010
,
1000
0100
0000
0001
1000
0001
0000
0100
,
0001
0000
0100
0000
0000
0010
1000
0000
0010
0000
0001
0000
0000
0000
0100
0000
,
0000
0000
0010
0000
0000
0100
0000
0000
1000
0000
0010
0000
0000
0000
0001
0000
,
0000
0000
0010
0000
0000
1000
0000
0000
0100
0000
0010
0000
0000
0000
1000
0000
,
0100
0000
0010
0000
0000
0001
0000
0000
0100
0000
0001
0000
0000
0000
1000
0000
,
0001
1000
0001
0100
0010
1000
0001
0000
;

//---------------dance-single - Copied from----------------
#NOTES:
     dance-single:
     Copied from:
     Challenge:
     9:
     0.547228,0.678968,0.152150,0.035800,0.165575,428.000000,411.000000,17.000000,4.000000,0.000000,0.000000,0.547228,0.678968,0.152150,0.035800,0.165575,428.000000,411.000000,17.000000,4.000000,0.000000,0.000000:
0000
0000
0000
0000
,
0000
0000
0000
0000
,
0000
0000
0000
0000
,
0000
0000
0000
0000
,
0000
0000
0000
0000
,
0000
0000
0000
0000
,
0000
0000
0000
0000
,
0000
0000
0000
0000
0000
0000
0000
1000
,
0010
0000
1000
0000
0001
0100
0000
0001
0100
0000
0010
0000
1000
0000
0001
0000
,
0100
0000
0001
0000
1000
0010
0000
1000
0010
0000
0100
0000
0000
0000
0001
0000
,
0010
0000
1000
0000
0100
0001
0000
0100
0001
0000
0010
0000
0000
0000
0010
0000
,
1000
0000
0100
0000
0010
0100
0000
0010
1000
0000
0001
0000
0100
0000
0010
0000
,
1000
0000
0001
0000
0100
0010
0000
0100
0010
0000
1000
0000
0010
0000
0100
0000
,
0001
0000
0100
0000
0010
1000
0000
0010
0100
0000
0010
0000
0001
0000
1000
0000
,
0010
0000
1000
0000
0010
0100
0000
0010
1000
0000
0100
0000
0010
0000
0100
0000
,
0001
0000
0100
0000
0010
1000
0000
0010
0100
0000
0010
0000
1000
0000
0010
0000
,
0001
0010
0100
1000
0010
0000
0100
0000
,
0001
0000
1000
0100
0010
0000
0001
0000
,
1000
0010
0100
0010
0001
0000
0100
0000
,
0020
1030
0000
0000
0010
0100
0001
0000
,
1000
0100
0000
0001
0100
0000
0010
0000
,
1000
0000
0101
0000
0010
1000
0001
0000
,
0100
0010
1000
0001
0100
0000
0010
0000
,
0100
0001
0000
0000
0000
0100
0010
0000
,
1000
0010
1000
0001
0100
0010
0000
1000
,
0000
0001
0100
0000
0001
1000
0100
0000
,
0010
0001
0100
0010
1000
0010
0100
0000
,
0001
1000
1000
0000
0001
0100
0010
0000
,
1000
0100
0001
0100
1000
0010
0000
0100
,
0001
0100
0010
0000
1000
0100
0010
0001
,
0100
0010
1000
0010
0000
1000
0100
0000
,
0010
0000
0001
0000
0100
0010
0000
1000
,
0000
0000
1001
0000
0000
0000
0010
0000
1000
0010
0000
0000
0100
0000
0001
0000
,
0100
1000
0010
1000
0001
0100
0000
0010
,
1000
0010
0001
0100
0001
1000
0010
0100
,
1000
0000
1001
0000
0000
0000
0000
0001
,
0000
0000
0110
0000
0000
0000
1000
0000
0010
0100
0000
0000
0000
0000
0001
0000
,
0010
0100
1000
0010
0100
0010
0000
1000
,
0100
0001
0100
1000
0000
0001
0010
0100
,
1000
0000
1100
0000
0000
0000
0000
0010
,
0000
0000
0001
0000
0000
0000
0100
0000
0000
1000
0010
0000
0100
0000
0001
0000
,
0010
0000
0100
0000
1000
0000
0001
0000
0100
0000
0010
0000
0000
0000
0100
0001
,
0100
0001
0100
0000
0010
1000
0010
1000
0010
1000
0010
0000
0000
0000
0100
0000
,
0001
0010
0100
1000
0010
0100
0000
0010
,
0000
0000
1000
0000
0000
0000
0001
0000
0000
0100
0010
0000
0100
0000
0010
0000
,
1000
0000
0001
0000
1000
0000
0010
0000
0100
0000
0001
0000
0000
0000
0100
0001
,
0100
0001
0100
0000
0010
1000
0010
1000
0010
1000
0010
0000
0000
0000
1000
0000
,
0100
0010
0001
0100
0010
1000
0000
0001
,
0000
0010
1000
0100
0010
0001
0001
0100
,
0000
1000
0100
0010
0001
0001
0000
0100
,
0000
0001
0010
0100
1000
0010
0000
0100
,
0000
0001
0010
0100
1000
0010
0000
1000
,
0000
0001
0000
0110
0000
0110
0000
0001
,
0000
1000
0000
0110
0000
0110
0000
1000
,
0010
0001
0000
0101
0000
1010
0000
0001
,
0010
0100
1000
0010
1000
0001
0000
0100
,
0000
0000
0010
0000
0000
0000
1000
0000
0000
0010
1000
0000
0000
0000
0001
0000
,
0100
0010
0100
0001
1000
0010
0000
0100
,
0010
1000
0001
0010
0000
0001
0100
1000
,
0002
0000
0103
0000
0000
0000
0000
0010
,
0000
0000
0010
0000
0000
0000
1000
0000
0000
0010
0100
0000
0000
0000
0001
0000
,
0010
0100
1000
0010
0100
0010
0000
1000
,
0010
0100
0001
0010
1000
0100
0010
0001
,
0100
0000
1001
0000
0000
0000
0000
0001
,
0100
0001
0000
1000
0100
0010
0000
1000
,
0010
1000
0000
0110
0000
0101
0000
0010
,
1000
0100
0000
0110
0000
1010
0000
0100
,
0000
0000
0001
0000
0000
0010
0001
0000
0100
0000
0010
0000
0000
0000
0100
0000
,
0001
0000
0100
0000
0000
0010
1000
0000
0010
0000
0100
0000
0000
0000
0010
0000
,
1000
0000
0010
0000
0000
0100
0001
0000
0100
0000
0010
0000
0100
0000
0001
0000
,
0000
0000
1000
0000
0000
0010
0100
0000
0010
0000
0100
0000
0000
0000
0001
0000
,
0000
0000
1000
0000
0000
0000
0000
0001
0100
0000
0001
0000
2002
0000
0000
0000
,
0000
3003
0000
0000
;

//---------------dance-single - Copied from----------------
#NOTES:
     dance-single:
     Copied from:
     Medium:
     6:
     0.356721,0.448730,0.089500,0.017900,0.008950,279.000000,269.000000,10.000000,2.000000,0.000000,0.000000,0.356721,0.448730,0.089500,0.017900,0.008950,279.000000,269.000000,10.000000,2.000000,0.000000,0.000000:
0000
0000
0000
0000
,
0000
0000
0000
0000
,
0000
0000
0000
0000
,
0000
0000
0000
0000
,
0000
0000
0000
0000
,
0000
0000
0000
0000
,
0000
0000
0000
0000
,
0000
0000
0000
0000
0000
0000
0000
1000
,
0000
0001
0000
0100
0000
0101
0000
0001
,
0000
1000
0000
0010
0000
1010
0000
0100
,
0000
0010
0000
1000
0000
1001
0000
0100
,
0000
0010
0000
0100
0000
0001
0000
0110
,
0000
1000
0000
0001
0000
1000
0000
1010
,
0000
0001
0000
1000
0000
0001
0000
0101
,
0000
0010
0000
0100
0000
0110
0000
1000
,
0000
0001
0000
1001
0000
0010
0100
0000
,
0000
0001
0000
0001
0000
0000
0100
0000
,
0010
0000
0000
0000
1000
0010
1000
0000
,
0001
0010
0000
1000
0000
0000
0010
0000
,
0200
0000
0000
0300
0001
0100
0001
0000
,
0010
1000
0000
1000
0000
0000
0010
0000
,
0100
0000
0001
0000
1000
0010
0100
0000
,
0000
0001
0000
0100
0000
0000
1000
0000
,
0010
0010
0000
0000
0000
0000
0100
0000
,
0000
0001
0000
1000
0010
1000
0000
0001
,
0010
0100
1000
0000
0010
0100
0010
0000
,
0000
1000
0000
0010
0000
0000
0100
0000
,
0001
0100
0001
0000
0000
0000
0010
0000
,
0000
1000
0000
0001
0000
0100
0000
0010
,
0000
0000
1000
0000
0000
0000
0000
0100
,
0000
0001
0000
0010
0000
0000
1000
0000
,
0001
0000
0100
0000
0010
0100
0000
0001
,
0000
0001
0000
0200
0000
0300
0000
0010
,
0000
1000
0000
0010
0000
0100
0000
0001
,
0000
0010
0000
1000
0000
0010
0100
0010
,
0000
0000
1000
0000
0000
0000
0000
0001
,
0000
0001
0000
0100
0000
0000
0000
0010
,
0000
1000
0000
0001
0000
0100
0000
0010
,
0000
1000
0000
0001
0000
0100
0000
0010
,
0100
0000
0101
0000
0000
0000
0000
1000
,
0000
0010
0000
1000
0000
0000
0001
0100
,
0000
0001
0000
0001
0000
0001
0000
1000
,
0010
1000
0000
0010
0100
0010
0000
1000
,
0000
0010
0000
0100
0000
0000
0000
0001
,
0000
0100
0000
0010
0000
0000
0000
1000
,
0010
1000
0001
0010
0100
1000
0000
0010
,
0100
0010
0000
1000
0010
1000
0000
0001
,
0000
0100
0000
0010
0000
0000
0000
1000
,
0010
1000
0000
0010
0000
0010
0000
0001
,
0100
0001
0000
0100
0000
0100
0000
0010
,
1000
0100
0000
0010
0000
0010
0000
0001
,
0100
0010
0000
1000
0100
0010
0000
0001
,
0000
0001
0000
1000
0010
1000
0000
0010
,
0000
0010
0000
0001
0100
0001
0000
0100
,
0000
0100
0000
1000
0010
1000
0000
0010
,
0000
0100
0000
0001
0000
1000
0000
0010
,
0000
0000
0100
0000
0000
0000
0010
0000
0000
0100
0000
0000
0000
0000
0001
0000
,
0000
0001
0000
0100
0010
1000
0000
0001
,
0010
0100
0000
1000
0000
1000
0000
0010
,
0000
0000
0100
0000
0000
0000
0000
0001
,
0000
0000
0001
0000
0000
0000
0100
0000
0000
0010
0000
0000
0000
0000
1000
0000
,
0000
0001
0000
0100
0000
0010
0000
1000
,
0000
0001
0100
0001
0000
0010
0000
1000
,
0100
0000
0001
0000
0000
0000
0000
1000
,
0000
0010
0000
0100
0001
0100
0000
0010
,
0000
1000
0000
0010
1000
0010
0000
0100
,
0000
0001
0000
0100
0010
1000
0000
0100
,
0010
0100
0000
0001
0000
0001
0000
1000
,
0000
1000
0000
0010
0100
0010
0000
0100
,
0000
0100
0000
0001
0010
0001
0000
1000
,
0000
1000
0000
0001
0100
0001
0000
1000
,
0000
0001
0000
0100
0000
1001
0000
0000
;
