#TITLE:Dirty Mouth;
#SUBTITLE:;
#ARTIST:Asletics;
#TITLETRANSLIT:;
#SUBTITLETRANSLIT:;
#ARTISTTRANSLIT:;
#CREDIT:SupremeX;
#BANNER:Dirty Mouth.png;
#BACKGROUND:Dirty Mouth-bg.png;
#LYRICSPATH:;
#CDTITLE:CDtitle.PNG;
#MUSIC:Dirty Mouth.ogg;
#OFFSET:-0.074;
#SAMPLESTART:54.440;
#SAMPLELENGTH:15.000;
#SELECTABLE:YES;
#BPMS:0.000=128.000;
#STOPS:48.000=1.406
,141.000=1.406
,242.000=1.406
;
#BGCHANGES:16.000=ants.avi=1.000=0=0=1,
28.750=bottle1.avi=1.000=0=0=1,
32.000=6 Disco.avi=1.000=0=0=1,
48.000=Dirty Mouth-bg.png=1.000=0=0=1,
49.000=circle1.avi=1.000=0=0=1,
65.000=disco3.avi=1.000=0=0=1,
81.000=numbers1.avi=1.000=0=0=1,
85.000=numbers3.avi=1.000=0=0=1,
93.000=numbers1.avi=1.000=0=0=1,
97.000=dokuro.avi=1.000=0=0=1,
113.000=cards7.avi=1.000=0=0=1,
125.500=ants.avi=1.000=0=0=1,
129.000=lightning1.avi=1.000=0=0=1,
141.000=Dirty Mouth-bg.png=1.000=0=0=1,
142.000=disco3.avi=1.000=0=0=1,
158.000=6 Disco.avi=1.000=0=0=1,
174.000=lightning1.avi=1.000=0=0=1,
190.000=circle1.avi=1.000=0=0=1,
202.000=ddr12.avi=1.000=0=0=1,
206.000=numbers3.avi=1.000=0=0=1,
214.000=bottle1.avi=1.000=0=0=1,
222.000=numbers1.avi=1.000=0=0=1,
230.000=numbers3.avi=1.000=0=0=1,
238.000=numbers2.avi=1.000=0=0=1,
242.000=Dirty Mouth-bg.png=1.000=0=0=1,
99999=-nosongbg-=1.000=0=0=0 // don't automatically add -songbackground-
;

//---------------dance-single - ----------------
#NOTES:
     dance-single:
     :
     Beginner:
     1:
     0.059,0.100,0.000,0.000,0.000:
0000
0000
0000
0000
,
0000
0000
0000
0000
,
0000
0000
0000
0000
,
0000
0000
0000
0000
,
0001
0000
0000
0000
,
0000
0000
0000
0000
,
0001
0000
0000
0000
,
0000
0000
0000
0000
,
1000
0000
0000
0000
,
0000
0000
0000
0000
,
1000
0000
0000
0000
,
0000
0000
0000
0000
,
1000
0000
0000
0000
,
0000
0010
0000
0000
,
0000
0010
0000
0000
,
0000
0100
0000
0000
,
0100
0000
0000
0000
,
0001
0000
0000
0000
,
0001
0000
0000
0000
,
0001
0000
0000
0000
,
0001
0000
0000
0000
,
0000
1000
0000
0000
,
0000
1000
0000
0000
,
0000
1000
0000
0000
,
0000
0010
0000
0000
,
0000
0010
0000
0000
,
0000
0010
0000
0000
,
0000
0010
0000
0000
,
0000
0100
0000
0000
,
0000
0100
0000
0000
,
0000
0100
0000
0000
,
0000
0000
0000
0000
,
0000
0001
0000
0000
,
0000
0001
0000
0000
,
0000
0001
0000
0000
,
0000
0000
1000
0000
,
0000
0000
0000
0000
,
0000
0000
0010
0000
,
0000
0000
0000
0000
,
0000
0000
1000
0000
,
0000
0000
0000
0000
,
0000
0000
0010
0000
,
0000
0000
0000
0000
,
0000
0000
0100
0000
,
0000
0000
0100
0000
,
0000
0000
0100
0000
,
0000
0000
0100
0000
,
0000
0000
0001
0000
,
0000
0000
0001
0000
,
0000
0000
0001
0000
,
0000
0001
0000
0000
,
0000
0000
1000
0000
,
0100
0000
0000
0000
,
0010
0000
0001
0000
,
0100
0000
0000
0000
,
0000
0000
0010
0000
,
1000
0000
0000
0000
,
0010
0000
0100
0000
,
0000
0000
0001
0000
,
0000
0000
0100
0000
;

//---------------dance-single - ----------------
#NOTES:
     dance-single:
     :
     Easy:
     3:
     0.246,0.279,0.117,0.008,0.000:
0000
0000
0000
0000
,
0000
0000
0000
0000
,
0000
0000
0000
0000
,
0000
0000
0000
0000
,
0000
0000
0001
0000
0000
1000
0010
0000
,
0000
0000
0100
0000
0000
0001
0010
0000
,
0100
0000
1000
0000
0000
0010
0100
0000
,
0000
0000
0000
0000
,
1000
1000
0010
0010
,
0100
0100
0001
0001
,
1000
1000
0010
0010
,
0100
0100
0001
0001
,
0000
0000
1000
0000
0010
0000
0000
0100
,
0100
0000
0001
0000
0010
0000
0000
1000
,
1000
0000
0010
0000
0100
0000
0000
0001
,
0001
1000
0010
1000
,
0010
0100
0001
1000
,
0010
0100
0001
1000
,
0010
0100
0001
1000
,
0010
0100
0001
0010
,
0100
1000
0000
0010
,
0000
0100
0000
0001
,
0000
1000
0000
0010
,
0000
0100
0000
0001
,
0000
1000
0100
1000
,
0010
0100
0010
0100
,
0001
0010
0001
1000
,
0100
0010
0001
1000
,
0010
0100
0000
0001
,
0101
1000
0000
0010
,
1010
0001
0000
0100
,
0110
0000
0001
0010
,
0100
1000
0000
0110
,
0110
0001
0000
0110
,
0110
1000
0000
0110
,
0110
0000
0001
1000
,
0010
0100
0000
0001
,
1000
0010
0110
0000
,
1000
0010
0100
0001
,
1000
0001
1001
0000
,
0010
0100
0000
1000
,
0001
0100
0101
0000
,
0010
1000
0000
0001
,
0100
1010
0000
0001
,
0000
1000
1000
0000
0000
0000
0010
0000
,
0000
0100
0100
0000
0000
0000
0010
0000
,
0000
1000
1000
0000
0000
0000
0100
0000
,
0000
0001
0001
0000
0000
0000
0010
0000
,
1000
0010
0100
0001
,
1000
0010
0100
0001
,
1000
0010
0200
0000
,
0000
0300
0001
0001
,
1000
1000
0010
0100
,
0010
0100
0001
0001
,
1000
1000
0010
0100
,
0010
0100
0001
0010
,
0100
1000
0010
0010
,
0100
0100
0001
0010
,
0100
1000
0010
0100
,
0001
1000
0100
0010
,
0001
1000
1001
0000
;

//---------------dance-single - ----------------
#NOTES:
     dance-single:
     :
     Medium:
     7:
     0.380,0.381,0.017,0.134,0.000:
0000
0000
0000
0000
,
0000
0000
0000
0000
,
0000
0000
0000
0000
,
0000
0000
0000
0000
,
0010
0000
0100
0000
0001
1000
1000
0000
,
0010
0000
1000
0000
0100
0001
0001
0000
,
0010
0000
0100
0000
0001
1000
1000
0200
,
0000
0010
0010
0310
,
0001
0010
0100
1000
0010
0000
0100
0000
,
0001
0000
1000
0010
0100
0000
0100
0000
,
0001
0000
0010
0100
1000
0000
1000
0000
,
0010
0000
0100
0001
0010
0000
1000
0000
,
1001
0000
0001
0000
0100
0010
0100
0000
,
0100
0000
0010
0000
1000
0100
1000
0000
,
1000
0000
0010
0000
0100
0001
0100
0000
,
0100
0000
0010
0000
1000
0010
1000
0000
,
1000
0000
0001
0000
0001
0010
0100
0000
,
1000
0000
1000
0000
1000
0100
0010
0000
,
0001
0000
0001
0000
0100
0010
1000
0000
,
1000
0000
0001
0000
0010
0100
0001
0000
,
0110
0000
0002
0000
0000
0000
0100
0100
,
0103
0001
2000
0000
0000
0000
0010
0010
,
3010
1000
0200
0000
0000
0000
0010
0010
,
0310
0100
0002
0000
0000
0000
0100
0100
,
0103
0000
0010
0000
1000
0000
0010
0100
,
0001
0000
1000
0010
0100
0000
0001
1000
,
0200
0000
0310
0000
0001
0000
1000
0100
,
1000
0000
0010
0100
0001
0100
0010
1000
,
0200
0000
0310
0000
0001
0000
1000
0100
,
1000
0000
0010
0000
0001
0000
0100
0010
,
1000
0000
0010
0000
0100
0000
0001
0010
,
0001
0000
0000
1000
0100
0010
0001
0100
,
0010
0000
1000
0000
0100
0000
0010
0001
,
0100
0000
0010
0000
1000
0000
0001
0100
,
0010
0000
1000
0100
0010
0001
0100
0010
,
0100
0000
0000
0000
0001
0010
0001
1000
,
0100
0000
0100
0000
0010
0001
0010
0100
,
1000
0000
1000
0000
0010
0100
0100
0001
,
0010
0000
0010
0000
0100
1000
0100
0010
,
0001
0000
0001
0000
1000
0100
1000
0010
,
0100
0000
0100
0000
0000
0010
0001
0100
,
0010
0000
1000
0000
0001
0010
0100
0000
,
1000
0000
1000
0000
0000
0100
0010
0000
,
0001
1000
0100
0000
0020
0000
0031
0000
,
0000
0010
0200
0000
2300
0000
3010
0000
,
0000
0100
0002
0000
2003
0000
3010
0000
,
0000
0100
0020
0000
0230
0000
0301
0000
,
0000
0010
0200
0000
1300
0010
1000
0000
,
0001
0100
0100
0000
0010
1000
1000
0000
,
0100
0010
0010
0000
0001
0100
0100
0001
,
0010
0010
0100
1000
1000
0010
0100
1000
,
0100
0010
0001
0000
0100
0000
0010
1000
,
0100
1000
0010
0000
0100
0000
0001
0000
,
1000
0010
1000
0000
0001
0000
0100
0000
,
0010
1000
0100
1000
0010
0000
0100
0000
,
0001
0010
0001
0000
1000
0000
1000
0001
,
0100
0001
0010
0000
0100
0000
1000
0000
,
0001
0100
0010
0000
1000
0000
0001
0000
,
0100
0010
0100
0001
,
1000
0000
0001
0000
0100
0010
1000
0010
,
0100
0000
0001
0000
1000
0000
0001
0000
0200
0300
0000
0000
0000
0000
0000
0000
;

//---------------dance-single - ----------------
#NOTES:
     dance-single:
     :
     Hard:
     9:
     0.539,0.610,0.084,0.117,0.235: // measure 1
0000
0000
0000
0000
,  // measure 2
0000
0000
0000
0000
,  // measure 3
0000
0000
0000
0000
,  // measure 4
0000
0000
0000
0000
,  // measure 5
1000
0000
0010
0000
1000
0000
0000
0100
0000
0000
0001
0000
0100
0000
0001
0000
,  // measure 6
0010
0000
1000
0000
0100
0000
0000
0001
0000
0000
0100
0000
0001
0000
0100
0000
,  // measure 7
0010
0000
1000
0000
0010
0000
0000
0100
0000
0000
0001
0000
1000
0000
0010
0000
,  // measure 8
0000
0000
0000
0200
0010
0000
0000
0000
0010
0000
0000
0000
0310
0000
0000
0000
,  // measure 9
0110
0000
0000
0000
0001
0000
0100
0010
0000
0100
0010
0000
0100
0000
0000
0000
,  // measure 10
0001
0000
0000
0000
1000
0100
0000
0100
0000
0000
1000
0010
0000
0000
0100
0000
,  // measure 11
0010
0000
0000
0000
1000
0000
0001
0100
0000
0100
0001
0000
1000
0000
0000
0000
,  // measure 12
0010
0000
0000
0000
1000
0100
0000
1000
0000
0000
0010
0100
0000
0000
0010
0000
,  // measure 13
2000
3000
0000
0000
1100
0000
0000
0010
0100
0000
0010
0000
1000
0000
0000
0000
,  // measure 14
1010
0000
0000
0000
0011
0000
0000
0100
0010
0000
0100
0000
0001
0000
0000
0000
,  // measure 15
0011
0000
0000
0000
0110
0000
0000
1000
0100
0000
1000
0000
0010
0000
0000
0000
,  // measure 16
0110
0000
0100
0001
0010
0100
1000
0010
,  // measure 17
1000
0000
0010
0100
0010
0100
0001
1000
,  // measure 18
0010
1000
0001
0001
0010
0100
1000
0100
,  // measure 19
0010
0001
0100
0010
1000
0100
1000
0010
,  // measure 20
0010
0000
0100
0001
0010
0100
1000
0100
,  // measure 21
0100
0000
0020
0000
0031
0100
0010
0100
,  // measure 22
0001
0000
0000
1000
0001
0000
0100
0000
0010
0000
0000
0000
0200
0000
0302
0000
,  // measure 23
1003
0000
0000
0100
0010
0000
0001
0000
0100
0000
0010
0000
1000
0000
0100
0000
,  // measure 24
1000
0000
0000
0010
0100
0000
0010
0000
1000
0000
0100
0000
0010
0000
0001
0000
,  // measure 25
1000
0000
0010
0010
0010
1000
1000
0001
,  // measure 26
0010
0000
0100
0100
0100
1000
0001
0001
,  // measure 27
0001
0000
0100
0010
0100
0001
0010
0001
,  // measure 28
0101
0000
1000
0100
1000
0010
0100
0010
,  // measure 29
1010
0000
0001
0001
0100
0010
1000
0010
,  // measure 30
0100
0000
1000
1000
0010
0100
0001
0100
,  // measure 31
0010
0000
0001
0001
0100
0010
1000
0010
,  // measure 32
0100
0000
0000
0000
0000
0000
0001
0000
1000
0000
0010
1000
0010
0000
0100
0000
,  // measure 33
0100
0000
0001
0001
1000
0100
0010
0001
,  // measure 34
0010
0000
1000
1000
0001
0010
0100
1000
,  // measure 35
0100
0000
0001
0001
0100
0010
1000
0010
,  // measure 36
0100
0000
0001
0000
2000
3000
0000
0000
0100
0000
0010
0000
0001
0000
0100
0010
,  // measure 37
0000
1000
0010
0000
0100
0000
0000
0000
0001
0000
0100
0000
0010
0000
1000
0100
,  // measure 38
0000
0010
0100
0000
0010
0000
0100
0000
0001
0000
0010
0000
0100
0000
1000
0010
,  // measure 39
0000
0100
0010
0000
0100
0000
0000
0000
0001
0000
1000
0000
0100
0000
0010
0001
,  // measure 40
0000
0100
0001
0000
0100
0000
0010
0000
1000
0000
0001
0000
0100
0000
0010
0100
,  // measure 41
0000
0001
0010
0000
0001
0000
0000
0000
0100
0000
0010
0000
1000
0000
0100
1000
,  // measure 42
0000
0010
0100
0000
0001
0000
0010
0000
0001
0000
0010
0000
0100
0000
1000
0100
,  // measure 43
0000
0010
0001
0000
0100
0000
0000
0000
0010
0000
1000
0000
0010
0000
0100
0010
,  // measure 44
0000
1000
0100
0000
1000
0000
0010
0000
0200
0000
0000
0000
0301
0000
0000
0001
,  // measure 45
0000
0000
1000
0000
1000
0000
0000
0000
0020
0000
0000
0000
0130
0000
0000
0100
,  // measure 46
0010
0000
1000
0000
0100
0000
1000
0000
0002
0000
0000
0000
0103
0000
0000
0001
,  // measure 47
0100
0000
0010
0000
0010
0000
1000
0000
0100
0000
1000
0000
0010
0000
0000
0100
,  // measure 48
0010
0100
0001
0000
0010
0100
0010
0000
,  // measure 49
1000
0010
1000
0000
0010
0100
0010
0000
,  // measure 50
0100
0001
0100
0000
0001
1000
1000
0010
,  // measure 51
0100
0100
0001
0010
0001
0100
0010
1000
,  // measure 52
0100
0000
0010
0000
0001
0000
0000
0000
0100
0010
0100
0010
0100
0000
0010
0000
,  // measure 53
1000
0010
1000
0010
1000
0000
0100
0000
0010
0000
0001
0000
1000
0000
0001
0000
,  // measure 54
1000
0010
0100
0010
0100
0000
0010
0000
0100
0001
0100
0001
0100
0000
0010
1000
,  // measure 55
0010
1000
0010
0000
0100
0000
0001
0000
0100
0000
1000
0000
0100
0000
0010
0000
,  // measure 56
0001
0100
0001
1000
0020
0100
0130
2000
,  // measure 57
0001
3001
0100
0010
0100
0001
1000
0001
,  // measure 58
0100
0010
0100
0000
0010
0000
0010
0000
1000
0000
0100
1000
0100
0000
0010
0000
,  // measure 59
0001
0100
0001
0000
1000
0010
0100
0010
0100
0000
0001
0000
0010
0000
0100
0000
,  // measure 60
2000
0010
3010
0100
0100
0001
0001
1000
,  // measure 61
1000
0000
0010
0000
0100
0000
0001
0000
2002
3003
0000
0000
0000
0000
0000
0000
;
