#TITLE:Designed World;
#SUBTITLE:;
#ARTIST:Alinut;
#TITLETRANSLIT:;
#SUBTITLETRANSLIT:;
#ARTISTTRANSLIT:;
#GENRE:;
#CREDIT:SupremeX;
#BANNER:DesignedWorld.png;
#BACKGROUND:DesignedWorld-bg.png;
#LYRICSPATH:;
#CDTITLE:CDTitle.png;
#MUSIC:Designed World.ogg;
#OFFSET:-0.046066;
#SAMPLESTART:54.410000;
#SAMPLELENGTH:12.000000;
#SELECTABLE:YES;
#BPMS:0.000000=150.000000
;
#STOPS:
;
#BGCHANGES:24.000=mirrorb_a.avi=1.000=0=0=1=====,
40.000=spark1.avi=1.000=0=0=1=====,
68.000=Designed World-bg.png=1.000=0=0=1=====,
72.000=nyev2piano.avi=1.000=0=0=1=====,
104.000=bluey1a.avi=1.000=0=0=1=====,
112.000=space2r.avi=1.000=0=0=1=====,
120.000=bluey1a.avi=1.000=0=0=1=====,
128.000=space2r.avi=1.000=0=0=1=====,
136.000=space1.avi=1.000=0=0=1=====,
152.000=nyev2piano.avi=1.000=0=0=1=====,
167.000=Designed World-bg.png=1.000=0=0=1=====,
169.000=bluey1a.avi=1.000=0=0=1=====,
184.000=spark1.avi=1.000=0=0=1=====,
200.000=mirrorb_a.avi=1.000=0=0=1=====,
215.500=Designed World-bg.png=1.000=0=0=1=====,
99999=-nosongbg-=1.000=0=0=0 // don't automatically add -songbackground-
;
#KEYSOUNDS:;
#ATTACKS:;

//---------------dance-single - Copied from----------------
#NOTES:
     dance-single:
     Copied from:
     Challenge:
     9:
     0.490351,0.987456,0.011108,0.311032,0.138853,309.000000,308.000000,1.000000,28.000000,0.000000,0.000000,0.490351,0.987456,0.011108,0.311032,0.138853,309.000000,308.000000,1.000000,28.000000,0.000000,0.000000:
0000
0000
0000
0000
,
0000
0000
0000
0000
,
0001
0100
0001
0100
0000
0010
1000
0010
,
0000
0100
0001
0100
0000
0001
0010
0100
,
1000
0010
1000
0010
0000
0100
0001
0100
,
0000
0001
0010
0100
1000
0010
0100
0001
,
1000
0010
1000
0001
0000
0100
0010
1000
,
0010
0100
0001
1000
0000
0010
1000
0010
,
0100
1000
0010
1000
0000
0001
0100
0001
,
0000
0000
1000
0000
0010
0000
0100
0000
0001
1000
0001
1000
0001
1000
0001
0000
,
0200
0010
0010
0310
,
0002
0100
0100
0103
,
1000
0020
0100
0000
0100
0000
0130
0002
,
1000
1000
1000
1003
,
0020
0100
0100
0130
,
2000
0010
0010
3010
,
0200
0001
0001
0301
,
0010
0000
1000
0001
0000
0100
0001
0000
,
0002
0100
0100
0103
,
0020
1000
1000
1030
,
2000
0001
0001
3001
,
0200
0001
0001
0301
,
0010
0100
0010
0100
0001
1000
0001
0010
,
0100
1000
0010
1000
0100
0010
0001
0100
,
0000
0010
1000
0010
1000
0010
1000
0000
0001
0100
0001
0100
0001
0100
0001
0000
,
1000
0000
0010
0100
0000
0001
1000
0000
,
0020
0100
0100
0130
,
0002
0100
0100
0103
,
0020
1000
1000
1030
,
0200
0001
0001
0301
,
2000
0010
0010
3010
,
0200
0001
0001
0301
,
0020
1000
1000
1030
,
0001
0100
0001
1000
,
0001
0100
0010
0100
0001
1000
0010
0000
,
1000
0010
0100
0010
1000
0001
0100
0000
,
0001
0010
0100
1000
0010
1000
0001
0000
,
0100
0001
0100
0001
1000
0010
1000
0000
,
0020
0000
0100
0000
0100
0000
0130
0001
,
2000
0000
0001
0000
0001
0000
3001
0010
,
0200
0001
0001
0301
,
0010
0000
1000
0010
0000
0100
0001
0000
,
0002
0100
1000
0103
,
2000
0010
0001
3010
,
0100
0020
0100
0000
0100
0000
0130
0002
,
1000
1000
1000
1003
,
0010
1000
0100
0010
0001
0100
0010
0000
,
1000
0100
0010
1000
0010
0100
0001
0000
,
1000
0100
1000
0100
1000
0100
0010
0100
0010
0100
0010
0100
0010
0001
0010
0001
,
0010
0001
0010
0001
0010
0100
0010
0100
0010
0100
0010
0100
0010
1000
0010
1000
,
0020
0000
1000
1000
0000
0000
1000
1030
,
0200
0000
0001
0001
0000
0000
0001
0301
,
0020
0000
1000
1000
0000
0000
1000
1030
,
0000
0100
0010
1000
0001
0100
0001
1001
;

//---------------dance-single - ----------------
#NOTES:
     dance-single:
     :
     Beginner:
     2:
     0.126952,0.178288,0.088866,0.000000,0.000000,80.000000,72.000000,8.000000,0.000000,0.000000,0.000000,0.126952,0.178288,0.088866,0.000000,0.000000,80.000000,72.000000,8.000000,0.000000,0.000000,0.000000:
0000
0000
0000
0000
,
0000
0000
0000
0000
,
1000
0000
0000
0000
,
0010
0000
0000
0000
,
0001
0000
0000
0000
,
0000
0000
0000
0000
,
1000
0000
0000
0000
,
0100
0000
0000
0000
,
0010
0000
0000
0000
,
0001
0000
0000
0000
,
1001
0000
0000
0000
,
1100
0000
0000
0000
,
0010
0010
0000
0000
0000
0000
1000
1000
,
0000
0000
0000
0000
,
0001
0000
0000
0000
,
0100
0000
0000
0000
,
1000
0000
0000
0000
,
0010
0000
0000
0010
0000
0000
0000
0000
,
0100
0000
0000
0000
,
1000
0000
0000
0000
,
0001
0000
0000
0000
,
0100
0000
0000
0000
,
1000
0000
0000
0000
,
0010
0000
0000
0000
,
0001
0000
0000
0000
,
1000
0000
0000
1000
0000
0000
0000
0000
,
0010
0000
0100
0000
,
0010
0000
1000
0000
,
0001
0000
1000
0000
,
0010
0000
0100
0000
,
0001
0000
1000
0000
,
0001
0000
1000
0000
,
0001
0000
1000
0000
,
0100
0000
0010
0000
,
0100
0000
0010
0000
,
0100
0000
0001
0000
,
0100
0000
0001
0000
,
0100
0000
0001
0000
,
1000
0000
0010
0000
,
1000
0000
0010
0000
,
1000
0000
0000
0000
,
1001
0000
0000
0000
,
0110
0000
0000
0000
,
1100
0000
0000
0000
,
0011
0000
0000
0000
,
0000
0000
0000
0000
,
1000
0000
1000
0000
,
0001
0000
0001
0000
,
1000
0000
0001
0000
,
0100
0000
0010
0000
,
1001
0000
0000
0000
,
0010
0000
0000
0000
,
0100
0000
0000
0000
,
0000
0000
1001
0000
;

//---------------dance-single - ----------------
#NOTES:
     dance-single:
     :
     Easy:
     3:
     0.285641,0.299923,0.111083,0.033325,0.000000,180.000000,170.000000,10.000000,3.000000,0.000000,0.000000,0.285641,0.299923,0.111083,0.033325,0.000000,180.000000,170.000000,10.000000,3.000000,0.000000,0.000000:
0000
0000
0000
0000
,
0000
0000
0000
0000
,
1000
0000
0010
0000
,
0001
0000
1000
0000
,
0001
0000
0100
0000
,
0000
1000
1000
0010
,
0000
0100
0000
0001
,
0000
0010
0000
1000
,
0000
0100
0000
0001
,
0000
0010
0010
1000
,
1100
0000
0010
0010
,
0011
0000
0100
0100
,
1100
0000
0010
0010
,
0100
0010
0100
0010
,
1100
0000
0010
0010
,
0011
0000
0100
0100
,
1100
0000
0010
0000
,
0001
0000
1000
0010
0000
1000
0000
0000
,
0001
0100
0010
0100
,
1000
0010
0100
0001
,
1000
0010
0100
0001
,
0100
0010
1000
0001
,
0100
0001
1000
0010
,
0100
0001
1000
0010
,
0100
0100
0010
0010
,
2000
0000
0000
3000
,
0001
0100
0010
0010
,
1000
0010
0100
0100
,
0001
1000
0010
0010
,
0100
0001
0010
0010
,
1000
0001
0100
0100
,
0001
0010
1000
1000
,
0100
0010
0001
0001
,
0010
0100
1000
1000
,
0001
1000
0001
0001
,
1000
0001
1000
1000
,
0010
0100
0010
0010
,
0100
0010
0100
0100
,
0001
0100
0001
0001
,
1000
0010
1000
1000
,
0010
0100
0001
0001
,
1000
0000
0000
0001
0000
0000
1000
0000
,
0010
0100
0010
0100
,
0001
1000
0001
1000
,
0020
0000
0000
0000
0130
0000
1000
1000
,
0000
0001
0100
0001
,
1000
1000
0010
0010
,
0100
0100
0001
0001
,
1000
0010
1000
0010
,
0200
0000
0000
0300
,
1001
0000
0000
0000
,
1100
0000
0000
0000
,
0110
0000
0000
0000
,
0000
0001
0010
0100
,
1001
0000
0000
0000
;

//---------------dance-single - Copied from----------------
#NOTES:
     dance-single:
     Copied from:
     Medium:
     5:
     0.317379,0.388095,0.022217,0.077758,0.000000,200.000000,198.000000,2.000000,7.000000,0.000000,0.000000,0.317379,0.388095,0.022217,0.077758,0.000000,200.000000,198.000000,2.000000,7.000000,0.000000,0.000000:
0000
0000
0000
0000
,
0000
0000
0000
0000
,
1000
0000
0000
0000
,
0010
0000
0000
0000
,
0100
0000
0000
0000
,
0001
1000
0001
0100
,
0010
0000
0000
0000
,
1000
0000
0000
0000
,
0001
0000
0000
0000
,
0100
1000
0010
0100
,
0002
0000
0000
0003
,
2000
0000
0000
0000
0000
3000
0000
0000
,
0010
0010
0000
0000
0000
0000
0100
0100
,
0000
0001
1000
0010
,
0100
0100
0100
0100
,
0010
0010
0010
0010
,
0001
0001
0001
0001
,
1000
0000
0001
0100
0000
0001
1000
0000
,
0010
0000
0100
0000
0001
1000
0001
0000
,
0100
0000
1000
0000
0010
1000
0010
0000
,
0100
0000
0010
0000
0100
0001
0100
0000
,
0010
0000
0100
0000
0001
1000
0001
0000
,
1000
0001
1000
0001
,
0100
0010
1000
0010
,
0100
0001
1000
0000
0010
0100
0010
0000
,
1000
0000
0001
0001
0000
1000
1000
0000
,
0010
0100
0010
0100
,
0001
0010
0001
0100
,
0010
0100
1000
0100
,
1000
0001
0100
0010
,
1000
0001
1000
1001
,
0001
1000
0001
1001
,
0010
0100
0010
1000
,
0001
0100
0010
0001
,
2000
0010
0010
3010
,
0200
0001
0001
0301
,
0010
0010
0000
0000
0000
0000
1000
1000
,
0000
0010
0100
1000
,
0002
0100
0100
0103
,
0020
0000
1000
0000
1000
0030
0100
0000
,
0200
0010
0010
0310
,
0001
0000
1000
0001
0000
1000
0001
0000
,
0100
0000
0010
0000
0100
0010
0100
0000
,
0001
0000
0100
0000
0001
1000
0001
0000
,
1000
0000
0010
0000
1000
0010
1000
0000
,
0001
1000
0001
0100
,
0001
1000
0001
1000
,
0010
1000
0010
0100
,
0001
0100
0001
0000
0100
0001
0100
0000
,
0010
1000
0010
0000
0100
0001
0100
0000
,
0010
0010
0010
1000
0000
0000
0000
0000
,
0001
0001
0001
0100
0000
0000
0000
0000
,
1000
1000
1000
0010
0000
0000
0000
0000
,
0100
0010
1000
0001
;

//---------------dance-single - Copied from----------------
#NOTES:
     dance-single:
     Copied from:
     Hard:
     7:
     0.374507,0.478767,0.044433,0.222165,0.000000,236.000000,232.000000,4.000000,20.000000,0.000000,0.000000,0.374507,0.478767,0.044433,0.222165,0.000000,236.000000,232.000000,4.000000,20.000000,0.000000,0.000000:
0000
0000
0000
0000
,
0000
0000
0000
0000
,
2000
0000
0000
3000
0002
0000
0000
0003
,
0200
0000
0000
0300
0020
0000
0000
0030
,
2000
0000
0000
3000
0002
0000
0000
0003
,
0000
1000
0001
0100
,
0020
0000
0000
0000
0000
0000
0000
0030
,
2000
0000
0000
0000
0000
0000
0000
3000
,
0002
0000
0000
0000
0000
0000
0000
0003
,
0000
1000
0010
0100
,
2000
0010
0010
3010
,
0002
0100
0100
0103
,
0010
0010
0000
1000
1000
0000
0001
0001
,
0000
0100
0100
0000
0010
0000
1000
0000
,
0200
0010
0010
0310
,
0002
0100
0100
0103
,
0020
1000
1000
1030
,
0100
0000
0001
0100
0000
0010
1000
0000
,
0100
0000
0001
0000
1000
0010
0100
0010
,
1000
0000
0001
0000
0100
0010
1000
0010
,
0100
0000
0001
0000
1000
0010
0100
0010
,
0100
0000
0001
0000
1000
0010
0100
0001
,
0100
0000
0010
0000
1000
0010
0100
0010
,
1000
0000
0001
0000
0100
0001
0100
0010
,
1000
0000
0001
0000
1000
0010
0100
0000
,
0001
0000
1000
0010
0000
0100
0001
0000
,
1000
0010
0100
0010
0100
0001
1000
0000
,
0001
0100
0010
0100
0010
1000
0001
0000
,
0100
0010
0100
0010
1000
0001
0100
0000
,
0010
0100
0001
0100
0010
1000
0010
0000
,
0100
0001
0010
0000
1000
0010
0100
0000
,
0001
0100
0001
0000
1000
0010
1000
0000
,
0001
0100
0010
0000
1000
0010
0100
0000
,
0002
0100
0103
0001
,
2000
0010
0010
3010
,
0200
0001
0001
0301
,
0010
0010
0000
1000
1000
0000
0001
0001
,
0000
0100
0100
0000
0001
0000
1000
0000
,
0200
0010
0010
0310
,
2000
0001
0001
3001
,
0020
0100
0100
0130
,
0001
0000
1000
0010
0000
0100
0001
0000
,
0100
0101
0010
0010
,
1000
1000
0001
0001
,
0100
0100
0010
1000
,
0001
0010
0100
1000
,
0001
1000
0001
1000
,
0001
0100
0010
0000
0001
0100
0001
0000
,
1000
0010
0100
0001
0010
0100
1000
0000
,
0010
0100
0001
1000
0010
0100
0001
0000
,
1001
0000
0000
0000
,
1100
0000
0000
0000
,
0011
0000
1000
0001
,
0100
0000
0010
0000
1000
0001
1000
0001
;
