#TITLE:DOESN'T REALLY MATTER;
#SUBTITLE:;
#ARTIST:ANGELICA;
#TITLETRANSLIT:;
#SUBTITLETRANSLIT:;
#ARTISTTRANSLIT:;
#GENRE:;
#CREDIT:SupremeX;
#BANNER:DOESN'T REALLY MATTER.png;
#BACKGROUND:DOESN'T REALLY MATTER-bg.png;
#LYRICSPATH:;
#CDTITLE:CDTitle.png;
#MUSIC:DOESN'T REALLY MATTER.ogg;
#OFFSET:0.038177;
#SAMPLESTART:59.810001;
#SAMPLELENGTH:12.000000;
#SELECTABLE:YES;
#BPMS:0.000000=162.000000
;
#STOPS:
;
#BGCHANGES:33.500=heart10.avi=1.000=0=0=1=====,
42.500=heart11a.avi=1.000=0=0=1=====,
50.500=heart10.avi=1.000=0=0=1=====,
62.500=heart12.avi=1.000=0=0=1=====,
78.500=helix1.avi=1.000=0=0=1=====,
94.500=heart12.avi=1.000=0=0=1=====,
110.500=helix1.avi=1.000=0=0=1=====,
129.500=jewelry2.avi=1.000=0=0=1=====,
137.500=heart11a.avi=1.000=0=0=1=====,
145.500=milk1.avi=1.000=0=0=1=====,
161.500=kaliedoscope8.avi=1.000=0=0=1=====,
177.500=heart6.avi=1.000=0=0=1=====,
193.500=kaliedoscope8.avi=1.000=0=0=1=====,
209.500=heart6.avi=1.000=0=0=1=====,
225.500=jewelry2.avi=1.000=0=0=1=====,
241.500=milk1.avi=1.000=0=0=1=====,
253.000=DOESN'T REALLY MATTER-bg.png=1.000=0=0=1=====,
257.500=heart10.avi=1.000=0=0=1=====,
274.500=helix1.avi=1.000=0=0=1=====,
289.500=heart10.avi=1.000=0=0=1=====,
305.000=helix1.avi=1.000=0=0=1=====,
313.500=heart11a.avi=1.000=0=0=1=====,
321.500=DOESN'T REALLY MATTER-bg.png=1.000=0=0=1=====,
99999=-nosongbg-=1.000=0=0=0 // don't automatically add -songbackground-
;
#KEYSOUNDS:;
#ATTACKS:;

//---------------dance-single - ----------------
#NOTES:
     dance-single:
     :
     Hard:
     8:
     0.469402,0.562614,0.172938,0.032941,0.000000,399.000000,378.000000,21.000000,4.000000,0.000000,0.000000,0.469402,0.562614,0.172938,0.032941,0.000000,399.000000,378.000000,21.000000,4.000000,0.000000,0.000000:
0000
0000
0000
0000
,
0000
0000
0000
0000
,
0000
0000
0000
0000
,
0000
0000
0000
0000
,
0000
0000
0000
0000
,
0000
0000
0000
0000
,
0000
0000
0000
1000
0000
0001
0000
0100
,
0000
0010
0000
1000
0000
0010
0100
0000
,
0001
1000
0000
0010
0100
0001
0100
0010
,
1000
0010
0100
0001
0010
0100
1000
0000
,
0100
0000
0110
0000
0000
0001
0010
0001
,
0100
0010
0100
0010
1000
0100
0010
0000
,
0001
0000
0011
0000
0000
0100
1000
0100
,
0010
0001
1000
0010
1000
0001
0010
0001
,
0100
0010
0100
1000
0000
0010
0000
0100
,
0000
0011
0000
0110
0000
1000
0001
0010
,
0100
1000
0010
0100
0000
0001
0010
0000
,
0100
1000
0000
0000
0000
0010
0100
0010
,
1000
0001
0100
0010
0000
1000
0100
0000
,
0010
0001
0000
0000
0000
0100
0000
0010
,
1000
0100
1000
0010
0000
0100
0001
0000
,
1000
0010
0000
0000
0000
0100
0000
0001
,
0010
0001
0100
0010
0000
1000
0100
0000
,
0100
0010
0000
0000
0000
0001
0010
0100
,
1000
0010
0100
0001
0000
0100
0010
0000
,
1000
0100
0000
0000
0000
0010
0001
0010
,
0100
1000
0100
0010
0000
0001
0010
0000
,
0100
1000
0000
0000
0000
0001
0100
1000
,
0100
0001
1000
0010
0000
0100
0000
0001
,
0000
1000
0000
0000
0000
0010
0000
1000
,
0010
0001
0010
1000
0000
0100
0000
0010
,
0000
0001
0000
1000
0010
1000
0001
0000
,
0000
0000
0000
0100
0000
0010
0000
1010
,
0000
1000
0000
0001
0000
0100
0000
0101
,
0000
0000
0000
0010
0000
1000
0100
0000
,
0100
0010
0000
0001
0000
0000
1000
0000
,
0000
0001
0000
0100
0010
0000
1000
0100
,
0000
0010
0001
0000
0100
0010
0000
1000
,
0010
1000
0000
0001
0000
0000
0000
1001
,
0000
0000
0000
1000
0000
0000
0000
0110
,
0000
0110
0000
0001
0010
0100
1000
0010
,
0100
0001
1000
0010
0000
0100
0100
0000
,
0000
1000
0010
1000
0000
0001
0001
0000
,
0000
0010
0100
1000
0000
0010
0010
0000
,
0000
0000
0000
1000
0010
0001
0010
1000
,
0001
0100
1000
0100
0000
0010
0001
0000
,
0000
0100
0000
0010
0000
1000
0100
0000
,
0000
0010
0000
0001
0000
0100
0010
0000
,
0000
0000
0000
1000
0010
0100
0001
1000
,
0100
1000
0010
0100
0000
0001
0010
0000
,
0000
1000
0010
1000
0000
0001
0001
0000
,
0000
0100
0010
1000
0000
0100
0100
0000
,
0000
0000
0000
0010
0001
1000
0001
0100
,
0010
1000
0001
1000
0000
0010
0100
0000
,
0000
0001
0000
1000
0000
0010
0010
0000
,
0000
0100
0000
0001
0010
0100
1000
0010
,
0100
0001
0000
1000
0000
0010
0100
0000
,
0001
2000
0000
0000
0000
0000
3000
0000
,
0010
0000
0100
0000
0001
0010
0000
0100
,
0000
1000
0010
0100
0010
1000
0000
0001
,
0000
1000
0000
0010
0000
0100
0010
0000
,
1000
0002
0000
0000
0000
0003
0000
1000
,
0000
0010
0000
0100
0000
0001
1000
0000
,
0100
0000
0220
0000
0000
0000
0000
0330
,
0000
0000
0000
0001
0010
0100
1000
0010
,
0100
0001
0010
1000
0010
0001
0100
0000
,
0010
0000
0110
0000
0000
1000
0100
0010
,
0001
0100
0010
1000
0001
0100
0001
0000
,
0010
0000
1100
0000
0000
0001
0010
0100
,
1000
0001
0100
0001
0000
1000
0010
0001
,
0010
1000
0100
0010
0000
0001
0000
0100
,
0000
0010
0000
1000
0000
0001
0100
0000
,
0010
0000
0000
1000
0100
0010
0001
0100
,
0010
1000
0010
0100
0001
1000
0010
0000
,
1100
0000
0110
0000
0000
0001
1000
0010
,
0100
0010
1000
0001
0100
0010
1000
0000
,
0110
0000
0011
0000
0000
1000
0100
1000
,
0010
0100
0001
0010
0001
1000
0010
1000
,
0001
0010
0100
1000
0000
0110
0000
1010
,
0000
0110
0000
0101
0000
0000
0000
0000
,
0000
0000
0000
1001
0000
0000
0000
0000
;

//---------------dance-single - ----------------
#NOTES:
     dance-single:
     :
     Medium:
     5:
     0.375287,0.430234,0.172938,0.024705,0.000000,319.000000,298.000000,21.000000,3.000000,0.000000,0.000000,0.375287,0.430234,0.172938,0.024705,0.000000,319.000000,298.000000,21.000000,3.000000,0.000000,0.000000:
0000
0000
0000
0000
,
0000
0000
0000
0000
,
0000
0000
0000
0000
,
0000
0000
0000
0000
,
0000
0000
0000
0000
,
0000
0000
0000
0000
,
0000
0000
0000
0001
0000
0100
0000
0001
,
0000
1000
0000
0010
0000
0100
0100
0000
,
0110
0000
0000
1000
0000
0100
0000
0010
,
0000
0001
0000
0100
0010
0100
0000
0001
,
1000
0000
1100
0000
0000
0001
0000
0010
,
0000
0001
0000
0100
0000
0010
1000
0000
,
0100
0000
1100
0000
0000
0001
0000
0010
,
0000
0100
0000
1000
0000
0100
0010
0100
,
0000
0001
0000
1000
0000
0010
0000
0100
,
0000
0011
0000
0110
0000
1000
0000
0010
,
0000
0100
0001
0001
0000
0100
0010
0000
,
1000
1000
0000
0000
0000
0100
0000
0010
,
0000
0001
1000
1000
0000
0010
0100
0000
,
0001
0001
0000
0000
0000
0100
0000
0001
,
1000
0010
1000
0001
0000
0100
0010
0000
,
1000
0100
0000
0000
0000
0001
0000
0100
,
0000
0010
1000
1000
0000
0100
0100
0000
,
0010
0010
0000
0000
0000
0001
0000
0100
,
0000
0001
1000
0100
0000
0010
0001
0000
,
0100
0010
0000
0000
0000
0001
0000
0010
,
0000
0100
0000
1000
0000
0010
0100
0000
,
0001
0010
0000
0000
0000
0100
0000
1000
,
0000
0100
0000
0010
0000
0011
0000
1000
,
0000
1010
0000
0000
0000
0100
0000
0010
,
0000
1000
0000
0001
0000
0101
0000
1000
,
0000
1100
0000
0001
1000
0001
1000
0000
,
0000
0000
0000
0100
0000
0010
0000
1010
,
0000
1000
0000
0001
0000
0100
0000
0101
,
0000
0000
0000
0010
0000
1000
0100
0000
,
0010
0100
0000
0001
0000
0000
1000
0000
,
0000
0001
0000
0100
0010
0000
1000
0100
,
0000
0010
0001
0000
0100
0010
0000
1000
,
0100
0010
0000
0001
0000
0000
0000
0110
,
0000
0000
0000
1000
0000
0000
0000
0010
,
0000
0100
0000
0001
0000
0001
0000
1000
,
0000
0001
0100
0001
0000
1000
0100
0000
,
0000
0010
0001
0010
0000
0100
1000
0000
,
0000
0010
0100
0001
0000
1000
1000
0000
,
0000
0000
0000
0010
0000
0010
0000
0100
,
0000
0001
0010
0001
0000
0100
0010
0000
,
0000
1000
0000
0100
0000
0010
0001
0000
,
0000
0010
0000
0001
0000
1000
0100
0000
,
0000
0000
0000
0010
0000
0001
0000
0010
,
0000
0100
1000
0100
0000
0000
0010
0000
,
0000
0001
0100
0001
0000
0000
1000
0000
,
0000
0010
0100
0010
0000
0000
1000
0000
,
0000
0000
0000
0001
0000
0100
0000
0010
,
0000
1000
0000
0001
0000
0100
0010
0000
,
0000
1000
0000
0100
0000
0010
0001
0000
,
0000
0100
0000
0101
0000
0001
0000
1001
,
0000
0100
0000
0110
0000
0001
0010
0000
,
0100
2000
0000
0000
0000
0000
3000
0000
,
0010
0000
0100
0000
0001
0010
0000
1000
,
0000
0010
0000
0100
0000
0001
0000
1000
,
0000
1000
0000
0010
0000
0100
0010
0000
,
1000
0200
0000
0000
0000
0300
0000
0001
,
0000
0010
0000
0001
0000
1000
0100
0000
,
0010
0000
0002
0000
0000
0000
0000
0003
,
0000
0000
0000
1000
0000
1000
0000
0010
,
0000
0100
0000
0001
0000
1000
0100
0000
,
1000
0000
0110
0000
0000
0001
0000
0100
,
0000
0001
0000
1000
0000
0010
0100
0000
,
0001
0000
0011
0000
0000
0100
0000
0010
,
0000
1000
0000
0001
0000
0100
0000
0001
,
0000
1000
0010
1000
0000
0001
0000
0100
,
0000
0001
0000
1000
0000
0010
0100
0000
,
0010
0000
0000
1000
0000
1000
0000
0100
,
0000
0010
0000
0001
0000
0100
0010
0000
,
1000
0000
1100
0000
0000
0001
0000
0001
,
0000
0010
0000
0100
0000
1000
0100
0000
,
0010
0000
0011
0000
0000
0100
0000
0100
,
0000
0010
0000
1000
0000
0001
0000
1000
,
0000
0010
0100
0010
0000
1000
0000
0001
,
0000
1000
0000
1001
0000
0000
0000
0000
,
0000
0000
0000
0110
0000
0000
0000
0000
;

//---------------dance-single - ----------------
#NOTES:
     dance-single:
     :
     Easy:
     3:
     0.288230,0.364044,0.148232,0.016470,0.000000,245.000000,227.000000,18.000000,2.000000,0.000000,0.000000,0.288230,0.364044,0.148232,0.016470,0.000000,245.000000,227.000000,18.000000,2.000000,0.000000,0.000000:
0000
0000
0000
0000
,
0000
0000
0000
0000
,
0000
0000
0000
0000
,
0000
0000
0000
0000
,
0000
0000
0000
0000
,
0000
0000
0000
0000
,
0000
0000
0000
0000
,
0000
0000
0000
0000
,
0000
0000
0000
1000
0000
0001
0000
1000
,
0000
0010
0000
0100
0000
0100
0000
0001
,
0000
1000
0000
0001
0000
0100
0000
0010
,
0000
1000
0000
0001
0000
0001
0000
0100
,
0000
0010
0000
1000
0000
0001
0000
0100
,
0000
0010
0000
1000
0000
0001
0000
1000
,
0000
0010
0000
0100
0000
0001
0000
1000
,
0000
0001
0000
1001
0000
0010
0000
0100
,
0000
0010
0000
1000
0000
0000
0001
0000
,
0000
0110
0000
0000
0000
1000
0000
0001
,
0000
0100
0000
0010
0000
0000
1000
0000
,
0000
0011
0000
0000
0000
1000
0000
0010
,
0000
0100
0000
0001
0000
0000
1000
0000
,
0000
1100
0000
0000
0000
0001
0000
0100
,
0000
0010
0000
1000
0000
0000
0100
0000
,
0000
0101
0000
0000
0000
0010
0000
1000
,
0000
0010
0000
0100
0000
0000
0001
0000
,
0000
1010
0000
0000
0000
0100
0000
0001
,
0000
1000
0000
0010
0000
0000
0110
0000
,
0000
1001
0000
0000
0000
0010
0000
0100
,
0000
0010
0000
1000
0000
1000
0000
1000
,
0000
1000
0000
0000
0000
0001
0000
0100
,
0000
0010
0000
0001
0000
0001
0000
0001
,
0000
0001
0000
1000
0000
0010
0000
0100
,
0000
0010
0000
1000
0000
0001
0000
0100
,
0000
0000
0000
0000
0000
0010
0000
1000
,
0000
0000
0000
0001
0000
0000
0100
0000
,
0000
0010
0000
0000
0000
0000
1000
0000
,
0000
0000
0000
0010
0000
0000
0100
0000
,
0000
0010
0000
0000
0100
0000
0000
0001
,
0000
1000
0000
0001
0000
0000
0000
1100
,
0000
0000
0000
0011
0000
0000
0000
1001
,
0000
0000
0000
1000
0000
0010
0000
1000
,
0000
0010
0000
0100
0000
0000
0001
0000
,
0000
1000
0000
0010
0000
0000
0000
0100
,
0000
0000
0000
0001
0000
0000
1000
0000
,
0000
0000
0000
0001
0000
0010
0000
0001
,
0000
0100
0000
0010
0000
0000
1000
0000
,
0000
0010
0000
0100
0000
0000
0001
0000
,
0000
1000
0000
0010
0000
0000
0100
0000
,
0000
0000
0000
0001
0000
1000
0000
0001
,
0000
0100
0000
0010
0000
0000
1000
0000
,
0000
0001
0000
0100
0000
0000
0010
0000
,
0000
1000
0000
0010
0000
0000
0100
0000
,
0000
0000
0000
0001
0000
0010
0000
0100
,
0000
1000
0000
0010
0000
0000
0100
0000
,
0000
0001
0000
1000
0000
0000
0010
0000
,
0000
0100
0000
0001
0000
0001
0000
0001
,
0000
0001
0000
1000
0000
0000
0010
0000
,
0000
0200
0000
0000
0000
0000
0000
0300
,
0000
0000
0001
0000
0000
1000
0000
0010
,
0000
0100
0000
0010
0000
1000
0000
0001
,
0000
0000
0000
0100
0000
0000
0010
0000
,
0000
2000
0000
0000
0000
0000
3000
0000
,
0000
0000
0000
0001
0000
0000
0100
0000
,
0010
1010
0000
0000
,
0000
0000
0000
0100
0000
0001
0000
0100
,
0000
0000
0000
0010
0000
0010
0000
1000
,
0000
1000
0000
1001
0000
0100
0000
0010
,
0000
1000
0000
0100
0000
0100
0000
0010
,
0000
0001
0000
0011
0000
1000
0000
0010
,
0000
0100
0000
0001
0000
1000
0000
0010
,
0000
0100
0000
0001
0000
1000
0000
0010
,
0000
0100
0000
0001
0000
0000
1000
0000
,
0000
0000
0000
0010
0000
0010
0000
0100
,
0000
0100
0000
0001
0000
1000
0000
0010
,
0000
0100
0000
0110
0000
0001
0000
0010
,
0000
0100
0000
1000
0000
1000
0000
0001
,
0000
0100
0000
1001
0000
0010
0000
0100
,
0000
0010
0000
1000
0000
0001
0000
0100
,
0000
0010
0000
1000
0000
0001
0000
0100
,
0000
0010
0000
0110
0000
0000
0000
0000
,
0000
0000
0000
1001
0000
0000
0000
0000
;

//---------------dance-single - Copied from----------------
#NOTES:
     dance-single:
     Copied from:
     Beginner:
     1:
     0.039999,0.066190,0.000000,0.000000,0.000000,34.000000,34.000000,0.000000,0.000000,0.000000,0.000000,0.039999,0.066190,0.000000,0.000000,0.000000,34.000000,34.000000,0.000000,0.000000,0.000000,0.000000:
0000
0000
0000
0000
,
0000
0000
0000
0000
,
0000
0000
0000
0000
,
0000
0000
0000
0000
,
0000
0000
0000
0000
,
0000
0000
0000
0000
,
0000
0000
0000
0000
,
0000
0000
0000
0000
,
0000
0000
0000
0001
0000
0000
0000
0000
,
0000
0000
0000
0000
,
0000
0000
0000
0000
0000
1000
0000
0000
,
0000
0000
0000
0000
,
0000
0000
0000
0000
0000
0001
0000
0000
,
0000
0000
0000
0000
,
0000
0000
0000
1000
0000
0000
0000
0000
,
0000
0000
0000
0000
,
0000
0000
0000
0010
0000
0000
0000
0000
,
0000
0000
0000
0000
,
0000
0000
0000
0010
0000
0000
0000
0000
,
0000
0000
0000
0000
,
0000
0000
0000
0100
0000
0000
0000
0000
,
0000
0000
0000
0000
,
0000
0000
0000
0100
0000
0000
0000
0000
,
0000
0000
0000
0000
,
0000
0000
0000
0010
0000
0000
0000
0000
,
0000
0000
0000
0000
,
0000
0000
0000
0010
0000
0000
0000
0000
,
0000
0000
0000
0000
,
0000
0000
0000
1000
0000
0000
0000
0000
,
0000
0000
0000
0000
,
0000
0000
0000
1000
0000
0000
0000
0000
,
0000
0000
0000
0000
,
0000
0000
0000
0001
0000
0000
0000
0000
,
0000
0000
0000
0000
0000
0100
0000
0000
,
0000
0000
0000
0000
,
0000
0000
0000
0001
,
0000
0000
0000
0000
,
0000
0000
0000
0000
,
0000
0000
0000
0100
0000
0000
0000
0000
,
0000
0000
0000
0000
0000
0000
0000
0100
,
0000
0000
0000
0000
,
0000
0000
0000
0010
0000
0000
0000
0000
,
0000
0000
0000
0000
,
0000
0000
0000
0000
,
0000
0000
0000
1000
0000
0000
0000
0000
,
0000
0000
0000
0000
,
0000
0000
0000
0010
0000
0000
0000
0000
,
0000
0000
0000
0000
,
0000
0000
0000
0100
0000
0000
0000
0000
,
0000
0000
0000
0000
,
0000
0000
0000
0000
,
0000
0000
0000
0000
,
0000
0000
0000
0001
0000
0000
0000
0000
,
0000
0000
0000
0000
,
0000
0000
0000
0000
,
0000
0000
0000
0010
0000
0000
0000
0000
,
0000
0000
0000
0000
,
0000
0000
0000
0000
,
0000
0000
0000
0000
,
0000
0000
0000
0000
0000
0000
0000
0100
,
0000
0000
0000
0000
,
0000
0000
0000
0000
,
0000
0000
0000
0000
,
0000
1000
0000
0000
,
0000
0000
0000
0001
0000
0000
0000
0000
,
0000
0000
0000
0000
,
0000
0000
0000
0000
0000
0001
0000
0000
,
0000
0000
0000
0000
,
0000
0000
0000
0000
0000
0100
0000
0000
,
0000
0000
0000
0000
,
0000
0000
0000
0100
0000
0000
0000
0000
,
0000
0000
0000
0000
,
0000
0000
0000
0010
0000
0000
0000
0000
,
0000
0000
0000
0000
,
0000
0000
0000
0010
0000
0000
0000
0000
,
0000
0000
0000
0000
,
0000
0000
0000
1000
0000
0000
0000
0000
,
0000
0000
0000
0000
,
0000
0000
0000
1000
0000
0000
0000
0000
,
0000
0000
0000
0000
,
0000
0000
0000
0010
0000
0000
0000
0000
;
