#TITLE:DAZZLING♥SEASON;
#SUBTITLE:;
#ARTIST:jun;
#TITLETRANSLIT:DAZZLING SEASON (English Side);
#SUBTITLETRANSLIT:;
#ARTISTTRANSLIT:;
#GENRE:;
#CREDIT:SupremeX;
#BANNER:DAZZLING SEASON.png;
#BACKGROUND:DAZZLING SEASON-bg.png;
#LYRICSPATH:;
#CDTITLE:CDTitle.png;
#MUSIC:DAZZLING SEASON.ogg;
#OFFSET:0.131223;
#SAMPLESTART:36.209999;
#SAMPLELENGTH:12.000000;
#SELECTABLE:YES;
#BPMS:0.000000=180.000000
,175.000000=90.000000
,191.000000=180.000000
;
#STOPS:61.500000=0.180000
;
#BGCHANGES:15.500=heart10.avi=1.000=0=0=1=====,
31.500=heart1.avi=1.000=0=0=1=====,
47.500=sphere4.avi=1.000=0=0=1=====,
61.500=DAZZLING SEASON-bg.png=1.000=0=0=1=====,
62.500=star5.avi=1.000=0=0=1=====,
79.000=heart3.avi=1.000=0=0=1=====,
95.000=heart1.avi=1.000=0=0=1=====,
111.000=milk1.avi=1.000=0=0=1=====,
125.000=heart6.avi=1.000=0=0=1=====,
134.500=heart7.avi=1.000=0=0=1=====,
143.000=milk1.avi=1.000=0=0=1=====,
157.000=heart7.avi=1.000=0=0=1=====,
175.000=heart10.avi=1.000=0=0=1=====,
183.000=heart3.avi=1.000=0=0=1=====,
191.000=heart1.avi=1.000=0=0=1=====,
199.000=star5.avi=1.000=0=0=1=====,
207.000=sphere4.avi=1.000=0=0=1=====,
215.000=heart6.avi=1.000=0=0=1=====,
223.000=milk1.avi=1.000=0=0=1=====,
237.000=heart7.avi=1.000=0=0=1=====,
246.500=heart10.avi=1.000=0=0=1=====,
255.000=milk1.avi=1.000=0=0=1=====,
271.000=heart6.avi=1.000=0=0=1=====,
287.000=DAZZLING SEASON-bg.png=1.000=0=0=1=====,
99999=-nosongbg-=1.000=0=0=0 // don't automatically add -songbackground-
;
#KEYSOUNDS:;
#ATTACKS:;

//---------------dance-single - ----------------
#NOTES:
     dance-single:
     :
     Hard:
     10:
     0.662831,0.955706,0.640964,0.258299,0.076533,485.000000,418.000000,67.000000,27.000000,0.000000,0.000000,0.662831,0.955706,0.640964,0.258299,0.076533,485.000000,418.000000,67.000000,27.000000,0.000000,0.000000:
0000
0000
0000
0000
,
0000
0000
0000
0000
,
0000
0000
0000
0000
,
0000
0000
0000
0000
0000
0000
0000
1000
,
0001
0200
0000
0310
1000
0000
0001
0000
,
0010
1000
0000
1010
0000
0101
0000
0010
,
1000
0010
0000
0100
0100
0000
0011
0000
,
1000
0100
0000
0101
0000
1010
0000
0001
,
0010
0001
1000
0010
1000
0000
0100
0010
,
0000
0011
0000
0110
0000
1100
0000
0001
,
0010
0100
1000
0010
0100
0001
1000
0100
,
0010
0001
0000
0101
0000
1010
0000
0110
,
1000
0001
1000
0010
1000
0001
0100
0010
,
0100
0010
1000
0100
0010
0001
0010
0100
,
1000
0010
0100
0010
1000
0100
1000
0101
,
0000
1010
0000
1001
0000
0100
0010
1000
,
0010
0100
0001
0100
0010
1000
0001
0100
,
0001
1000
0010
0100
0001
1000
0010
0000
,
0100
0001
0000
1000
0000
1010
0000
0000
,
0101
0110
1001
0200
,
0310
0010
0000
0000
1000
0000
1100
0000
,
0110
0000
0011
0000
1100
0000
0001
1000
,
0100
0010
0001
0100
0010
1000
0001
0100
,
0010
0000
1000
0000
0001
0000
0000
0110
0000
0000
2000
0000
0001
0000
0000
0000
,
3001
0000
0100
0010
1000
0001
0100
0010
,
1000
0001
0100
0010
0000
1000
0002
0000
,
0000
0013
0200
0000
0000
0000
1300
0000
,
1010
0000
0110
0000
0101
0000
0010
1000
,
0100
0010
0001
0100
0001
2000
0000
0000
,
3010
0100
0001
0010
0100
0000
1000
0000
,
0010
1000
0000
0002
0000
0203
0000
0000
,
0310
1000
0001
1000
0100
0020
0000
0031
,
0100
1000
0010
1000
0001
2000
0000
3010
,
0100
0010
0100
0000
0000
0001
1000
0010
,
0100
0001
0101
0000
0010
0110
0000
0100
,
1100
0002
0203
0320
,
0000
0000
1030
0100
0010
0001
0100
0010
,
1000
0100
0010
0001
0100
0000
0010
0000
,
1000
1100
0000
0110
0000
0011
0000
1000
,
1010
0000
0001
0100
0010
0100
0002
0000
,
0000
0000
1003
0010
1000
0001
0010
0100
,
1000
0010
0100
0001
1000
0000
0020
0000
,
0030
1000
0001
0100
0010
1000
0001
0100
,
0010
0000
1000
0000
0001
0000
0000
0000
0110
0000
0000
0000
0001
0001
0001
0100
,
0010
0000
1000
0000
0100
0000
0010
0000
1001
0000
1001
0000
0010
0010
0100
0000
,
0010
0100
0000
0001
0000
1000
0100
0000
0011
0000
0011
0000
0100
0100
0010
0010
,
1000
1000
0000
0010
0000
0100
0001
0000
0110
0000
0110
0000
1000
1000
0001
0000
,
0100
0100
0000
0010
0000
1000
1000
0000
0010
0000
0110
0000
1000
0000
0010
0000
,
1000
0100
0010
0001
0100
0001
0100
0010
,
1000
0000
1100
0000
1001
0000
0010
0100
,
0010
1000
0001
0200
0000
0310
0000
1000
,
0100
0000
0110
0000
0011
0000
1000
0010
,
0100
1000
0100
0010
0001
0100
0010
0000
,
0101
0000
1010
0000
0101
0000
1000
0100
,
0010
0001
0100
0001
1000
0100
0010
0001
,
0100
0010
1000
0000
0110
0000
0001
1000
,
0100
0010
0001
0100
0010
2000
0000
0000
,
3001
0000
0110
0000
1010
0000
0002
0100
,
0203
0010
0300
0110
0000
1001
0000
0000
,
0000
0000
0100
0010
0100
0002
0000
1003
,
0100
0010
0001
0100
0010
2000
0000
0001
,
3001
0001
0010
0000
0000
0100
1000
0100
,
0010
0001
0011
0000
1000
1010
0000
0100
,
0101
0000
1001
0000
1001
0100
0010
0100
,
0001
1000
0100
0010
0001
0200
0000
0000
,
0301
0010
0100
1000
0000
0000
1010
0000
,
0100
0110
0000
0101
0000
1010
0000
0001
,
1001
0000
0110
0000
1010
0000
0101
0010
,
0001
1000
0100
1000
0001
0020
0000
0000
,
1030
0010
1000
0100
0010
0001
0200
0000
,
0000
0310
2000
0000
3100
0010
0001
0100
,
0010
1000
0001
0100
0010
1000
2002
0000
,
0000
0000
0000
0000
,
0000
0000
0000
0000
,
3003
0000
0000
0000
;

//---------------dance-single - ----------------
#NOTES:
     dance-single:
     :
     Medium:
     8:
     0.578098,0.634985,0.564431,0.019133,0.000000,423.000000,364.000000,59.000000,2.000000,0.000000,0.000000,0.578098,0.634985,0.564431,0.019133,0.000000,423.000000,364.000000,59.000000,2.000000,0.000000,0.000000:
0000
0000
0000
0000
,
0000
0000
0000
0000
,
0000
0000
0000
0000
,
0000
0000
0000
0000
0000
0000
0000
1000
,
0010
0100
0010
1000
0001
0000
0001
0000
,
0010
0100
0000
1000
0000
1010
0000
0001
,
0010
0100
0000
1000
0010
0000
0100
0000
,
0010
1000
0000
0101
0000
1010
0000
0001
,
0100
0001
1000
0010
1000
0000
0001
0000
,
0100
0010
0000
0110
0000
1100
0000
0001
,
0100
0001
0010
0100
1000
0000
0010
0000
,
0100
0001
0000
1000
0000
1010
0000
0001
,
0010
0100
1000
0010
0000
0100
0000
0110
,
0000
0001
0010
0001
0100
0010
0000
1000
,
0000
1010
0000
0001
0000
0101
0000
0010
,
0000
1010
0000
1001
0000
0000
0010
0000
,
1010
0000
0001
0100
0010
0000
1010
0000
,
0100
0001
1000
0000
0110
0000
0001
0010
,
0100
1000
0000
0110
0000
1001
0000
0110
,
0000
1010
0000
0101
0000
0000
1000
0010
,
1000
0000
0001
0010
0001
0000
0100
0010
,
0100
0000
0010
1000
0010
0000
0100
0001
,
0100
0000
0010
0010
0010
0000
1000
1000
,
1000
0000
0001
0010
0001
0100
0010
0000
,
1000
1010
0001
0101
,
0010
0000
1010
0000
0101
0000
0010
1000
,
0100
0010
0001
0000
1000
0000
0110
0000
,
0101
0010
1000
0010
,
0100
0001
0100
0000
0010
1000
0000
0001
,
0100
0000
1010
0000
0110
0000
0001
0010
,
0100
1000
0000
0110
0000
0110
0000
0001
,
1000
0000
0010
0000
0110
0000
1000
0100
,
0010
0100
0001
0010
0001
1000
0000
0100
,
0100
0000
0010
0000
0001
0000
0100
0010
,
1000
0010
0100
0000
0001
0010
0000
0100
,
1000
0001
0101
0010
,
1010
0000
0100
0010
0100
0001
0000
1000
,
0100
0000
1000
0000
0100
0000
0010
0001
,
0100
0001
0100
0000
0010
0000
1000
0000
,
0110
0000
0101
0000
0010
0100
0001
1000
,
0001
0100
0010
0100
0001
1000
0000
0000
,
0010
0100
0001
1001
,
0100
0010
0100
0000
0001
0000
1010
0000
,
0101
0000
0010
0000
0100
0000
0001
1000
,
0010
0100
0001
1000
0010
0100
0001
0010
,
0100
1000
0010
0100
0001
0100
0010
1000
,
0010
1000
0100
0010
0001
1000
0010
0100
,
0001
1000
0010
0100
0001
1001
1000
0100
,
0010
1001
0010
0110
,
1000
0000
0001
0000
1001
0000
0010
0100
,
0010
0000
1000
0001
0000
0010
0000
0100
,
1000
0000
0110
0000
0011
0000
0100
0010
,
0100
0000
0001
1000
0001
0000
0100
0000
,
0110
0000
1010
0000
0101
0000
0010
1000
,
0010
0000
0100
0010
0100
0000
0001
1000
,
0001
0000
0100
0000
0110
0000
1000
0010
,
0100
0001
1000
0010
0100
0001
0000
1000
,
1000
0010
0100
0001
,
1100
1100
0011
0011
,
1000
0100
1000
0000
0001
0000
0100
0000
,
0101
0000
0010
1000
0010
0100
0000
0001
,
0001
0000
1000
0000
0010
0000
0100
0100
,
0000
0001
0001
0000
1000
1000
0000
0010
,
0010
0000
0100
0001
0100
0000
1010
0000
,
0001
0000
0100
0010
1000
0001
0000
0100
,
0100
0010
1000
0001
,
0101
1010
0001
0110
,
1100
0011
1000
0010
,
1000
0000
0001
0100
0010
0100
0000
0001
,
0010
0000
0100
0000
1000
0000
0010
0100
,
0010
0000
1000
0001
1000
0000
0010
0100
,
0010
1000
0001
0100
0010
0000
2002
0000
,
0000
0000
0000
0000
,
0000
0000
0000
3003
;

//---------------dance-single - ----------------
#NOTES:
     dance-single:
     :
     Easy:
     5:
     0.464665,0.599708,0.526165,0.038267,0.000000,340.000000,285.000000,55.000000,4.000000,0.000000,0.000000,0.464665,0.599708,0.526165,0.038267,0.000000,340.000000,285.000000,55.000000,4.000000,0.000000,0.000000:
0000
0000
0000
0000
,
0000
0000
0000
0000
,
0000
0000
0000
0000
,
0000
0000
0000
0000
0000
0000
0000
1000
,
0000
0001
0000
0100
0000
0010
0000
1000
,
0000
0001
0000
1001
0000
1001
0000
0010
,
0100
0010
0000
1000
0000
1000
0000
0001
,
0000
0010
0000
0110
0000
1100
0000
0001
,
1000
0001
0000
0100
0000
0010
0000
1000
,
0000
0001
0000
1001
0000
1001
0000
0010
,
0100
0010
0000
1000
0000
1000
0000
0010
,
0000
0100
0000
0001
0000
1010
0000
0001
,
0000
0100
0000
0010
0000
1000
0000
0001
,
0000
0010
0000
0100
0000
1000
0000
0010
,
0000
0100
0000
0011
0000
0110
0000
1100
,
0000
0101
0000
1010
0000
0000
0100
0000
,
0001
1001
0010
0100
,
0010
1000
0010
0000
0001
0000
0100
0000
,
0010
1000
1000
0010
,
0101
0101
0010
1000
,
0010
0100
0001
0100
,
0010
1000
0010
0110
,
0001
1000
0010
1000
,
0010
0100
0010
1001
,
0010
0100
0010
0100
,
0001
1000
0100
0020
,
0000
0030
0002
0000
0000
0003
0000
0000
,
0000
1000
1001
0010
,
0110
1000
1100
0010
,
0110
0001
0011
1000
,
0100
0010
0001
1001
,
0010
0100
1000
0010
,
0100
0001
0010
0100
,
1000
0010
0100
0110
,
0110
0011
0011
1100
,
1100
0110
0110
0001
,
0010
0000
0100
1000
0100
0000
0010
0000
,
0001
0100
0010
1000
,
1001
1001
0010
0110
,
1001
0010
1010
0100
,
0001
0000
0100
0010
0100
0000
0001
0000
,
1000
0010
1000
0001
,
0000
0100
0100
0000
0010
0000
1000
0000
,
0010
0100
0001
1001
,
1010
0000
0101
0000
0010
0010
1000
0000
,
0001
0000
0010
0000
1000
1000
0001
0010
,
0100
0000
1000
0100
0010
0001
0100
0000
,
0010
0000
1000
0010
0100
0001
1000
0000
,
0100
0010
0001
1000
,
0100
0011
1001
0100
,
0010
0100
0001
1000
,
0001
1010
1001
0010
,
0100
1000
0010
0100
,
0010
0101
1010
0001
,
0100
0010
0010
1000
,
0001
0100
0100
0010
,
1000
0000
0001
0100
0001
0000
1000
0000
,
0010
0100
0001
1000
,
0010
0100
0001
1010
,
0101
0010
1000
0010
,
0100
0010
0100
0001
,
0100
0000
0010
0000
1000
0000
0010
0100
,
0010
0000
1000
0010
1000
0000
0001
0100
,
0001
1000
1010
0010
,
0110
0100
0101
0001
,
1001
1000
1100
0010
,
0001
0100
0010
1001
,
1001
0010
0100
0001
,
1000
0010
0100
0001
,
1000
0000
0010
0000
1000
0000
0001
0001
,
0000
0100
0100
0000
0000
0000
0010
0000
,
1000
0001
0100
2002
,
0000
0000
0000
0000
,
0000
0000
0000
3003
;

//---------------dance-single - Copied from----------------
#NOTES:
     dance-single:
     Copied from:
     Beginner:
     4:
     0.266499,0.493912,0.124366,0.095666,0.000000,195.000000,182.000000,13.000000,10.000000,0.000000,0.000000,0.266499,0.493912,0.124366,0.095666,0.000000,195.000000,182.000000,13.000000,10.000000,0.000000,0.000000:
0000
0000
0000
0000
,
0000
0000
0000
0000
,
0000
0000
0000
0000
,
0000
0000
0000
0000
0000
0000
0000
1000
,
0000
0001
0000
0100
0000
0000
0000
0010
,
0000
0010
0000
1000
0000
1000
0000
0001
,
0000
0000
0000
0100
0000
0000
0000
1000
,
0000
0010
0000
0100
0000
0100
0000
0001
,
0000
0000
0000
1000
0000
0000
0000
0010
,
0000
0100
0000
0001
0000
0001
0000
1000
,
0000
0010
0000
0100
0000
1000
0000
0001
,
0000
0010
0000
0010
0000
0010
0000
2000
,
0000
0000
0000
0000
0000
3000
0000
0002
,
0000
0000
0000
0000
0000
0003
0000
1000
,
0000
0010
0000
0100
0000
1000
0000
1000
,
0000
0001
0000
0001
0000
0000
2000
0000
,
0000
0000
3000
0020
,
0000
0030
0000
1000
,
0001
0100
0010
1000
,
1000
0010
0100
0001
,
0000
1000
0000
0010
,
0000
0100
0000
0001
,
0000
1000
0000
0000
,
0000
0000
0000
1000
,
0010
0100
0001
0010
,
1000
0010
0010
2002
,
0000
0000
0000
3003
,
0000
0100
0000
0010
,
0000
1000
0001
0100
,
0010
1000
0000
0001
,
0000
1000
0000
0010
,
0000
0100
0100
0100
,
0000
1000
1000
1000
,
0000
0001
0000
0100
,
0010
1000
0001
0100
,
0100
0000
0000
0001
,
0000
1000
0000
0010
,
0000
0100
0000
0001
,
0010
0100
1000
1000
,
1000
0010
0000
0100
,
0000
0010
0000
1000
,
0000
0001
0000
1001
,
0000
1001
0000
1001
,
0000
0010
0000
1000
,
0100
0010
0001
1000
,
0100
0010
0001
0100
,
1000
0010
0100
0001
,
0001
1000
0010
1000
,
0000
0001
0000
1000
,
0000
0010
0010
0100
,
0000
0001
0000
1000
,
0000
0010
0010
0100
,
0000
0001
0000
1000
,
0000
0100
0100
0010
,
0000
0001
0000
1000
,
0000
1001
0000
0010
,
1000
0010
0100
0100
,
0000
0001
0010
0100
,
1000
0010
0100
0100
,
0000
0001
0001
0001
,
0000
1000
1000
1000
,
0000
0010
0000
1001
,
1001
1001
0110
0110
,
0110
0001
0000
1000
,
0000
0100
0000
0010
,
0000
0001
0000
1000
,
0001
1000
0010
0010
,
0010
1000
1000
0010
,
0000
0100
0000
0001
,
0000
1000
0000
2002
,
0000
0000
0000
0000
0000
3003
0000
0000
,
0000
0000
0000
2002
,
0000
0000
0000
0000
,
0000
0000
0000
0000
0000
0000
0000
0000
0000
0000
0000
0000
0000
0000
0000
0000
0000
0000
0000
0000
0000
0000
0000
0000
0000
0000
0000
0000
0000
0000
0000
0000
0000
0000
0000
0000
0000
0000
0000
0000
0000
0000
0000
0000
0000
0000
0000
0000
0000
0000
0000
0000
0000
0000
0000
0000
0000
0000
0000
0000
0000
0000
0000
0000
0000
0000
0000
0000
0000
0000
0000
0000
0000
0000
0000
0000
0000
0000
0000
0000
0000
0000
0000
0000
0000
0000
0000
0000
0000
0000
0000
0000
0000
0000
0000
0000
0000
0000
0000
0000
0000
0000
0000
0000
0000
0000
0000
0000
0000
0000
0000
0000
0000
0000
0000
0000
0000
0000
0000
0000
0000
0000
0000
0000
0000
0000
0000
0000
0000
0000
0000
0000
0000
0000
0000
0000
0000
0000
0000
0000
0000
0000
0000
0000
0000
3003
0000
0000
0000
0000
0000
0000
0000
0000
0000
0000
0000
0000
0000
0000
0000
0000
0000
0000
0000
0000
0000
0000
0000
0000
0000
0000
0000
0000
0000
0000
0000
0000
0000
0000
0000
0000
0000
0000
0000
0000
0000
0000
0000
0000
0000
0000
;
