#TITLE:DAZZLING SEASON (Darwin Remix);
#SUBTITLE:;
#ARTIST:jun;
#TITLETRANSLIT:;
#SUBTITLETRANSLIT:;
#ARTISTTRANSLIT:;
#GENRE:;
#CREDIT:SupremeX;
#BANNER:DAZZLING SEASON Darwin.png;
#BACKGROUND:DAZZLING SEASON Darwin-bg.png;
#LYRICSPATH:;
#CDTITLE:CDTitle.png;
#MUSIC:DAZZLING SEASON (Darwin Remix).ogg;
#OFFSET:-0.739;
#SAMPLESTART:37.320000;
#SAMPLELENGTH:12.000000;
#SELECTABLE:YES;
#BPMS:0.000000=180.000000
;
#STOPS:
;
#BGCHANGES:32.000=heart12.avi=1.000=0=0=1=====,
48.000=heart10.avi=1.000=0=0=1=====,
64.000=heart6.avi=1.000=0=0=1=====,
80.000=heart8.avi=1.000=0=0=1=====,
96.000=heart6.avi=1.000=0=0=1=====,
112.000=smoke.avi=1.000=0=0=1=====,
144.000=heart11a.avi=1.000=0=0=1=====,
158.000=heart10.avi=1.000=0=0=1=====,
176.000=pop.avi=1.000=0=0=1=====,
204.000=DAZZLING SEASON Darwin-bg.png=1.000=0=0=1=====,
208.000=heart8.avi=1.000=0=0=1=====,
223.500=heart6.avi=1.000=0=0=1=====,
240.000=heart8.avi=1.000=0=0=1=====,
256.000=heart10.avi=1.000=0=0=1=====,
272.000=heart12.avi=1.000=0=0=1=====,
286.000=smoke.avi=1.000=0=0=1=====,
304.000=heart12.avi=1.000=0=0=1=====,
320.000=smoke.avi=1.000=0=0=1=====,
332.000=heart6.avi=1.000=0=0=1=====,
336.000=DAZZLING SEASON Darwin-bg.png=1.000=0=0=1=====,
99999=-nosongbg-=1.000=0=0=0 // don't automatically add -songbackground-
;
#KEYSOUNDS:;
#ATTACKS:;

//---------------dance-single - ----------------
#NOTES:
     dance-single:
     :
     Beginner:
     1:
     0.144344,0.175124,0.000000,0.008491,0.000000,119.000000,119.000000,0.000000,1.000000,0.000000,0.000000,0.144344,0.175124,0.000000,0.008491,0.000000,119.000000,119.000000,0.000000,1.000000,0.000000,0.000000:
0000
0000
0000
0000
,
0000
0000
0000
0000
,
0000
0000
0000
0000
,
0000
0000
0000
0000
,
0010
0000
0010
0000
,
0001
0000
0100
0000
,
0100
0000
1000
0000
,
0001
0000
0001
0000
,
1000
0000
0010
0000
,
0010
0000
0100
0000
,
1000
0000
1000
0000
,
0001
0000
0100
0000
,
0100
0000
0000
0000
,
0010
0000
0000
0000
,
0001
0000
1000
0000
,
0001
0000
0000
0000
,
0100
0000
0000
0000
,
0010
0000
0000
0000
,
1000
0000
0001
0000
,
1000
0000
0000
0000
,
0010
0000
0000
0000
,
0010
0000
0000
0000
,
1000
0000
0000
0000
,
1000
0000
0000
0000
,
0001
0000
0000
0000
,
0001
0000
0000
0000
,
0100
0000
0100
0000
,
0000
0000
0000
0000
,
1000
0000
0010
0000
,
0100
0000
0001
0000
,
1000
0000
0010
0000
,
0100
0000
0000
0000
,
0001
0000
0000
0000
,
0001
0000
0000
0000
,
1000
0000
1000
0000
,
0010
0000
0000
0000
,
0100
0000
0000
0000
,
0001
0000
0000
0000
,
1000
0000
0010
0000
,
0100
0000
0000
0000
,
0001
0000
0010
0000
,
0001
0000
0010
0000
,
1000
0000
0200
0000
,
0000
0000
0000
0000
0000
0000
0000
0300
,
0001
0000
0000
0000
,
1000
0000
0000
0000
,
0001
0000
0000
0000
,
0010
0000
0000
0000
,
0100
0000
0000
0000
,
0001
0000
0000
0000
,
1000
0000
0000
0000
,
0100
0000
0000
0000
,
0010
0000
0010
0000
,
0010
0000
0010
0000
,
0100
0000
0100
0000
,
0100
0000
1000
0000
,
1000
0000
0001
0000
,
0001
0000
0000
0000
,
1000
0000
0100
0000
,
0010
0000
0001
0000
,
1000
0000
1000
0000
,
1000
0000
0001
0000
,
0001
0000
0001
0000
,
0010
0000
0000
0000
,
0100
0000
0000
0000
,
0100
0000
0000
0000
,
0010
0000
1000
0000
,
0000
0000
0000
0000
,
0100
0000
0001
0000
,
1000
0000
0010
0000
,
0100
0000
0001
0000
,
0000
0000
0000
0000
,
1000
0000
0100
0000
,
0010
0000
0001
0000
,
1000
0000
1000
0000
,
0010
0000
0010
0000
,
0100
0000
0001
0000
,
0100
0000
1000
0000
,
0001
0000
0010
0000
,
0100
0000
1000
0000
,
0001
0000
0010
0000
,
0100
0000
1000
0000
,
0001
0000
0100
0000
;

//---------------dance-single - ----------------
#NOTES:
     dance-single:
     :
     Easy:
     3:
     0.277772,0.320954,0.025473,0.050945,0.000000,229.000000,226.000000,3.000000,6.000000,0.000000,0.000000,0.277772,0.320954,0.025473,0.050945,0.000000,229.000000,226.000000,3.000000,6.000000,0.000000,0.000000:
0000
0000
0000
0000
,
0000
0000
0000
0000
,
0000
0000
0000
0000
,
0000
0000
1000
0010
,
0100
0000
0001
0010
,
0100
0000
1000
0000
,
0001
0000
1000
0000
,
0010
0000
0100
0000
,
1000
0000
1000
0000
0000
0010
0000
0010
,
0000
0100
0000
0100
0000
0001
0000
0000
,
1000
0000
0010
0000
0000
0100
0000
0001
,
0000
1000
0000
0001
0000
0100
0000
0000
,
0010
1000
0001
0100
,
0010
0000
0000
1000
,
0001
0100
0010
1000
,
1000
0000
0000
0010
,
0100
0001
1000
0000
,
0010
0100
1000
0000
,
0001
0100
0010
1000
,
0001
0100
0001
0001
,
1000
0000
0000
0010
0000
0000
0100
0000
,
1000
0001
0100
0010
,
1000
0000
0001
0000
,
0100
0000
0010
1000
,
0001
0000
0100
0000
,
0010
1000
0001
0100
,
0001
0000
1001
0000
,
0110
0000
1000
0000
,
0001
0000
0100
1000
,
0000
0001
0100
0010
,
1000
0000
0000
0001
0000
0000
0000
1000
,
0000
0000
0010
0100
,
0001
1000
1000
0000
,
0010
0100
0001
0000
,
1000
0100
0010
1000
,
0001
0001
1000
0010
,
0100
0000
0001
0000
,
1000
0000
0010
0000
,
0100
0000
0001
0000
0000
0000
0000
1000
,
0000
1000
0010
0100
,
0001
0000
1000
0010
,
0100
0001
1000
0001
,
0100
0000
0010
0000
,
0001
0000
1000
0000
,
0020
0000
0000
0000
0000
0030
0000
0000
,
0200
0000
0000
0000
0000
0300
0000
0000
,
0002
0000
0000
0003
,
2000
0000
0000
0000
0000
3000
0000
0000
,
0010
0100
0010
1000
,
0001
0100
0010
0000
,
1000
0001
0100
0010
,
2000
0000
0000
0000
0000
3000
0000
0000
,
0001
0000
0100
0000
,
0010
0000
1000
0000
,
0001
0000
0100
0000
,
0002
0003
0100
0000
,
0010
0000
1000
0000
,
0001
0000
0100
0000
,
1000
0100
0010
0001
,
1000
0001
0100
0010
,
1000
0000
0001
0000
,
1000
0000
0010
0000
,
1000
0000
0001
0000
,
0100
0000
0010
0100
,
0001
0000
1000
0010
,
0100
0000
0001
0100
,
0010
0000
1000
0000
,
0001
0000
0000
0000
,
0010
0100
1000
0001
,
0100
0010
1000
0001
,
0100
1000
0100
0010
,
0001
0000
1000
0001
,
1000
0010
1000
0001
,
0100
0001
0100
0000
,
0010
0100
0010
1000
,
0001
0100
0010
0010
,
1000
0000
0001
0000
,
1000
0000
0001
0000
,
1000
0001
1000
0001
,
0100
0010
1000
0001
,
0100
0000
0001
0100
,
0010
1000
0010
0100
,
0001
0000
0100
0000
,
0010
0000
0000
0000
,
1001
0000
0000
0000
;

//---------------dance-single - Copied from----------------
#NOTES:
     dance-single:
     Copied from:
     Medium:
     6:
     0.385727,0.463600,0.059436,0.050945,0.004245,318.000000,311.000000,7.000000,6.000000,0.000000,0.000000,0.385727,0.463600,0.059436,0.050945,0.004245,318.000000,311.000000,7.000000,6.000000,0.000000,0.000000:
0000
0000
0000
0000
,
0000
0000
0000
0000
,
0000
0000
0000
0000
,
0000
0000
0001
0100
,
0001
0000
1000
0010
,
1000
0000
0001
0100
,
0001
0000
1000
0000
0000
0010
0000
0100
,
0000
0010
0000
0100
0000
0010
0000
0000
,
1000
0000
0001
0000
0000
0100
0000
0001
,
0000
0100
0000
0010
0000
1000
0000
0000
,
0001
0000
1000
0000
0000
0010
0000
0100
,
0000
0001
0000
0100
0000
0010
0000
0000
,
1000
0000
0001
1000
0001
0000
0100
0000
,
0001
0000
1000
0001
1000
0000
0010
0000
,
0100
0000
0001
1000
0000
0010
0000
0110
,
0000
0001
1000
0001
,
0100
0010
0100
0000
0010
0100
0010
0000
,
1000
0001
1000
0000
0001
1000
0001
0000
,
0100
0010
0100
0010
,
0110
0100
0001
0100
,
1010
0000
0000
0101
0000
0000
0010
0000
,
1000
0001
0100
0010
,
0101
0000
0000
1000
1000
0000
0000
0000
,
0010
0000
0000
0000
0000
0000
0000
0000
0100
0000
0000
0100
0000
0000
0001
0000
,
1000
0010
0100
0000
,
0001
1000
0001
0000
,
1000
0000
0000
0010
0010
0000
0100
0000
,
0002
0000
0000
0003
,
1000
0000
0010
0000
1000
0000
0001
1000
,
0000
0010
0100
0010
,
0100
0000
0010
0100
0000
0001
0000
1000
,
0000
0000
0000
0000
0010
0000
0100
0010
,
0000
1000
0010
0000
0100
0001
0100
0001
,
0000
1000
0010
1000
0010
0000
0000
0000
,
0100
0001
0100
0000
0010
0000
1000
0001
,
0000
0100
0100
0000
0010
0000
1000
0000
,
0010
0000
0100
0000
0001
0000
0100
0001
,
0000
1000
0001
1000
,
0001
0000
0100
0001
0000
0100
0000
0010
,
0000
1000
0010
0000
0100
0000
0001
0000
,
0110
0000
0000
0000
1000
0000
0010
0100
,
0000
0001
1000
0010
,
0100
0000
0000
0010
0200
0000
0000
0000
,
0000
0300
0000
0000
,
0001
0010
0100
1000
,
0001
1000
0001
1000
0000
0000
0001
0000
,
0100
0000
0000
0020
0000
0000
0030
0000
,
1000
0010
1000
0010
0000
0100
0001
0000
,
0100
0000
0000
0010
0000
0000
0000
0000
,
1000
0100
0010
0001
0000
0100
0001
0000
,
0100
0000
0000
0010
0000
0000
1000
0000
,
2000
0000
0000
0000
0000
3000
0000
0000
,
0010
0100
0010
1000
,
0010
1000
0001
1000
,
0001
0100
0001
0100
,
0001
0000
0000
0000
1000
0000
0010
1000
,
0000
0010
1000
0000
0001
0000
0100
0001
,
0000
0100
0001
0100
0001
0000
0000
0100
,
0000
0010
1000
0010
1000
0000
0001
0100
,
0000
0001
0100
0000
0010
0000
1000
0000
,
0010
1000
0001
0100
,
0001
1000
0010
1000
,
0010
0000
0100
0010
0000
0010
0000
1000
,
0000
0010
1000
0000
1000
0000
0001
0000
,
0100
0000
0001
0000
1000
0000
0010
1000
,
0000
0010
0100
0001
,
0100
0000
0000
0010
2000
0000
0000
0000
,
3000
0000
0001
0100
,
0001
0000
1000
0000
0010
0000
1000
0010
,
0000
0100
0001
0100
,
0001
0000
1000
0010
0000
0100
0000
0001
,
0000
0000
0000
0000
1000
0000
0010
1000
,
0000
0010
0000
0000
0100
0000
0001
0100
,
0000
0010
1000
0010
1000
0000
0000
0000
,
0001
0000
0100
0000
0001
0000
0100
0010
,
0000
0100
0010
0000
1000
0000
0001
0000
,
0100
0000
0001
0000
1000
0000
0010
1000
,
0000
0001
0100
0001
,
0100
0000
0010
0100
0000
0001
0000
1000
,
0000
0010
0100
0000
0010
0000
0100
0000
,
0001
0000
0000
0000
1000
0000
0001
0100
,
0000
0001
0100
0010
,
1000
0000
0000
0010
0200
0000
0000
0000
,
0000
0300
0000
0000
0000
0000
0000
0000
,
1001
0000
0000
0000
;

//---------------dance-single - Copied from----------------
#NOTES:
     dance-single:
     Copied from:
     Hard:
     8:
     0.459718,0.534923,0.424542,0.195289,0.004245,379.000000,329.000000,50.000000,23.000000,0.000000,0.000000,0.459718,0.534923,0.424542,0.195289,0.004245,379.000000,329.000000,50.000000,23.000000,0.000000,0.000000:
0000
0000
0000
0000
,
0000
0000
0000
0000
,
0000
0000
0000
0000
,
0000
0000
1000
0010
,
1010
0000
0001
0100
,
0101
1000
0100
0010
,
0001
0000
0110
0000
0000
1000
0000
1001
,
0000
0100
0000
0110
0000
1010
0000
0000
,
0001
0000
0110
0000
0000
0001
0000
1001
,
0000
1000
0000
0110
0000
0101
0000
0000
,
0010
0000
1010
0000
0000
0110
0000
0101
,
0000
1010
0000
1001
0000
0010
0000
0000
,
0100
0000
0001
0010
0001
0000
0100
0010
,
0100
0000
0010
1000
0010
0000
0100
0000
,
0001
0000
1000
0010
0000
1100
0000
0011
,
0000
1000
0100
0000
0010
0000
0001
0000
,
0010
0000
0100
1000
0100
0000
0010
0000
,
0001
0000
0100
0010
0100
0000
0001
0000
,
1000
0000
0010
0100
0000
0010
0000
2000
,
0000
3001
0010
0100
,
0002
0000
0000
0013
0000
0000
0100
0000
,
1000
0001
0101
1010
,
1001
0000
0000
0100
0010
0000
1000
0000
,
0001
0000
0000
0000
0000
0000
0000
0000
1000
0000
0000
0100
0000
0000
0010
0000
,
0001
1000
0010
0100
,
0001
0000
1000
0100
0000
0100
0000
0010
,
0001
0000
0000
1000
0200
0000
0000
0000
,
0300
0000
0000
0000
0020
0000
0000
0030
,
0002
0000
0000
0000
1003
0000
0100
0010
,
0000
0001
0011
0101
,
1010
0000
0100
0001
0000
1000
0000
1001
,
0000
0010
0100
0000
0001
0000
0010
0100
,
0000
1000
0100
0000
0010
0000
0001
1000
,
0000
0010
0100
0010
0100
0000
0000
0000
,
0001
1000
0010
1000
0001
0000
0100
0010
,
0000
1000
0001
0000
0110
0000
0110
0000
,
2000
0000
3010
0000
0100
0000
0001
0010
,
0000
0100
1001
0101
,
0010
0000
1000
0010
0000
0100
0000
0001
,
0000
1000
1000
0000
0110
0000
1001
0000
,
0220
0000
0330
0000
0001
0000
1000
0010
,
0000
1000
0001
0000
0100
0000
0001
0000
,
1000
0000
0000
0010
0200
0000
0000
0300
,
0001
1000
0001
0100
0002
0000
0000
0003
,
2000
0000
0000
3020
0000
0030
0000
0100
,
0010
0100
0001
1000
0000
1010
0000
0000
,
0002
0000
0000
0203
0000
0300
0000
0010
,
1000
0100
1000
0001
0000
0101
0000
0000
,
0020
0000
0000
2030
0000
3000
0000
0000
,
0100
0010
0001
1000
0000
1100
0000
0000
,
0002
0000
0000
2003
0000
3000
0010
0000
,
0220
0000
0000
0000
0000
0330
0000
0000
,
0001
0001
0001
0001
,
1000
1000
1000
1000
,
0100
0000
0010
0001
0000
1000
0000
1001
,
0000
0000
0000
0000
0010
0000
0100
0010
,
0000
1000
1000
0000
0001
0000
0100
0010
,
0000
1000
0001
0100
0010
0000
0000
0000
,
0001
1000
0010
1000
0001
0000
0100
0010
,
0000
1000
0001
0000
0110
0000
0110
0000
,
1000
0000
0001
0000
0100
0000
0010
1000
,
0000
0010
0100
0000
0001
0000
1000
0000
,
0101
0000
0010
1000
0000
0001
0000
0100
,
0000
1000
0020
0000
0130
0000
0001
0000
,
0110
0000
0000
0000
1000
0000
0010
0100
,
0000
0001
0010
0000
0100
0000
1000
0000
,
0001
0000
0000
0100
0002
0000
0000
0000
,
0003
0000
0000
0000
,
1000
0000
1010
0000
0010
0000
0100
0001
,
0000
1000
0100
0000
0010
0000
0001
0000
,
1000
0000
0010
0100
0000
0101
0000
1010
,
0000
0000
0000
0000
0100
0000
0010
0100
,
0000
0001
0010
0000
0100
0000
1000
0010
,
0000
0100
0001
1000
0010
0000
0000
0000
,
0100
0010
1000
0001
0100
0000
0001
1000
,
0000
0010
0100
0000
1010
0000
0101
0000
,
1010
0000
0001
0000
1000
0000
0100
1000
,
0000
0010
0100
0000
0001
0000
1001
0000
,
1000
0000
0010
0100
0000
0001
0000
1000
,
0000
0100
0010
0000
0001
0000
1100
0000
,
0110
0000
0000
0000
0001
0000
1000
0100
,
0000
0100
0010
0000
0001
0000
0010
0000
,
0100
0000
0000
1000
2000
0000
0000
0000
,
3001
0010
0001
1000
,
1001
0000
0000
0000
;
