#TITLE:CrossShooter;
#SUBTITLE:;
#ARTIST:Tatsh;
#TITLETRANSLIT:;
#SUBTITLETRANSLIT:;
#ARTISTTRANSLIT:;
#CREDIT:SupremeX;
#BANNER:CrossShooter.png;
#BACKGROUND:CrossShooter-bg.png;
#LYRICSPATH:;
#CDTITLE:CDTitle.png;
#MUSIC:CrossShooter.ogg;
#OFFSET:-0.061;
#SAMPLESTART:59.330;
#SAMPLELENGTH:12.000;
#SELECTABLE:YES;
#BPMS:0.000=164.000;
#STOPS:;
#BGCHANGES:34.000=line_b.avi=1.000=0=0=1,
66.000=mirrorb_a.avi=1.000=0=0=1,
98.000=text31.avi=1.000=0=0=1,
114.000=star5.avi=1.000=0=0=1,
130.000=tunnel9.avi=1.000=0=0=1,
154.000=mirrorb_a.avi=1.000=0=0=1,
160.000=CrossShooter-bg.png=1.000=0=0=1,
162.000=line_b.avi=1.000=0=0=1,
178.000=text31.avi=1.000=0=0=1,
194.000=line_b.avi=1.000=0=0=1,
210.000=text31.avi=1.000=0=0=1,
226.000=tunnel9.avi=1.000=0=0=1,
234.000=star5.avi=1.000=0=0=1,
250.000=tunnel9.avi=1.000=0=0=1,
258.000=mirrorb_a.avi=1.000=0=0=1,
282.000=line_b.avi=1.000=0=0=1,
298.000=mirrorb_a.avi=1.000=0=0=1,
314.000=text31.avi=1.000=0=0=1,
322.000=CrossShooter-bg.png=1.000=0=0=1,
99999=-nosongbg-=1.000=0=0=0 // don't automatically add -songbackground-
;

//---------------dance-single - ----------------
#NOTES:
     dance-single:
     :
     Beginner:
     1:
     0.166,0.259,0.072,0.032,0.000:
0000
0000
0000
0000
,
0000
0000
0000
0000
,
0000
0000
0000
0000
,
0000
0000
0000
0000
,
0000
0000
1000
0000
,
0001
0000
1000
0000
,
0010
0000
1000
0000
,
0010
0000
1000
0000
,
0010
0000
0100
0000
,
0001
0000
0100
0000
,
0001
0000
0100
0000
,
0001
0000
0100
0000
,
0001
0000
0010
0000
,
0010
0000
0010
0000
,
0010
0000
0100
0000
,
0100
0000
0100
0000
,
0100
0000
0001
0000
,
0001
0000
1000
0000
,
1000
0000
0100
0000
,
0100
0000
0100
0000
,
0100
0000
0010
0000
,
0010
0000
0010
0000
,
0010
0000
0010
0000
,
0001
0000
1000
0000
,
0001
0000
0100
0000
,
0100
0000
0100
0000
,
0100
0000
0010
0000
,
0010
0000
0010
0000
,
0010
0000
0001
0000
,
0001
0000
0001
0000
,
0001
0000
1000
0000
,
1000
0000
1000
0000
,
1000
0000
0200
0000
,
0000
0000
0000
0000
,
0000
0300
0000
0000
0002
0000
0000
0000
,
0000
0000
0000
0000
,
0003
0000
2000
0000
,
0000
0000
0000
0000
0000
0000
0000
3000
,
0000
0000
0020
0000
,
0000
0000
0000
0000
,
0030
0000
1000
0000
,
0001
0000
1000
0000
,
0001
0000
0100
0000
,
0010
0000
0100
0000
,
0010
0000
0001
0000
,
1000
0000
0001
0000
,
1000
0000
0100
0000
,
0010
0000
0100
0000
,
0010
0000
1000
1000
,
1000
0000
0010
0010
,
0010
0000
0001
0001
,
0001
0000
0100
0100
,
0100
0000
1000
1000
,
1000
0000
0000
0000
,
0010
0000
0100
0000
,
0100
0000
0010
0000
,
0100
0000
0100
0000
,
0000
0000
0001
0000
,
0000
0000
1000
0000
,
0000
0000
0000
0001
,
0000
0000
0000
0100
,
0000
0100
0000
0100
,
0000
0100
0000
0010
,
0000
0010
0000
0010
,
0000
0000
1000
0000
,
1000
0000
1000
0000
,
1000
0000
0001
0000
,
0001
0000
0001
0000
,
0001
0000
1000
0000
,
0010
0000
1000
0000
,
0010
0000
0100
0000
,
0001
0000
0100
0000
,
0001
0000
1001
0000
,
0000
0000
0000
0000
,
0000
0000
1001
0000
,
0000
0000
0000
0000
,
0000
0000
0110
0000
,
0000
0000
0110
0000
,
0000
0000
1001
0000
,
0110
0000
1001
0000
,
0110
0000
1001
0000
;

//---------------dance-single - ----------------
#NOTES:
     dance-single:
     :
     Easy:
     4:
     0.313,0.370,0.032,0.048,0.000:
0000
0000
0000
0000
,
0000
0000
0000
0000
,
0000
0000
0000
0000
,
0000
0000
0000
0000
,
0000
0000
0001
0001
,
0001
0001
0001
0001
,
0001
0001
1000
0001
,
1000
0001
1000
0001
,
1000
0000
0010
0010
,
0010
0010
0010
0010
,
0010
0010
0100
0010
,
0100
0010
0100
0010
,
0100
0000
1000
1000
,
1000
1000
1000
1000
,
1000
0000
0010
1000
,
0010
1000
0010
1000
,
0000
0000
0001
1000
,
0010
0100
0001
1000
,
0010
0100
0001
1000
,
0010
0100
0001
1000
,
0010
0100
1000
0100
,
0010
0001
1000
0100
,
0010
0001
1000
0100
,
0010
0001
0001
0001
,
0001
0001
1000
0000
,
0001
0000
1000
0000
,
0010
0010
0000
1000
,
0000
0001
0000
1000
,
0010
0010
0000
1000
,
0000
0001
0000
1000
,
0010
0010
0001
1000
,
0001
1000
0001
1000
,
0010
0010
2000
0000
,
0000
0000
0000
0000
,
0000
3000
0000
0000
0200
0000
0000
0000
,
0000
0000
0000
0000
,
0300
0000
0002
0000
,
0000
0000
0000
0000
0000
0000
0000
0003
,
0000
0000
0020
0000
,
0000
0000
0000
0030
,
0000
0000
1000
0001
,
1000
0001
1000
0001
,
1000
0001
1000
1000
,
1000
1000
1000
1000
,
1000
1000
0010
0100
,
0010
0100
0010
0100
,
0010
0100
0010
0010
,
0010
0010
0010
0010
,
0010
0010
1000
0001
,
1000
0001
1000
0001
,
0001
0001
0001
1000
,
0001
1000
0001
1000
,
1000
1000
0010
0100
,
0010
0100
0010
0100
,
0100
0100
0010
0100
,
0010
0100
0010
0100
,
0010
0010
0010
0001
,
1000
0001
0010
0100
,
1000
0100
1000
0100
,
0010
0001
0010
0001
,
0010
0001
0010
0100
,
1000
0100
1000
0100
,
1000
0100
0010
0001
,
0010
0001
0010
0100
,
1000
0100
0010
0001
,
0010
0100
1000
0100
,
0010
0001
1000
1000
,
1000
0010
0010
0010
,
0100
0100
0100
0001
,
0001
0001
1000
0001
,
1000
0001
1000
1000
,
1000
0010
0010
0010
,
0100
0100
0001
0001
,
1000
1000
0010
0010
,
0100
0100
0001
1000
,
0001
0100
0010
1000
,
0001
1000
0010
0100
,
0001
1000
0010
0100
,
1000
0001
1000
0001
,
1000
0001
1000
1001
,
1001
1001
2002
0000
,
0000
0000
0000
0000
,
0000
0000
0000
0000
,
0000
0000
0000
3003
;

//---------------dance-single - Copied from----------------
#NOTES:
     dance-single:
     Copied from:
     Medium:
     7:
     0.424,0.538,0.080,0.064,0.000:
0000
0000
0000
0000
,
0000
0000
0000
0000
,
0000
0000
0000
0000
,
0000
0000
0000
0000
,
0000
0000
0000
0000
1000
0000
0010
0010
,
0000
0100
0001
1000
,
0010
0000
0100
0000
0001
0000
1000
1000
,
0000
0010
0100
0010
,
0100
0000
0001
0000
1000
0000
0001
0001
,
0000
0100
0010
1000
,
0001
0000
0100
0000
0010
0000
1000
1000
,
0000
0010
0100
0001
,
1000
0000
0010
0000
0100
0000
0010
0010
,
0000
1000
0001
0100
,
0001
0000
1000
0000
0010
0000
1000
1000
,
0000
0001
0100
0010
,
0100
0100
0001
1001
,
1000
1010
0100
0001
,
0100
0010
1000
0010
,
0100
0101
0001
0010
,
0100
1000
0001
1001
,
1000
1010
0100
0001
,
0100
0010
1000
0010
,
0110
0100
0001
0100
,
0010
1000
0010
1000
,
0001
0100
0001
0000
0100
0000
0010
0000
,
1000
0010
1000
0000
0001
0000
0100
0000
,
0001
0000
0100
0000
0010
1000
0010
0000
,
0100
0001
0001
1000
,
0010
0100
0001
0010
,
1000
0010
1000
0000
0001
0000
0100
0000
,
0010
1000
0100
0010
,
0001
1000
0001
0000
0220
0000
0000
0000
,
0000
0000
0000
0000
,
0330
0000
2002
0000
,
0000
0000
0000
0000
,
3003
0000
2010
0000
,
0010
0000
0010
0000
,
0010
0000
0000
3000
0002
0000
0000
0000
,
0100
0000
0100
0000
,
0100
0003
0000
0000
1000
0010
1000
0000
,
0001
0100
0001
0000
1000
0010
0100
0000
,
0001
0100
0010
0000
1000
0010
1000
0000
,
0001
0100
0001
0000
1000
0010
0100
0000
,
0001
0100
0010
0000
1000
0010
0100
0000
,
0001
0100
0010
0000
1000
0100
1000
0000
,
0010
0100
0010
0000
0100
0010
0100
0000
,
0001
0100
0001
1000
,
0010
1000
0001
0001
,
0100
0100
0010
0010
,
1000
0000
1000
0000
0001
0001
0100
0000
,
0010
0010
1000
0000
0001
0001
0100
0000
,
0010
0010
1000
0000
0001
0001
0100
0000
,
0010
0010
1000
0000
0001
0001
0100
0000
,
0010
0010
1000
0000
0001
0001
0100
0000
,
0010
0010
1000
0000
0001
0100
0001
0000
,
1000
0010
1000
0000
0001
0000
0100
0000
,
0001
0000
1000
0000
0010
1000
0010
0000
,
1000
0000
0001
0000
0100
0001
0100
0000
,
0010
0000
0010
0000
1000
0010
1000
0000
,
0001
0000
0001
0000
1000
0010
1000
0000
,
0010
0000
0100
0000
0001
1000
0001
0000
,
1000
0000
1000
0000
0010
1000
0010
0000
,
0100
0000
0001
0000
1000
0010
1000
0000
,
0010
0000
1000
0000
0001
0100
0001
0000
,
1000
0010
0100
0000
0001
0100
0010
0000
,
1000
0010
0100
0000
0001
0000
1000
0000
,
0010
0010
0100
0100
,
0001
0000
0001
0000
1000
0100
0010
0001
,
0100
0010
1000
0100
0010
0001
0100
0010
,
1000
0001
0100
0001
,
1000
0001
1000
0000
0010
0000
0010
0000
,
0100
0000
0100
0000
0001
1000
0001
0000
,
1000
0001
1000
0000
0010
0100
0010
0000
,
1000
0010
1000
0000
0010
0100
0010
0000
,
0100
0001
0100
0000
0001
1000
0010
0000
,
0100
0001
1000
0000
0010
1000
0001
0000
,
0100
0001
1000
0000
0010
0100
0001
0000
,
1000
0010
0100
0000
0001
1000
0001
1000
,
0010
0100
0010
1000
0001
1000
0001
0100
,
0010
0100
0010
0100
2002
0000
0000
0000
,
0000
0000
0000
0000
,
0000
0000
0000
0000
,
0000
0000
0000
3003
;

//---------------dance-single - Copied from----------------
#NOTES:
     dance-single:
     Copied from:
     Hard:
     9:
     0.638,0.673,0.129,0.297,0.056: // measure 1
0000
0000
0000
0000
,  // measure 2
0000
0000
0000
0000
,  // measure 3
0000
0000
0000
0000
,  // measure 4
0000
0000
0000
0000
,  // measure 5
0000
0000
0000
0000
1000
0100
1000
0000
,  // measure 6
0010
1000
0010
0000
0100
0001
0100
0000
,  // measure 7
0010
1000
0010
0000
1000
0100
1000
0000
,  // measure 8
0001
0100
0010
0000
1000
0010
0100
0000
,  // measure 9
0001
0000
0100
0000
0010
0100
0010
1000
,  // measure 10
0001
1000
0010
0000
0100
0001
0100
0010
,  // measure 11
1000
0001
1000
0000
0001
0010
0100
1000
,  // measure 12
0010
0100
0001
0000
1000
0010
0100
0001
,  // measure 13
1000
0010
0100
0000
0001
1000
0100
0010
,  // measure 14
0001
0100
0010
0000
1000
0100
0010
0001
,  // measure 15
1000
0001
0100
0000
0010
1000
0001
0100
,  // measure 16
0010
1000
0001
0000
0100
0001
1000
0010
,  // measure 17
0100
0010
1000
0000
0010
0020
0000
0130
,  // measure 18
0200
0000
0301
0002
0000
1003
2000
0000
,  // measure 19
3010
0020
0000
0130
0001
0002
0000
1003
,  // measure 20
2000
0000
3010
0020
0000
0130
0200
0300
,  // measure 21
0001
0100
0001
0000
0100
0000
0001
0000
1000
0000
0002
0000
0000
0000
1003
0000
,  // measure 22
2000
0000
3100
0200
0000
0310
0020
0000
,  // measure 23
0031
0002
0000
0103
0010
0200
0000
0310
,  // measure 24
0020
0000
1030
2000
0000
3001
0002
0000
,  // measure 25
1003
0010
1000
0010
1000
0010
1000
0000
0001
0000
0001
0000
0001
0000
0001
0000
,  // measure 26
0001
0001
0001
0001
0001
0001
0001
0001
,  // measure 27
1000
0020
0000
0030
0100
0100
0100
0100
,  // measure 28
0100
0100
0100
0100
0100
0100
0100
0100
,  // measure 29
0010
2000
0000
3000
0010
0010
0010
0010
,  // measure 30
0010
0010
0010
0010
0010
0010
0010
0010
,  // measure 31
0100
0020
0000
0030
1000
1000
1000
1000
,  // measure 32
1000
1000
1000
1000
1000
1000
1000
1000
,  // measure 33
0010
0200
0000
0300
0002
0000
0100
0000
,  // measure 34
0203
0010
0320
1000
,  // measure 35
2030
0001
3002
0100
,  // measure 36
0203
0010
0320
1000
,  // measure 37
2030
3001
0120
0100
,  // measure 38
0100
0100
0130
0000
,  // measure 39
0002
0000
0000
0003
2000
0000
0010
0000
,  // measure 40
0010
0010
0010
0010
,  // measure 41
3010
0000
0000
0000
0001
0100
0001
0100
,  // measure 42
0010
0100
0010
1000
0001
0100
0010
1000
,  // measure 43
0001
0100
0010
0100
0001
1000
0010
0100
,  // measure 44
0010
1000
0010
0100
0001
1000
0010
0100
,  // measure 45
0001
1000
0010
1000
0001
1000
0010
0100
,  // measure 46
0001
0100
0010
1000
0001
0100
0001
1000
,  // measure 47
0010
0100
0001
0000
0000
1000
0100
0010
,  // measure 48
0001
0100
0010
1000
0100
0010
0001
0100
,  // measure 49
0010
1000
0100
0010
0001
0100
0010
1000
,  // measure 50
0001
0100
0010
1000
0001
0100
0010
1000
,  // measure 51
0001
0100
0010
1000
0001
1000
0010
1000
,  // measure 52
0001
1000
0010
1000
0001
0100
0010
0100
,  // measure 53
0001
0100
0010
0100
0001
1000
0010
1000
,  // measure 54
0010
0100
0001
1000
0001
0100
0010
1000
,  // measure 55
0001
0100
0001
1000
0001
0010
0100
1000
,  // measure 56
0001
0100
0001
0010
0001
0100
0010
1000
,  // measure 57
0001
1000
0010
0100
0001
0000
1000
0010
,  // measure 58
1000
0000
0010
0100
0010
0000
0100
0000
0001
0000
0000
0000
1000
0000
1000
0000
,  // measure 59
0010
0000
0100
0010
0100
0000
0010
0000
1000
0000
0000
0000
0001
0000
0100
0000
,  // measure 60
0100
0000
0001
0100
0001
0000
0100
0000
0010
0000
0000
0000
0010
0000
1000
0000
,  // measure 61
0010
0000
1000
0010
1000
0010
1000
0000
0001
0000
0000
0000
1001
0000
0000
0000
,  // measure 62
1000
0010
0100
0100
0001
0000
0100
0000
,  // measure 63
0010
1000
0001
1000
0010
0000
0100
0000
,  // measure 64
0001
0010
0100
1000
0010
0100
0001
0000
,  // measure 65
1000
0000
0010
0100
0010
0100
0010
0100
0010
0000
1000
0000
0001
0000
1000
0020
,  // measure 66
0000
0000
0000
0000
0130
0000
0000
0000
0001
0000
1000
0000
0001
0000
1000
0002
,  // measure 67
0000
0000
0103
0000
0101
0000
0001
1000
,  // measure 68
1000
0000
0010
0100
0100
0000
0001
1000
,  // measure 69
1000
0000
0010
0000
0100
0010
0100
0010
,  // measure 70
1000
1000
0001
0000
0100
0010
1000
0001
,  // measure 71
0100
0100
0000
0000
0001
1000
0001
0100
,  // measure 72
0010
0100
0010
1000
0001
1000
0010
0100
,  // measure 73
0010
1000
0001
1000
1001
0000
1001
0000
,  // measure 74
0110
0110
1010
1010
,  // measure 75
0101
0000
0101
0000
0010
1000
0100
0010
,  // measure 76
0001
1000
0010
0100
0110
0000
0110
0000
,  // measure 77
1001
0000
1001
0000
0100
0010
0001
0000
,  // measure 78
1000
0010
1000
0000
0001
0100
0001
0100
,  // measure 79
0010
1000
0010
0000
0100
0001
1000
0001
,  // measure 80
0100
0010
1000
0001
1000
0010
0100
0001
,  // measure 81
1000
0001
1000
0001
2002
0000
0000
0000
,  // measure 82
0000
0000
0000
0000
,  // measure 83
0000
0000
0000
0000
,  // measure 84
0000
0000
0000
3003
;
