#TITLE:Cosmology;
#SUBTITLE:;
#ARTIST:RIC;
#TITLETRANSLIT:;
#SUBTITLETRANSLIT:;
#ARTISTTRANSLIT:;
#GENRE:;
#CREDIT:SupremeX;
#BANNER:Cosmology.png;
#BACKGROUND:Cosmology-bg.png;
#LYRICSPATH:;
#CDTITLE:CDTitle.png;
#MUSIC:Cosmology.ogg;
#OFFSET:-0.009887;
#SAMPLESTART:71.139999;
#SAMPLELENGTH:12.000000;
#SELECTABLE:YES;
#BPMS:0.000000=145.000000
;
#STOPS:
;
#BGCHANGES:20.000=bubble2.avi=1.000=0=0=1=====,
28.000=dance6.avi=1.000=0=0=1=====,
36.000=cyber2.avi=1.000=0=0=1=====,
44.000=bubble1r.avi=1.000=0=0=1=====,
52.000=fireworks2.avi=1.000=0=0=1=====,
60.000=robot5.avi=1.000=0=0=1=====,
68.000=robot8.avi=1.000=0=0=1=====,
76.000=robot9.avi=1.000=0=0=1=====,
84.000=robot10.avi=1.000=0=0=1=====,
92.000=robot8.avi=1.000=0=0=1=====,
100.000=bubble1r.avi=1.000=0=0=1=====,
116.000=fireworks2.avi=1.000=0=0=1=====,
132.000=bubble1r.avi=1.000=0=0=1=====,
148.000=fireworks2.avi=1.000=0=0=1=====,
164.000=Cosmology-bg.png=1.000=0=0=1=====,
168.000=cube13.avi=1.000=0=0=1=====,
172.000=bubble2.avi=1.000=0=0=1=====,
188.000=dance6.avi=1.000=0=0=1=====,
204.000=cyber2.avi=1.000=0=0=1=====,
212.000=robot5.avi=1.000=0=0=1=====,
220.000=robot8.avi=1.000=0=0=1=====,
228.000=robot9.avi=1.000=0=0=1=====,
236.000=robot10.avi=1.000=0=0=1=====,
252.000=bubble2.avi=1.000=0=0=1=====,
268.000=Cosmology-bg.png=1.000=0=0=1=====,
99999=-nosongbg-=1.000=0=0=0 // don't automatically add -songbackground-
;
#KEYSOUNDS:;
#ATTACKS:;

//---------------dance-single - ----------------
#NOTES:
     dance-single:
     :
     Beginner:
     2:
     0.118421,0.143143,0.017092,0.017092,0.000000,97.000000,95.000000,2.000000,2.000000,0.000000,0.000000,0.118421,0.143143,0.017092,0.017092,0.000000,97.000000,95.000000,2.000000,2.000000,0.000000,0.000000:
0000
0000
0000
0000
,
0000
0000
0000
0000
,
0000
0000
0000
0000
,
0000
0000
0000
0000
,
0000
0000
0000
0000
,
0100
0000
0000
0000
,
0010
0000
0000
0000
,
0100
0000
0000
0000
,
0010
0000
0000
0000
,
1000
0000
0001
0000
,
1000
0000
0001
0000
,
0100
0000
0010
0000
,
0100
0000
0010
0000
,
0001
0000
0000
0000
,
0001
0000
0000
0000
,
1000
0000
0000
0000
,
1000
0000
0000
0000
,
0200
0000
0000
0000
,
0000
0000
0000
0000
0000
0300
0000
0000
,
0020
0000
0000
0000
,
0000
0000
0000
0000
0000
0030
0000
0000
,
1000
0000
0000
0000
,
1000
0000
0000
0000
,
0001
0000
0000
0000
,
0000
0010
0000
0000
,
0100
0000
0010
0000
,
0100
0000
1000
0000
,
0001
0000
0000
0000
,
0000
0000
0000
0000
,
0100
0000
0000
0000
,
0010
0000
0000
0000
,
1000
0000
0000
0000
,
0001
0000
0000
0000
,
0100
0000
1000
0000
,
0100
0000
0010
0000
,
0001
0000
0010
0000
,
0100
0000
1000
0000
,
0001
0000
1000
0000
,
0001
0000
1000
0000
,
0100
0000
0010
0000
,
0100
0000
0000
0000
,
1001
0000
0000
0000
,
0000
0000
0000
0000
,
0010
0000
1000
0000
,
0010
0000
1000
0000
,
0100
0000
0001
0000
,
0100
0000
0001
0000
,
0010
0000
1000
0000
,
0010
0000
1000
0000
,
0100
0000
0001
0000
,
0100
0000
0001
0000
,
1000
0000
0001
0000
,
1000
0000
0001
0000
,
0100
0000
0010
0000
,
0100
0000
0010
0000
,
0001
0000
0100
0000
,
0001
0000
0100
0000
,
1000
0000
0010
0000
,
1000
0000
0010
0000
,
0100
1000
0000
0000
,
0001
0010
0000
0000
,
1000
0010
0000
0000
,
0100
0001
0000
0000
,
0010
1000
0000
0000
,
0010
0100
0000
0000
,
0010
0001
0000
0000
,
1000
0000
0000
0000
,
1001
0000
0000
0000
;

//---------------dance-single - ----------------
#NOTES:
     dance-single:
     :
     Easy:
     4:
     0.216088,0.265348,0.008546,0.119642,0.000000,177.000000,176.000000,1.000000,14.000000,0.000000,0.000000,0.216088,0.265348,0.008546,0.119642,0.000000,177.000000,176.000000,1.000000,14.000000,0.000000,0.000000:
0000
0000
0000
0000
,
0000
0000
0000
0000
,
0000
0000
0000
0000
,
0000
0000
0000
0000
,
0000
0000
0000
0000
,
0100
0001
0100
0001
,
1000
0100
0010
0001
,
1000
1000
0001
0001
,
0100
0010
0100
0010
,
1000
0001
1000
0010
,
0100
0001
1000
0010
,
0100
0001
0010
0100
,
1000
0001
0100
0010
,
1000
0100
0010
0001
,
0100
0010
1000
0001
,
0100
0010
1000
0001
,
0010
0100
1000
0001
,
0200
0000
0000
0300
,
0002
0000
0000
0000
0000
0000
0000
0003
,
2000
0000
0000
3000
,
0200
0000
0000
0300
,
0001
1000
0000
0000
,
1000
0010
0000
0000
,
0100
0001
0000
0000
,
0001
0010
0000
0000
,
1000
0000
0001
0000
,
0100
0000
1000
0000
,
0020
0000
0000
0000
,
0000
0000
0000
0000
0000
0030
0000
0000
,
1000
0000
0100
0000
,
0010
0000
0001
0000
,
0200
0000
0000
0000
,
0000
0000
0000
0300
,
0001
1000
0001
1000
,
0010
0100
0010
1000
,
0002
0100
0000
0100
,
0000
0103
0000
1000
,
0001
0100
0010
1000
,
0001
0100
0010
0001
,
2000
0000
0001
0000
,
0001
0000
0001
3000
,
0001
0000
0000
0000
,
0000
0000
0000
0000
,
0100
1000
0010
0100
,
0001
0010
1000
0100
,
0100
0010
0010
0001
,
1000
0001
1000
0010
,
0100
0001
1000
0010
,
0100
0001
0100
0010
,
1000
0010
0100
0001
,
1000
0001
0010
0100
,
1000
0001
0010
0001
,
0100
0010
0100
1000
,
0100
0010
0001
0001
,
0010
1000
0001
0001
,
1000
0010
1000
1000
,
0010
0100
0001
0001
,
0100
0010
1000
1000
,
0001
0100
0010
1000
,
0002
0000
0000
0000
0000
0000
0000
0003
,
2000
0000
0000
0000
0000
0000
0000
3000
,
0200
0000
0000
0000
0000
0000
0000
0300
,
0020
0000
0000
0030
,
0001
1000
0000
0010
,
0000
1000
0000
0001
,
0000
0100
0000
0010
,
1000
0001
0100
0010
,
2002
0000
0000
0000
,
0000
0000
0000
0000
,
3003
0000
0000
0000
;

//---------------dance-single - Copied from----------------
#NOTES:
     dance-single:
     Copied from:
     Medium:
     6:
     0.286896,0.383281,0.025638,0.222192,0.000000,235.000000,232.000000,3.000000,26.000000,0.000000,0.000000,0.286896,0.383281,0.025638,0.222192,0.000000,235.000000,232.000000,3.000000,26.000000,0.000000,0.000000:
0000
0000
0000
0000
,
0000
0000
0000
0000
,
0000
0000
0000
0000
,
0000
0000
0000
0000
,
0000
0000
0000
0000
,
0100
0010
1000
0000
0001
0100
0001
0000
,
1000
0010
0100
0001
,
1000
0010
1000
0000
0001
0000
0001
0000
,
0100
0010
0001
0000
1000
0000
1000
0000
,
0001
0000
0100
0000
0010
1000
0010
0000
,
0100
0000
0001
0000
0010
0001
0010
0000
,
0100
0000
1000
0000
0010
0100
0001
0000
,
1000
0000
0010
0000
1000
0100
0010
0000
,
0100
0000
0001
0000
1000
0001
0100
0000
,
0001
0000
1000
0000
0010
0100
0001
0000
,
1000
0000
0010
0000
0100
0001
1000
0000
,
0010
1010
0001
0101
,
2000
0000
0000
3000
,
0002
0000
0000
0000
0000
0000
0000
0003
,
0200
0000
0000
0300
,
0020
0000
0000
0030
,
1000
0001
0001
1000
,
0010
0100
0100
0010
,
1000
0001
1000
1000
,
0010
0100
0001
1000
,
2000
0000
3020
0000
,
0230
0000
0000
0300
0002
0000
0000
0003
,
2000
0000
0000
0000
,
0000
0000
0000
0000
0000
3000
0000
0000
,
0020
0000
0000
0000
0230
0000
0000
0300
,
0002
0000
0000
0003
2000
0000
0000
3000
,
0020
0000
0000
0000
,
0000
0000
0000
0000
0000
0030
0000
0000
,
2000
0000
0000
3000
0020
0000
0000
0030
,
0200
0000
0000
0300
0002
0000
0000
0003
,
2000
0000
0000
0000
,
0000
3000
0000
0000
,
0020
0000
0000
0030
0200
0000
0000
0300
,
0002
0000
0000
0003
2000
0000
0000
3000
,
0002
0100
0100
0100
,
0100
0100
0100
0100
,
0103
0000
0000
0000
,
0000
0000
0000
0000
,
0010
0000
0100
0000
0010
1000
0001
0000
,
0100
0000
0010
0000
0100
0001
1000
0000
,
0010
0000
0100
0000
0001
1000
0001
0000
,
0100
0000
0010
0000
1000
0001
0100
0000
,
0010
0000
0001
0000
1000
0100
0010
0000
,
0001
0000
0100
0000
0010
1000
0001
0000
,
0100
0000
0010
0000
1000
0001
0100
0000
,
0010
0000
0001
0000
0100
0001
0100
0000
,
0001
0000
1000
0000
0010
1000
0010
0000
,
0100
0000
0001
0000
1000
0100
0010
0000
,
0001
0000
0100
0000
0010
1000
0010
0000
,
0100
0000
0001
0000
1000
0001
1000
0000
,
0010
0100
0010
0000
1000
0010
1000
0000
,
0001
0100
0001
0000
0100
0010
0100
0000
,
0001
0010
0100
0000
1000
0010
0100
0000
,
0001
0010
0100
0000
1000
0010
0100
0000
,
0001
0000
0001
0000
1000
0100
1000
0000
,
0100
0000
0100
0000
0001
0010
0001
0000
,
1000
0000
0001
0000
0100
0010
0100
0000
,
0001
0000
1000
0000
0010
0100
0010
0000
,
1000
0000
0010
0000
0100
0001
0010
0000
,
0001
0000
0100
0000
0010
1000
0100
0000
,
0001
0000
0010
0000
1000
0010
0100
0000
,
0001
0000
1000
0000
0001
0100
0010
0000
,
2002
0000
0000
0000
,
0000
0000
0000
0000
,
3003
0000
0000
0000
;

//---------------dance-single - Copied from----------------
#NOTES:
     dance-single:
     Copied from:
     Hard:
     8:
     0.399213,0.504845,0.128188,0.282013,0.000000,327.000000,312.000000,15.000000,33.000000,0.000000,0.000000,0.399213,0.504845,0.128188,0.282013,0.000000,327.000000,312.000000,15.000000,33.000000,0.000000,0.000000:
0000
0000
0000
0000
,
0000
0000
0000
0000
,
0000
0000
0000
0000
,
0000
0000
0000
0000
,
0000
0000
0000
0000
,
0100
0000
0001
0000
1000
0100
1000
0000
,
0001
0000
0100
0000
0001
1000
0001
0000
,
1000
0100
0010
0000
0001
0010
0100
0000
,
1000
0010
0100
0010
1000
0010
0100
0000
,
0001
1000
0001
0100
0001
1000
0001
0000
,
1000
0100
0010
0100
1000
0100
0010
0000
,
0001
0010
0100
0010
0001
0010
0100
0000
,
1000
0100
1000
0001
0100
0001
1000
0000
,
0001
0010
0100
1000
0001
0100
0001
0000
,
1000
0100
0010
0001
0010
0100
0010
0000
,
0200
0000
0000
0000
0320
0000
0000
0030
,
2002
0000
0000
3003
,
0001
0000
0100
0000
0001
1000
0010
0000
,
1000
0000
0001
0000
0100
0010
0100
0000
,
0001
1000
0010
0000
1000
0001
0100
0000
,
0001
0010
0100
0000
1000
0100
0010
0000
,
0002
0100
0100
0103
,
2000
0100
0100
3100
,
0020
0100
0100
0130
,
0200
0001
0001
0301
,
2000
0100
3002
0100
,
2003
0010
3020
1000
,
0230
0001
0000
0300
,
0002
0000
0000
0003
,
0020
0100
0230
1000
,
2300
0100
3200
0010
,
0320
0001
0000
0000
,
0000
0030
0000
0000
,
0001
1000
0100
0001
,
0100
1000
0010
0001
,
0010
1000
0100
0001
,
0100
0100
0010
0010
,
1001
0100
0101
1000
,
1100
0010
0110
0001
,
0202
0303
0220
0330
,
2020
3030
0220
0330
,
2002
0000
0000
3003
,
0220
0000
0000
0330
,
1000
0010
0100
0000
0001
1000
0010
0000
,
1000
0100
1000
0000
0010
0100
0010
0000
,
1000
0010
0100
0000
0001
0100
0010
0000
,
1000
0001
1000
0000
0010
0100
0010
0000
,
1000
0001
0100
0000
0010
0100
0001
0000
,
1000
0001
0010
0000
0100
1000
0100
0000
,
0010
0001
0010
0000
0100
1000
0001
0000
,
0100
0010
1000
0000
0001
0010
0100
0000
,
1000
0100
0010
0001
0010
0100
0010
0000
,
1000
0001
0100
0010
1000
0001
0100
0000
,
0001
0010
0100
1000
0010
0100
0010
0000
,
1000
0010
0100
0001
1000
0010
0100
0000
,
0001
0010
0100
1000
0100
0010
0100
0000
,
1000
0010
0100
0010
0100
0001
0100
0000
,
0001
0010
0100
0010
0100
1000
0100
0000
,
1000
0100
0010
0001
0010
0100
0001
0100
,
0010
0000
1000
0000
0010
1000
0010
0000
,
0100
0000
0101
0000
0010
0100
0010
0000
,
1000
0000
1100
0000
0010
0001
0010
0000
,
1000
0000
1010
0000
0001
0010
0100
0000
,
1000
0100
0010
0001
0100
0010
0010
0000
,
1000
0001
0100
0010
1000
0100
0100
0000
,
0010
0001
0010
0100
1000
0010
0010
0000
,
1000
0001
0100
0010
0100
0001
1000
0010
,
0220
0000
0000
0000
,
0000
0000
0000
0000
,
0000
0000
0330
0000
;
