#TITLE:Break Your World;
#SUBTITLE:;
#ARTIST:RAM;
#TITLETRANSLIT:;
#SUBTITLETRANSLIT:;
#ARTISTTRANSLIT:;
#CREDIT:SupremeX;
#BANNER:Break Your World.png;
#BACKGROUND:Break Your World-bg.png;
#LYRICSPATH:;
#CDTITLE:CDTitle.png;
#MUSIC:Break Your World.ogg;
#OFFSET:0.060;
#SAMPLESTART:76.880;
#SAMPLELENGTH:12.000;
#SELECTABLE:YES;
#BPMS:0.000=175.000;
#STOPS:;
#BGCHANGES:16.500=wave2.avi=1.000=0=0=1,
32.500=beads1.avi=1.000=0=0=1,
48.500=colors1.avi=1.000=0=0=1,
64.500=square2.avi=1.000=0=0=1,
88.000=colors4.avi=1.000=0=0=1,
92.500=Break Your World-bg.png=1.000=0=0=1,
96.500=cards5.avi=1.000=0=0=1,
104.500=stairs1.avi=1.000=0=0=1,
112.500=cards5.avi=1.000=0=0=1,
120.500=stairs1.avi=1.000=0=0=1,
128.500=colors1.avi=1.000=0=0=1,
136.500=stairs1.avi=1.000=0=0=1,
144.500=colors1.avi=1.000=0=0=1,
152.500=wave2.avi=1.000=0=0=1,
160.500=wave3.avi=1.000=0=0=1,
192.500=beads1.avi=1.000=0=0=1,
208.500=wave3.avi=1.000=0=0=1,
220.500=Break Your World-bg.png=1.000=0=0=1,
224.500=colors1.avi=1.000=0=0=1,
240.500=beads1.avi=1.000=0=0=1,
256.500=square2.avi=1.000=0=0=1,
280.000=colors4.avi=1.000=0=0=1,
284.500=Break Your World-bg.png=1.000=0=0=1,
288.500=stairs1.avi=1.000=0=0=1,
296.000=wave2.avi=1.000=0=0=1,
304.500=stairs1.avi=1.000=0=0=1,
312.500=colors1.avi=1.000=0=0=1,
328.500=colors4.avi=1.000=0=0=1,
336.500=Break Your World-bg.png=1.000=0=0=1,
99999=-nosongbg-=1.000=0=0=0 // don't automatically add -songbackground-
;

//---------------dance-single - ----------------
#NOTES:
     dance-single:
     :
     Hard:
     8:
     0.475,0.542,0.000,0.378,0.088: // measure 1
0000
0000
0000
0000
,  // measure 2
0000
0000
0000
0000
,  // measure 3
0000
0000
0000
0000
,  // measure 4
0000
0000
0000
0000
,  // measure 5
0000
2000
0000
0000
0000
0000
0000
3000
,  // measure 6
0000
0002
0000
0000
0000
0000
0000
0003
,  // measure 7
0000
2000
0000
0100
0000
0100
0000
3100
,  // measure 8
0000
0200
0000
0000
0000
0000
0000
0300
,  // measure 9
0000
0000
1000
0000
0000
1000
0000
0000
0020
0000
0000
0000
0000
0000
0130
0000
,  // measure 10
0000
0000
0100
0000
0000
0001
0000
0000
0002
0000
0000
0000
0000
0000
0013
0000
,  // measure 11
0000
0000
0010
0000
0000
0100
0000
0000
2000
0000
0000
0000
0000
0000
3010
0000
,  // measure 12
0000
0000
0010
0000
0000
0100
0000
0000
0020
0000
0000
0000
0000
0000
0130
0000
,  // measure 13
0000
0000
0100
0000
0000
0001
0000
0000
2000
0000
0000
0000
0000
0000
3100
0000
,  // measure 14
0000
0000
0100
0000
0000
0010
0000
0000
0002
0000
0000
0000
0000
0000
1003
0000
,  // measure 15
0000
0000
0100
0000
0000
1000
0000
0000
0200
0000
0000
0000
0000
0000
1300
0000
,  // measure 16
0000
0000
0100
0000
0000
0010
0000
0000
0002
0000
0000
0000
0000
0000
0013
0000
,  // measure 17
0000
0001
0000
0020
0000
0000
0130
0000
,  // measure 18
0000
0100
0000
2000
0000
0000
3100
0000
,  // measure 19
0000
0100
0000
0200
0000
0000
1300
0000
,  // measure 20
0000
0100
0000
0020
0000
0000
0031
0000
,  // measure 21
0000
0001
0000
0200
0000
0000
0310
0000
,  // measure 22
0000
0010
0000
2000
0000
0000
3100
0000
,  // measure 23
0001
0000
0100
0000
0000
0100
0000
0000
0010
0000
1000
0000
0000
1000
0000
0000
,  // measure 24
0010
0200
0000
0000
0000
0000
0000
0000
,  // measure 25
0300
0010
0010
0000
0100
0100
0000
0000
,  // measure 26
0000
0001
0001
0000
1000
0000
0100
0100
,  // measure 27
0000
1000
0010
1000
0000
0001
0100
0001
,  // measure 28
0000
1000
0100
1000
0100
0010
0001
0010
,  // measure 29
0100
1000
0000
1000
0000
0010
0100
0010
,  // measure 30
0000
1000
0001
1000
0000
0010
0100
0010
,  // measure 31
0000
1000
0100
0010
0001
0010
0100
1000
,  // measure 32
0100
0010
0100
1000
0001
0100
0001
1000
,  // measure 33
0000
0100
0000
1000
0000
0100
0000
0100
,  // measure 34
0000
0010
0000
0001
0000
0001
0000
1000
,  // measure 35
0000
0100
1000
0100
0010
0100
1000
0100
,  // measure 36
0000
0010
0001
0010
0100
0010
0001
0010
,  // measure 37
0000
0100
0000
0100
0000
1000
0001
1000
,  // measure 38
0000
0100
0000
0100
0000
0010
0001
0010
,  // measure 39
0000
0100
1000
0100
0010
0001
0010
0100
,  // measure 40
0000
1000
0010
1000
0010
0100
0001
0100
,  // measure 41
0000
0020
0000
0000
0000
0000
0000
0000
,  // measure 42
0000
0130
0000
0000
0000
0200
0000
0000
,  // measure 43
0000
0301
0000
0000
0000
0002
0000
0000
,  // measure 44
0000
1003
0000
0000
0000
2000
0000
0000
,  // measure 45
0000
3100
0000
0000
0000
0200
0000
0000
,  // measure 46
0000
1300
0000
0000
0000
0020
0000
0000
,  // measure 47
0000
0130
0000
0000
0001
0000
0001
0000
,  // measure 48
0000
2000
0000
0000
3100
0000
0100
0000
,  // measure 49
0000
0020
0000
0000
0031
0000
0001
0000
,  // measure 50
0000
0200
0000
0000
0310
0000
0010
0000
,  // measure 51
0000
0002
0000
0000
0103
0000
0100
0000
,  // measure 52
0000
0020
0000
0000
1030
0000
1000
0000
,  // measure 53
0000
0200
0000
0000
1300
0000
1000
0000
,  // measure 54
0000
0002
0000
0000
0103
0000
0100
0000
,  // measure 55
0000
0010
1000
0001
1000
0010
0100
0001
,  // measure 56
0100
0020
0000
0000
0000
0000
0000
0000
,  // measure 57
0030
0000
1000
0000
0000
1000
0000
0000
1000
0000
0000
0000
0100
0000
0010
0000
,  // measure 58
0001
0000
0100
0000
0000
0100
0000
0000
0100
0000
0000
0000
0001
0000
0010
0000
,  // measure 59
0100
0000
0010
0000
0000
0010
0000
0000
0010
0000
0000
0000
1000
0000
0001
0000
,  // measure 60
1000
0000
0100
0000
0000
0100
0000
0000
0100
0000
0000
0000
1000
0000
0001
0000
,  // measure 61
0100
0000
0010
0000
0000
0010
0000
0000
0010
0000
0000
0000
1000
0000
0001
0000
,  // measure 62
0100
0000
0001
0000
0000
0001
0000
0000
0001
0000
0000
0000
1000
0000
0010
0000
,  // measure 63
0100
0000
1000
0000
0000
1000
0000
0000
1000
0000
0000
0000
0100
0000
0010
0000
,  // measure 64
0001
0000
0100
0000
0001
0000
0000
0001
0000
0000
0000
0000
1000
0000
0100
0000
,  // measure 65
1000
0000
0100
0000
0000
0100
0000
0000
1000
0000
0001
0000
1000
0000
0000
0000
,  // measure 66
0000
0200
0000
2300
0000
0000
3100
0000
,  // measure 67
0000
0200
0000
0320
0000
0000
0031
0000
,  // measure 68
0000
0002
0000
0023
0000
0000
0130
0000
,  // measure 69
0000
0200
0000
2300
0000
0000
3100
0000
,  // measure 70
0000
0200
0000
0320
0000
0000
0031
0000
,  // measure 71
0000
1000
0000
0100
0000
0010
0000
0001
,  // measure 72
0000
0200
0000
0000
0000
0000
0000
0000
,  // measure 73
0000
0310
1000
0010
0100
0001
0100
0010
,  // measure 74
0000
1000
0001
1000
0000
0010
0100
0010
,  // measure 75
0000
1000
0100
1000
0100
0010
0001
1000
,  // measure 76
0000
0010
0100
0010
0100
0001
1000
0001
,  // measure 77
0000
1000
0100
0010
0000
0001
0001
0001
,  // measure 78
0000
0010
0100
0010
0000
1000
1000
1000
,  // measure 79
0000
0100
0010
0001
0000
0100
0010
0100
,  // measure 80
0000
0001
0010
0100
0000
1000
0100
1000
,  // measure 81
0000
0001
0100
0001
0000
1000
1000
1000
,  // measure 82
0000
0010
0100
0010
0000
0100
0100
0100
,  // measure 83
0000
0000
0001
0000
0000
0010
0000
0000
0100
0000
0100
0000
0000
1000
0000
0000
,  // measure 84
0001
1000
0000
0010
0000
1000
0000
0001
,  // measure 85
0000
2000
0000
0000
0000
0000
0000
0000
,  // measure 86
0000
0000
0000
0000
,  // measure 87
0000
3000
0000
0000
0000
0000
0000
0000
;

//---------------dance-single - ----------------
#NOTES:
     dance-single:
     :
     Easy:
     4:
     0.278,0.433,0.084,0.159,0.000:
0000
0000
0000
0000
,
0000
0000
0000
0000
,
0000
0000
0000
0000
,
0000
0000
0000
0000
,
0000
1000
0000
0000
0000
0010
0000
0000
,
0000
0100
0000
0000
0000
0001
0000
0000
,
0000
1000
0000
0000
0000
0010
0000
0000
,
0000
0100
0000
0000
0000
0001
0000
0000
,
0000
1000
0000
0010
0000
0100
0000
0000
,
0000
0001
0000
0010
0000
0001
0000
0000
,
0000
1000
0000
0010
0000
1000
0000
0000
,
0000
0100
0000
0010
0000
1000
0000
0000
,
0000
0010
0000
0100
0000
0010
0000
0000
,
0000
0001
0000
0010
0000
0001
0000
0000
,
0000
1000
0000
0100
0000
1000
0000
0000
,
0000
0010
0000
0100
0000
0010
0000
0010
,
0000
0001
0000
0010
0000
1000
0000
0010
,
0000
0100
0000
0100
0000
0100
0000
0001
,
0000
0010
0000
1000
0000
1000
0000
0010
,
0000
0100
0000
0001
0000
0001
0000
0010
,
0000
1000
0000
1000
0000
0010
0000
0100
,
0000
0001
0000
0001
0000
0010
0000
1000
,
0000
0100
0000
0100
0000
0010
0000
0001
,
0000
2002
0000
0000
0000
0000
0000
3003
,
0000
0010
0000
0000
0000
1000
0000
0000
,
0000
0001
0000
0000
0000
0100
0000
0000
,
0000
0010
0000
0000
0000
1000
0000
0000
,
0000
0010
0000
0000
0000
0100
0000
1000
,
0000
0001
0000
0001
0000
0100
0000
0100
,
0000
0010
0000
0010
0000
1000
0000
1000
,
0000
0010
0000
0100
0000
0001
0000
1000
,
0000
0010
0000
0100
0000
1000
0000
0100
,
0000
0010
0000
0001
0000
0001
0000
0000
,
0000
0010
0000
1000
0000
1000
0000
0010
,
0000
0100
0000
0001
0000
0010
0000
1000
,
0000
0010
0000
0010
0000
0100
0000
0001
,
0000
1001
0000
1001
0000
0010
0000
0010
,
0000
1010
0000
1010
0000
0010
0000
0010
,
0000
0100
0000
0000
0000
0001
0000
0000
,
0000
1000
0000
0000
0000
0010
0000
0000
,
0000
0002
0000
0000
0000
0000
0000
0000
,
0000
0000
0000
0000
0000
0000
0000
0003
,
0000
2000
0000
0000
0000
0000
0000
0000
,
0000
0000
0000
3000
,
0000
0200
0000
0000
0000
0000
0000
0000
,
0000
0000
0000
0300
,
0000
0020
0000
0000
0000
0000
0000
0000
,
0000
0030
0000
0000
,
0000
1000
0000
0000
0000
0001
0000
0000
,
0000
1000
0000
0000
0000
0001
0000
0000
,
0000
1000
0000
0000
0000
0001
0000
0000
,
0000
1000
0000
0000
0000
0001
0000
0000
,
0200
0000
0000
0000
0000
0000
0000
0300
,
0000
0020
0000
0000
0000
0000
0000
0030
,
0000
1000
0000
0000
0000
0001
0000
0000
,
0000
0200
0000
0000
0000
0000
0000
0300
,
0000
1000
0000
0000
0000
0001
0000
0000
,
0000
0100
0000
0000
0000
1000
0000
0000
,
0000
0010
0000
0000
0000
0100
0000
0000
,
0000
0001
0000
0000
0000
1000
0000
0000
,
0000
0010
0000
0010
0000
0100
0000
0100
,
0000
0001
0000
0001
0000
1000
0000
1000
,
0000
0010
0000
0100
0000
0001
0000
1000
,
0000
0010
0000
0100
0000
0100
0000
0100
,
0000
0010
0000
0010
0000
0010
0000
0010
,
0000
1000
0000
1000
0000
1000
0000
1000
,
0000
0010
0000
0100
0000
0000
0000
0001
,
0000
0000
0000
1000
0000
0000
0000
0010
,
0000
0100
0000
0100
0000
0010
0000
0001
,
0000
0010
0000
0010
0000
1000
0000
1000
,
0000
0010
0000
0000
0000
0100
0000
0000
,
0000
0001
0000
1000
0000
0010
0000
0100
,
0000
2002
0000
0000
0000
0000
3003
0000
,
0000
0220
0000
0000
0000
0000
0330
0000
,
0000
2002
0000
0000
0000
0000
3003
0000
,
0000
0220
0000
0000
0000
0000
0330
0000
,
0000
1000
0000
0000
0000
0001
0000
0000
,
0000
1000
0000
0000
0000
0010
0000
0000
,
0000
0100
0000
0000
0000
0001
0000
0000
,
0000
1000
0000
0000
0000
0010
0000
0000
,
0000
0100
0000
0000
0000
0010
0000
0000
,
0000
1000
0000
0000
0000
1000
0000
0000
,
0000
0010
0000
0000
0000
0010
0000
0000
,
0000
0100
0000
0000
0000
0001
0000
0000
,
0000
2002
0000
0000
0000
0000
0000
0000
,
0000
0000
0000
0000
,
3003
0000
0000
0000
;

//---------------dance-single - Copied from----------------
#NOTES:
     dance-single:
     Copied from:
     Beginner:
     2:
     0.111,0.141,0.000,0.084,0.000:
0000
0000
0000
0000
,
0000
0000
0000
0000
,
0000
0000
0000
0000
,
0000
0000
0000
0000
,
0000
0020
0000
0000
0000
0000
0000
0000
,
0000
0000
0000
0000
,
0000
0000
0000
0000
,
0030
0000
0000
0000
,
0000
1000
0000
0000
0000
0001
0000
0000
,
0000
0100
0000
0000
0000
0010
0000
0000
,
0000
1000
0000
0000
0000
0001
0000
0000
,
0000
0100
0000
0000
0000
0010
0000
0000
,
0000
1000
0000
0000
0000
0010
0000
0000
,
0000
0100
0000
0000
0000
0001
0000
0000
,
0000
1000
0000
0000
0000
0010
0000
0000
,
0000
0100
0000
0000
0000
0001
0000
0000
,
0000
0010
0000
0000
0000
1000
0000
0000
,
0000
0001
0000
0000
0000
0100
0000
0000
,
0000
0001
0000
0000
0000
0010
0000
0000
,
0000
1000
0000
0000
0000
0100
0000
0000
,
0000
0010
0000
0000
0000
0100
0000
0000
,
0000
0010
0000
0000
0000
0100
0000
0000
,
0000
0001
0000
0000
0000
1000
0000
0000
,
0000
0002
0000
0000
0000
0000
0000
0000
,
0003
1000
0000
0000
,
0000
0001
0000
0000
0000
0000
0000
0000
,
0000
1000
0000
0000
0000
0000
0000
0000
,
0000
0001
0000
0000
0000
0000
0000
0000
,
0000
0000
0000
0000
,
0000
0010
0000
0000
0000
0000
0000
0000
,
0000
0000
0000
1000
0000
0000
0000
0000
,
0000
0001
0000
0000
0000
0000
0000
0000
,
0000
1000
0000
0000
0000
0000
0000
0000
,
0000
0010
0000
0000
0000
0000
0000
0000
,
0000
0100
0000
0000
0000
0000
0000
0000
,
0000
0001
0000
0000
0000
0000
0000
0000
,
0000
1000
0000
0000
0000
0000
0000
0000
,
0000
1000
0000
0000
0000
0000
0000
0000
,
0000
0010
0000
0000
0000
0000
0000
0000
,
0000
0000
0000
0000
,
0000
0020
0000
0000
0000
0000
0000
0000
,
0000
0030
0000
0000
,
0000
2000
0000
0000
0000
0000
0000
0000
,
0000
0000
3000
0000
,
0000
0200
0000
0000
0000
0000
0000
0000
,
0000
0000
0300
0000
,
0002
0000
0000
0000
,
0000
0000
0000
0003
0000
0000
0000
0000
,
0000
1000
0000
0000
0000
0000
0000
0000
,
0000
0010
0000
0000
0000
0000
0000
0000
,
0000
0100
0000
0000
0000
0000
0000
0000
,
0000
0001
0000
0000
0000
0000
0000
0000
,
0000
1000
0000
0000
0000
0000
0000
0000
,
0000
1000
0000
0000
0000
0000
0000
0000
,
0000
0100
0000
0000
0000
0000
0000
0000
,
0000
0020
0000
0000
0000
0000
0000
0000
,
0000
0030
0000
0000
0000
0000
0000
0000
,
0000
1000
0000
0000
0000
0000
0000
0000
,
0000
0001
0000
0000
0000
0000
0000
0000
,
0000
1000
0000
0000
0000
0000
0000
0000
,
0000
0001
0000
0000
0000
0000
0000
0000
,
0000
0100
0000
0000
0000
0000
0000
0000
,
0000
0010
0000
0000
0000
0000
0000
0000
,
0000
1000
0000
0000
0000
0000
0000
0000
,
0000
0010
0000
0000
0000
0000
0000
0000
,
0000
0000
0000
1000
0000
0000
0000
0000
,
0000
0000
0000
0001
0000
0000
0000
0000
,
0000
0000
0000
1000
0000
0000
0000
0000
,
0000
0010
0000
0010
0000
0010
0000
0000
,
0000
0000
0000
0000
,
0000
0000
0000
0000
,
0000
0020
0000
0000
0000
0000
0000
0000
,
0000
0030
0000
0000
0000
0000
0000
0000
,
0000
1000
0000
0000
0000
0000
0000
0000
,
0000
0001
0000
0000
0000
0000
0000
0000
,
0000
1000
0000
0000
0000
0000
0000
0000
,
0000
0200
0000
0000
0000
0000
0000
0000
,
0000
0000
0000
0000
0000
0000
0000
0300
,
0000
0000
0000
0000
,
0000
0001
0000
0000
0000
0000
0000
0000
,
0000
0100
0000
0000
0000
0000
0000
0000
,
0000
0100
0000
0000
0000
0000
0000
0000
,
0000
0100
0000
0000
0000
0000
0000
0000
,
0000
0200
0000
0000
0000
0000
0000
0000
,
0000
0301
0000
0000
0000
0000
0000
0000
;

//---------------dance-single - Copied from----------------
#NOTES:
     dance-single:
     Copied from:
     Medium:
     6:
     0.392,0.397,0.059,0.050,0.008:
0000
0000
0000
0000
,
0000
0000
0000
0000
,
0000
0000
0000
0000
,
0000
0000
0000
0000
,
0000
1000
0000
0000
0000
0010
0000
0000
,
0000
0100
0000
0000
0000
0001
0000
0000
,
0000
1000
0000
0000
0000
0010
0000
0000
,
0000
1000
0000
0010
0000
0100
0000
0001
,
0000
1000
0000
0010
0000
0100
0000
0001
,
0000
0001
0000
0010
0000
1000
0000
1000
,
0000
0010
0000
0100
0000
0010
0000
1000
,
0000
0100
0000
0010
0000
0001
0000
0100
,
0000
0100
0000
0001
0000
0001
0000
0100
,
0000
0010
0000
0010
0000
1000
0000
0100
,
0000
0001
0000
0001
0000
0100
0000
0010
,
0000
1000
0000
0001
0000
0100
0000
1000
,
0000
0010
0000
0100
0000
0000
0110
0000
,
0000
1000
0000
0001
0000
0000
1001
0000
,
0000
0010
0000
0100
0000
0000
1010
0000
,
0000
0100
0000
0010
0000
0000
0101
0000
,
0000
0010
0000
0100
0000
0000
1010
0000
,
0000
0100
0000
0010
0000
0000
0101
0000
,
0000
1000
0000
0010
0000
0100
0000
0001
,
0000
2000
0000
0000
0000
0000
0000
3000
,
0000
0010
0000
0100
0000
0001
0000
0100
,
0000
0010
0000
1000
0000
0010
0000
0100
,
0000
0001
0000
0010
0000
0100
0000
1000
,
0000
0001
0000
0010
0000
0100
0000
1000
,
0000
0000
0001
0000
0001
0000
0000
0000
0100
0000
0000
0100
0000
0000
0000
0000
,
0000
0000
0010
0000
0010
0000
0000
0000
1000
0000
0000
1000
0000
0000
0000
0000
,
0000
0001
0000
0010
0000
0100
0000
1000
,
0000
0010
0000
1000
0000
0001
0100
0001
,
0000
1000
0000
0010
0000
0100
0001
0100
,
0000
0010
0000
1000
0000
0001
0100
0001
,
0000
1000
0000
0010
0000
1000
0000
0001
,
0000
0100
0010
1000
0001
0100
0010
1000
,
0000
0010
0000
0010
0000
0100
0001
0100
,
0000
0010
0000
0100
0000
0010
1000
0010
,
0000
0100
0000
1000
0000
0100
0000
0010
,
0000
0001
0000
0100
0000
0001
0000
1000
,
0000
0010
0000
0000
0000
0100
0000
0000
,
0000
1000
0000
0000
0000
0001
0000
0000
,
0000
1000
0000
1000
0000
0010
0000
0010
,
0000
0100
0000
0100
0000
0001
0000
0001
,
0000
1000
0000
0010
0000
1000
0000
0001
,
0000
0100
0000
0001
0000
0010
0000
0010
,
0000
1000
0000
0100
0000
0010
0000
0001
,
0000
0100
0000
0010
0000
1000
0000
0010
,
0000
1000
0000
0001
0000
0100
0000
0001
,
0000
0010
0000
0100
0000
1000
0000
0100
,
0000
0100
0000
0010
0000
0010
0000
0001
,
0000
0002
0000
0000
0000
0000
0003
0000
,
0000
1000
0000
0010
0000
0100
0000
0001
,
0000
0010
0000
1000
0000
0010
0000
0000
,
0000
0100
0010
1000
0000
0001
1000
0001
,
0000
0200
0000
0000
0000
0000
0000
0300
,
0000
1000
0000
0010
0000
0100
0010
1000
,
0000
0001
0000
0010
0000
0000
0100
0010
,
0000
1000
0000
0001
0000
0100
0000
0010
,
0000
1000
0000
0001
0000
0010
0000
0100
,
0000
1000
0000
0001
0100
0000
0010
1000
,
0000
0010
0000
0100
0000
0001
0000
1000
,
0000
0001
0000
1000
0000
0001
0000
0100
,
0000
0010
0000
1000
0010
0000
0100
0001
,
0000
1000
0000
0010
0000
1000
0000
0001
,
0000
0100
0000
0001
0000
1000
0000
0010
,
0000
0100
0000
0001
0000
1000
0000
0010
,
0000
1000
0000
0100
0000
0010
0000
0001
,
0000
0100
0010
0100
0000
0010
0000
1000
,
0000
0001
0000
0100
0000
0010
0000
1000
,
0000
0001
0100
0001
0000
1000
0000
0010
,
0000
0200
0000
0000
0000
0000
0000
0300
,
0000
0010
0000
1000
0000
0001
0100
0001
,
0000
0010
0000
0100
0000
1000
0010
1000
,
0000
0001
0000
0100
0000
0010
0000
1000
,
0000
0001
0000
0010
0000
0100
0000
1000
,
0000
0010
0000
0100
0000
0010
1000
0010
,
0000
0100
0000
0010
0000
0100
0001
0100
,
0000
0001
0000
1000
0000
0010
0100
0010
,
0000
1000
0000
0001
0000
0100
0010
0100
,
0000
0001
0000
1000
0000
0001
0010
0001
,
0000
0100
0000
0001
0000
0000
1000
0010
,
0000
0100
0000
0001
0000
1000
0000
0100
,
0000
0010
0000
0001
0000
0100
0000
0010
,
0000
2002
0000
0000
0000
0000
0000
0000
,
0000
0000
0000
0000
,
3003
0000
0000
0000
;
