#TITLE:BANZAI;
#SUBTITLE:;
#ARTIST:MISA;
#TITLETRANSLIT:;
#SUBTITLETRANSLIT:;
#ARTISTTRANSLIT:;
#GENRE:;
#CREDIT:SupremeX;
#BANNER:BANZAI.png;
#BACKGROUND:BANZAI-bg.png;
#LYRICSPATH:;
#CDTITLE:CDTitle.png;
#MUSIC:BANZAI.ogg;
#OFFSET:-1.087418;
#SAMPLESTART:57.450001;
#SAMPLELENGTH:12.000000;
#SELECTABLE:YES;
#BPMS:0.000000=136.000000
;
#STOPS:
;
#BGCHANGES:32.000=bear2.avi=1.000=0=0=1=====,
38.500=bear2R.avi=1.000=0=0=1=====,
46.500=bear2.avi=1.000=0=0=1=====,
56.500=bear2R.avi=1.000=0=0=1=====,
64.000=bear1.avi=1.000=0=0=1=====,
80.000=Basket1AR.avi=1.000=0=0=1=====,
96.000=Bear3R.avi=1.000=0=0=1=====,
112.000=bear1.avi=1.000=0=0=1=====,
128.000=Basket1AR.avi=1.000=0=0=1=====,
144.000=bear1.avi=1.000=0=0=1=====,
160.500=balloon1.avi=1.000=0=0=1=====,
175.000=bear2.avi=1.000=0=0=1=====,
182.500=bear2R.avi=1.000=0=0=1=====,
191.000=BANZAI-bg.png=1.000=0=0=1=====,
99999=-nosongbg-=1.000=0=0=0 // don't automatically add -songbackground-
;
#KEYSOUNDS:;
#ATTACKS:;

//---------------dance-single - ----------------
#NOTES:
     dance-single:
     :
     Hard:
     8:
     0.366271,0.437236,0.206027,0.045784,0.005723,224.000000,206.000000,18.000000,4.000000,0.000000,0.000000,0.366271,0.437236,0.206027,0.045784,0.005723,224.000000,206.000000,18.000000,4.000000,0.000000,0.000000:
0000
0000
0000
0000
,
0000
0000
0000
0000
,
0000
0000
0000
0000
,
0000
0000
0000
0000
,
0000
0000
0000
0000
,
0000
0000
0000
0000
,
0000
0000
0000
0000
,
0000
0000
0000
0000
,
0010
0100
0001
0000
0000
1000
0010
0100
,
0001
0000
1000
0100
0000
0010
0001
0100
,
0000
0010
1000
0100
0000
0001
1000
0010
,
0100
0000
0010
0100
0000
0001
1000
0010
,
0000
0100
0001
0010
0000
0100
1000
0001
,
0010
0100
1000
0001
0000
0100
0010
1000
,
0000
0001
1000
0001
0000
0100
0010
1000
,
0100
0010
0001
1000
0000
0010
0100
0000
,
0011
0110
1100
0110
,
0001
0010
0100
1000
0000
0010
1000
0010
,
0000
0100
0000
0001
0000
1000
0000
0000
,
0010
0000
1000
0001
0000
0000
0000
0000
,
1100
0110
0011
0110
,
1000
0100
0010
0001
0000
0100
0001
0100
,
0000
0010
0000
1000
0000
0001
0100
0000
,
0010
0000
1000
0001
0000
0000
0000
0000
,
0100
0000
0001
0000
1000
0000
0010
1000
,
0000
0001
0000
0200
0000
0000
0300
0000
,
0000
0010
1000
0001
0100
0000
0010
1000
,
0010
0100
0001
2000
0000
0000
3010
0000
,
0100
0000
0001
0000
1000
0000
0010
1000
,
0000
0010
0100
0002
0000
0000
0003
0000
,
0100
0010
1000
0010
,
0100
0000
0000
0001
0000
0000
0101
0000
0000
0000
1000
0000
1000
0000
0000
0000
,
0110
0011
0110
1100
,
0001
0010
0100
1000
0000
0010
0100
0010
,
0000
1000
0000
0001
0000
0100
0000
0010
,
0001
0010
0100
1000
0000
0000
0000
0000
,
0101
1010
0110
1001
,
0001
0010
0100
1000
0000
0010
0100
0001
,
0000
1000
0000
0001
0000
0100
0000
0000
,
0020
0000
0000
1030
0000
0000
0000
0000
,
0000
1000
0001
0100
0000
0010
1000
0001
,
1000
0100
0010
0001
0000
0100
0001
0010
,
0000
0100
1000
0001
0000
0100
0010
1000
,
0100
0010
0001
0100
0000
0010
1000
0100
,
0000
0001
0010
0100
0000
1000
0001
0100
,
0010
1000
0001
0100
0000
0001
0010
0100
,
0000
1000
0100
0010
0000
0001
0010
0100
,
1000
0001
0100
0010
1000
0001
1001
0000
;

//---------------dance-single - ----------------
#NOTES:
     dance-single:
     :
     Medium:
     6:
     0.271433,0.382582,0.045784,0.080122,0.005723,166.000000,162.000000,4.000000,7.000000,0.000000,0.000000,0.271433,0.382582,0.045784,0.080122,0.005723,166.000000,162.000000,4.000000,7.000000,0.000000,0.000000:
0000
0000
0000
0000
,
0000
0000
0000
0000
,
0000
0000
0000
0000
,
0000
0000
0000
0000
,
0000
0000
0000
0000
,
0000
0000
0000
0000
,
0000
0000
0000
0000
,
0000
0000
0000
0000
,
0000
0100
0001
0000
0000
1000
0010
0000
,
0001
0000
0010
0100
0000
0000
1000
0100
,
0000
0000
1000
0010
0000
0100
0001
0000
,
0010
0000
0100
0010
0000
0000
1000
0010
,
0000
0000
1000
0100
0000
0001
0100
0000
,
0001
0000
1000
0001
0000
0000
0010
1000
,
0000
0000
0100
0010
0000
0001
0010
0000
,
1000
0000
0100
0010
0000
0001
0010
0000
,
0100
1000
0010
1000
,
0002
0000
0000
1003
0000
0000
0100
0010
,
0000
0100
0000
0001
0000
1000
0000
0000
,
0010
0000
0100
0001
0000
0000
0000
0000
,
1000
0010
0100
0001
,
2000
0000
0000
3001
0000
0000
0001
0100
,
0000
0010
0000
1000
0000
0001
0010
0000
,
1000
0000
0010
0100
0000
0000
0000
0000
,
0001
0000
0010
0000
0100
0000
1000
0010
,
0000
0001
0000
0200
0000
0000
0300
0000
,
0000
0000
0010
0100
0001
0000
1000
0010
,
0100
0000
0001
0100
0000
0000
0010
0000
,
1000
0000
0001
0000
0100
0000
0010
1000
,
0000
0001
0100
0020
0000
0000
0030
0000
,
1000
0100
0010
0001
,
0100
0000
0000
0100
0000
0000
0100
0000
0000
0000
0010
0000
0010
0000
0000
0000
,
0001
0010
0100
1000
,
0002
0000
0000
0103
0000
0000
0010
1000
,
0000
0100
0000
0010
0000
0001
0000
0000
,
0010
1000
0100
0010
0000
0000
0000
0000
,
0001
0100
0010
1000
,
0200
0000
0000
0310
0000
0001
0100
0010
,
0000
1000
0000
0100
0000
0010
0000
0000
,
0002
0000
0000
0103
0000
0000
0000
0000
,
0000
0000
0010
0100
0000
0000
0100
0010
,
1000
0000
0001
0010
0000
1000
0010
0000
,
0000
0100
0001
0000
0000
0010
0100
0000
,
0010
0000
1000
0010
0000
0100
0001
0000
,
0000
1000
0100
0000
0000
0010
0001
0000
,
0100
0000
0010
0100
0000
0000
1000
0010
,
0000
0000
0100
0001
0000
1000
0010
0000
,
1010
0110
0101
1001
;

//---------------dance-single - ----------------
#NOTES:
     dance-single:
     :
     Easy:
     3:
     0.184771,0.218618,0.000000,0.000000,0.000000,113.000000,113.000000,0.000000,0.000000,0.000000,0.000000,0.184771,0.218618,0.000000,0.000000,0.000000,113.000000,113.000000,0.000000,0.000000,0.000000,0.000000:
0000
0000
0000
0000
,
0000
0000
0000
0000
,
0000
0000
0000
0000
,
0000
0000
0000
0000
,
0100
0001
0100
0010
,
0100
0000
0000
0100
0000
0000
0000
0001
,
0000
0010
0000
0100
0000
0000
0000
0000
,
1000
0000
0000
0100
0000
0000
0000
0000
,
0000
0010
0000
0010
,
0100
0010
0000
1000
,
0000
1000
0000
0010
,
1000
0100
0000
0001
,
0000
0001
0000
0010
,
0001
0010
0000
0100
,
0000
0100
0000
0010
,
0100
0010
0000
0100
,
1000
0001
1000
0010
,
0100
0000
0001
0000
0000
0000
0000
1000
,
0000
0010
0000
0100
0000
0000
0000
0000
,
0001
0000
0000
0100
0000
0000
0000
0000
,
0010
0001
0100
1000
,
0010
0000
0000
0100
0000
0000
0000
0001
,
0000
1000
0000
0010
0000
0000
0000
0000
,
0100
0000
0000
0010
0000
0000
0000
0000
,
0000
1000
0000
1000
,
0000
0010
0000
0010
,
0000
0100
0000
0100
,
0000
0001
0000
0000
,
0000
0010
0000
0010
,
0000
1000
0000
1000
,
0000
0100
0000
0100
,
0001
0000
0000
0010
,
1000
0100
0010
0001
,
1000
0000
0000
0001
0000
0000
0000
0100
,
0000
0010
0000
1000
0000
0000
0000
0000
,
0001
0000
0000
0010
0000
0000
0000
0000
,
0100
0010
1000
0001
,
0100
0000
0000
0010
0000
0000
0000
1000
,
0000
0001
0000
0100
0000
0000
0010
0000
,
0100
0000
0000
1000
0000
0000
0000
0000
,
0001
0010
0000
1000
,
0010
0100
0000
0001
,
0000
1000
0000
0010
,
0100
1000
0000
0001
,
0000
0100
0000
0001
,
0010
0100
0000
1000
,
0000
0010
0000
0100
,
0001
0000
1000
0000
0000
0010
0100
0000
;

//---------------dance-single - Copied from----------------
#NOTES:
     dance-single:
     Copied from:
     Beginner:
     1:
     0.062135,0.109309,0.000000,0.000000,0.000000,38.000000,38.000000,0.000000,0.000000,0.000000,0.000000,0.062135,0.109309,0.000000,0.000000,0.000000,38.000000,38.000000,0.000000,0.000000,0.000000,0.000000:
0000
0000
0000
0000
,
0000
0000
0000
0000
,
0000
0000
0000
0000
,
0000
0000
0000
0000
,
0010
0000
0000
0000
,
0100
0000
0000
0000
,
0000
0000
0000
0000
,
0010
0000
0000
0000
,
0000
1000
0000
0000
,
0000
0000
0000
0001
,
0000
0000
0000
0000
,
0000
0000
0000
0100
,
0000
0000
0000
0000
,
0000
0000
0000
0010
,
0000
0000
0000
0000
,
0000
0000
0000
0000
,
1000
0000
0001
0000
,
1000
0000
0000
0000
,
0010
0000
0100
0000
,
0010
0000
0000
0000
,
0001
0000
1000
0000
,
0001
0000
0000
0000
,
0100
0000
0010
0000
,
0100
0000
0000
0000
,
0000
0000
0000
0000
,
0000
0000
0000
0001
0000
0000
0000
0000
,
0000
0000
0000
0000
,
0000
0000
0000
1000
0000
0000
0000
0000
,
0000
0000
0000
0000
,
0000
0000
0000
0010
0000
0000
0000
0000
,
0000
0000
0000
0000
,
0100
0000
0000
0000
,
0001
0000
1000
0000
,
0010
0000
0000
0000
0000
0000
0000
0100
,
0000
0000
0000
0000
,
0100
0000
0000
0000
,
0010
0000
0001
0000
,
1000
0000
0000
0000
0000
0000
0000
0100
,
0000
0000
0000
0000
,
0100
0000
0000
0000
,
0001
0000
0000
0000
,
0000
0000
0000
0000
0000
0000
0000
1000
,
0000
0000
0000
0000
,
0000
0000
0000
0000
0000
0000
0000
0010
,
0000
0000
0000
0000
,
0000
0000
0000
0000
0000
0000
0000
0100
,
0000
0000
0000
0000
,
0000
0000
0000
0010
;
