#TITLE:Azitate;
#SUBTITLE:;
#ARTIST:void;
#TITLETRANSLIT:;
#SUBTITLETRANSLIT:;
#ARTISTTRANSLIT:;
#CREDIT:SupremeX;
#BANNER:Azitate.png;
#BACKGROUND:Azitate-bg.png;
#LYRICSPATH:;
#CDTITLE:CDTitle.png;
#MUSIC:Azitate.ogg;
#OFFSET:-0.902;
#SAMPLESTART:64.012;
#SAMPLELENGTH:12.000;
#SELECTABLE:YES;
#BPMS:0.000=152.000;
#STOPS:99.500=1.380
,104.000=1.380
;
#BGCHANGES:16.000=kaliedoscope8.avi=1.000=0=0=1,
32.000=ring11.avi=1.000=0=0=1,
48.000=ring12.avi=1.000=0=0=1,
61.750=Azitate-bg.png=1.000=0=0=1,
64.000=pikapika.avi=1.000=0=0=1,
96.000=kaliedoscope8.avi=1.000=0=0=1,
99.500=Azitate-bg.png=1.000=0=0=1,
100.500=ring11.avi=1.000=0=0=1,
104.000=Azitate-bg.png=1.000=0=0=1,
105.000=kaliedoscope8.avi=1.000=0=0=1,
116.500=Azitate-bg.png=1.000=0=0=1,
121.000=ring11.avi=1.000=0=0=1,
137.000=ring12.avi=1.000=0=0=1,
145.000=Azitate-bg.png=1.000=0=0=1,
153.000=line_b.avi=1.000=0=0=1,
169.000=ring12.avi=1.000=0=0=1,
185.000=line_b.avi=1.000=0=0=1,
201.000=ring12.avi=1.000=0=0=1,
215.000=pikapika.avi=1.000=0=0=1,
250.000=kaliedoscope8.avi=1.000=0=0=1,
267.500=ring12.avi=1.000=0=0=1,
283.000=Azitate-bg.png=1.000=0=0=1,
99999=-nosongbg-=1.000=0=0=0 // don't automatically add -songbackground-
;

//---------------dance-single - ----------------
#NOTES:
     dance-single:
     :
     Hard:
     10:
     0.613,0.758,0.352,0.218,0.319: // measure 1
0000
0000
0000
0000
,  // measure 2
0000
0000
0000
0000
,  // measure 3
0000
0010
2000
0000
0010
0000
3010
0000
,  // measure 4
0000
0100
0002
0000
0100
0000
0100
0000
,  // measure 5
0103
1000
0001
0110
,  // measure 6
0101
0000
1000
0000
0010
0000
1000
0010
,  // measure 7
1000
0000
0001
0000
0100
0000
0001
1000
,  // measure 8
0001
0000
0000
0100
0010
0100
0000
0010
1000
0010
1000
0010
1000
0000
0000
0000
,  // measure 9
0001
0000
0100
0000
0101
0000
0000
0000
0100
0000
0001
0000
0100
0010
0000
0100
,  // measure 10
0000
0000
0010
0000
1000
0000
0010
0000
0100
0000
0001
0000
0100
0001
0000
0100
,  // measure 11
0000
0000
0010
0000
1000
0000
0010
0000
0100
0000
0001
0000
0100
0010
0000
0100
,  // measure 12
0000
0010
1000
0010
1000
0001
0010
0100
,  // measure 13
1000
0000
0010
0000
0100
0000
0010
0000
1000
0000
0001
0000
0100
0010
0000
0100
,  // measure 14
0000
0000
0001
0000
0010
0000
0100
0000
1000
0000
0010
0000
0100
0010
0000
0100
,  // measure 15
0000
0001
0100
0001
1000
0000
0010
0100
,  // measure 16
0101
0000
0000
0000
0010
1000
0000
1000
0000
0000
0000
0000
0000
0000
0000
0000
,  // measure 17
0002
0000
0000
2003
0000
0000
3020
0000
,  // measure 18
0000
0000
0130
0200
,  // measure 19
0302
0000
0000
2003
0000
0000
3002
0000
,  // measure 20
0000
0000
0000
0000
,  // measure 21
2003
0000
0000
3020
0000
0000
0230
0000
,  // measure 22
0000
0000
0320
2030
,  // measure 23
3002
0000
0000
0203
0000
0000
0320
0000
,  // measure 24
0130
0101
1010
1001
,  // measure 25
0010
0000
0100
0001
0000
1010
0000
1001
,  // measure 26
0000
0100
0010
0100
0010
0000
0101
0000
,  // measure 27
1010
0000
1000
0100
0010
0001
0000
0110
,  // measure 28
0000
0110
0000
0000
0000
1000
0010
1000
,  // measure 29
0010
0100
0001
0100
0001
1000
0000
0101
,  // measure 30
0000
2002
0000
0000
0000
0000
0000
0000
,  // measure 31
3003
0000
0100
0010
0100
0010
0000
1001
,  // measure 32
0000
0000
0010
0100
0010
0100
0000
1001
,  // measure 33
0000
0000
1100
0000
0001
0010
0001
0000
,  // measure 34
0100
0010
0100
0000
0011
0000
1100
0000
,  // measure 35
1001
0000
0100
1000
0010
1000
0010
0100
,  // measure 36
0001
0000
0100
0000
0010
0100
0010
0100
0010
0100
0010
0100
0010
0100
0010
0100
,  // measure 37
0010
0100
0010
0100
0002
0000
0000
0000
0000
0000
0000
0000
0000
0000
0000
0000
,  // measure 38
0000
0000
0000
1003
,  // measure 39
0000
0000
1000
0001
0100
0001
0000
0110
,  // measure 40
0000
0000
0001
0100
0001
0000
0100
0001
0100
0000
0001
0100
0001
0000
0100
0001
,  // measure 41
0100
0000
0001
0100
0001
0000
0100
0000
0010
0000
1000
0000
0000
0000
1001
0000
,  // measure 42
0000
0000
1001
0000
0100
0000
0010
0000
0100
0000
0010
0000
1000
0000
0000
0001
,  // measure 43
0000
0000
1000
0000
0001
0000
1000
0010
1000
0000
0010
1000
0010
0000
1000
0010
,  // measure 44
1000
0000
0010
1000
0010
0000
1000
0010
1000
0000
0010
1000
0010
0000
0100
0010
,  // measure 45
0100
0000
0010
0100
0010
0000
0100
0010
0100
0000
0001
1000
0001
0000
1000
0001
,  // measure 46
1000
0000
0001
1000
0001
0000
0100
0010
0100
0000
0010
0100
0010
0000
1000
0001
,  // measure 47
1000
0101
1010
1001
,  // measure 48
0101
0000
0000
0000
1010
0000
0000
0000
0110
0000
0000
0000
1001
0000
0000
0010
,  // measure 49
0000
1000
0001
0010
0100
1000
0000
0010
,  // measure 50
0000
0100
0000
0000
0101
0000
1010
0000
,  // measure 51
0100
0000
1001
0000
0010
0100
0010
0000
,  // measure 52
1000
0000
0001
0000
0100
0000
0000
0001
0000
0000
1000
0000
0100
0000
0010
0000
,  // measure 53
0001
0100
0001
0000
1000
0100
0010
0000
,  // measure 54
0001
0100
0001
0000
1000
0010
1000
0010
,  // measure 55
0100
0001
1000
0001
0100
0001
1000
0010
,  // measure 56
1000
0010
0100
0001
0100
0001
1000
0100
,  // measure 57
0010
0001
0100
0010
1000
0100
0010
0001
,  // measure 58
0100
0001
0100
0010
1000
0010
1000
0001
,  // measure 59
0010
0100
2000
0000
0000
3010
0000
0000
,  // measure 60
0110
0000
2001
0000
0000
3010
0100
0010
,  // measure 61
0100
1001
0110
1001
,  // measure 62
0100
0000
0010
0000
0001
0000
1000
0000
0000
0010
0000
0000
1000
0000
0000
0010
,  // measure 63
0000
0000
0110
0000
0000
0000
0000
0000
1000
0001
1000
0000
0001
1000
0001
0000
,  // measure 64
1000
0001
1000
0000
0010
0100
0010
0000
0100
0010
0100
0000
0010
0100
0010
0000
,  // measure 65
0100
0010
0100
0000
0001
1000
0001
0000
1000
0001
1000
0000
0001
1000
0001
0000
,  // measure 66
1000
0001
1000
0000
0010
1000
0010
0000
1000
0010
1000
0000
0001
0100
0001
0000
,  // measure 67
0100
0000
0000
0001
0000
0000
0100
0000
0000
0000
0000
0000
0000
0000
0010
0000
0000
1000
0000
0000
0000
0010
0000
0000
0000
1000
0000
0000
0010
0000
0000
0000
0000
0100
0000
0000
0001
0000
0000
0000
0000
0000
0001
0000
0000
0100
0000
0000
,  // measure 68
0001
0000
0100
0001
0100
0000
0001
0100
0001
0000
0100
0010
0100
0000
0010
0100
,  // measure 69
0010
1000
0100
0010
0001
0100
0010
0100
,  // measure 70
0001
0010
0100
1000
0010
0100
0010
0100
,  // measure 71
0001
1000
0220
0000
0000
0330
2002
0000
,  // measure 72
0000
0000
0000
0000
,  // measure 73
0000
3003
0000
0000
;

//---------------dance-single - ----------------
#NOTES:
     dance-single:
     :
     Medium:
     7:
     0.392,0.516,0.067,0.277,0.017:
0000
0000
0000
0000
,
0000
0000
0000
0000
,
0000
1000
0001
1000
,
0010
0100
0010
1000
,
0001
0000
1000
0010
0100
0010
1000
0001
,
1000
0010
1000
0001
,
0100
0000
0010
1000
0001
0100
0010
1000
,
0001
0000
0100
0000
0000
0010
0000
0000
0001
0000
0000
0100
0000
0000
0010
0000
,
0000
0000
1000
0000
0001
0000
0100
0010
,
0100
0000
0010
0000
1000
0000
0001
0100
,
0010
0000
1000
0010
1000
0000
0001
0100
,
0001
0000
1000
0001
0100
0010
1000
0010
,
0100
0001
0100
0010
,
1000
0000
0010
0100
0001
0000
0100
0001
,
0100
0000
1000
0001
0100
0001
1000
0010
,
0200
0302
2003
3020
,
0230
0000
0000
0302
0000
0000
2003
0000
,
0000
0000
3002
0023
,
0230
0000
0000
2300
0000
0000
3002
0000
,
0000
0000
0000
0000
,
2003
0000
0000
3020
0000
0000
0230
0000
,
0000
0000
0302
2003
,
3020
0000
0000
0230
0000
0000
0302
0000
,
1003
0010
1000
0010
,
0100
0001
1000
0010
0000
0100
0000
0010
,
0000
1000
0001
1000
0010
0000
0100
0000
,
1000
0000
0001
0001
0001
0000
1000
0000
,
0010
0100
0000
0001
,
1000
0010
0100
0001
,
1000
1001
0000
0010
,
1000
0010
0100
0001
,
0100
0010
1000
1000
,
0000
0001
0001
1000
,
1000
0010
0100
0001
,
1000
0000
0010
1000
0001
0100
0010
0100
,
0010
1000
2002
0000
0000
0000
0000
0000
,
0000
3003
0220
0000
0000
0000
0000
0000
,
0000
0000
0000
0000
0000
0330
0000
0001
,
0000
1000
0010
1000
,
0001
0000
0100
0000
0001
0000
0100
0001
,
0100
0000
0010
1000
0010
0000
0100
0000
,
0100
0000
0001
0000
0001
0000
1000
0010
,
1000
0010
0100
0010
,
0010
0000
1000
0000
1000
0000
0010
0100
,
0001
0100
0010
0000
0001
0000
0100
0000
,
0001
1000
0010
1000
,
0001
0000
0100
0010
0100
0000
0010
0000
,
1000
0001
1000
0010
,
0100
0001
0001
1000
,
1000
0010
0000
1000
,
0010
0100
0001
1000
,
0010
1000
0001
0100
,
0001
1000
0010
1000
,
0001
0100
0001
1000
,
0010
2000
0000
0000
,
0000
0000
0000
0000
0000
3000
0001
0000
,
0001
0002
0000
0000
,
0000
0000
0000
0000
0000
0003
0000
0000
,
0100
0200
0000
0000
,
0000
0300
0020
0000
0000
0000
0000
0000
,
0030
2000
0000
0000
,
0001
0000
3001
0000
0000
0000
0100
0000
0000
0010
0000
0000
0100
0000
0000
0010
,
0000
0100
0000
0000
0001
1000
0010
0100
,
0001
1000
0010
0100
0001
0000
1000
0010
,
0100
0010
1000
0001
0100
0010
0100
0001
,
0100
0010
1000
0001
0100
0001
0100
0010
,
0100
1001
0010
1010
,
1000
0000
1010
0000
0100
0001
0100
0000
,
0001
0100
0001
1000
0100
0010
0001
0100
,
0010
1000
0100
0010
0001
0100
0010
1000
,
0001
2002
3003
0220
,
0000
0000
0000
0000
,
0000
0000
0000
0330
0000
0000
0000
0000
;

//---------------dance-single - ----------------
#NOTES:
     dance-single:
     :
     Easy:
     5:
     0.330,0.394,0.285,0.126,0.000:
0000
0000
0000
0000
,
0000
0000
0000
0000
,
0000
0000
0000
0000
,
0000
0000
0000
0000
,
1000
0001
1000
0010
,
0010
1000
0001
0100
,
0100
0010
1000
0010
,
0100
0000
0000
0000
,
1010
0101
0010
0010
,
0000
1001
1001
0010
,
0010
1000
1000
0010
,
0010
0100
0100
0001
,
0001
1000
0010
0100
,
0100
0001
1000
0010
,
0010
0100
0001
1000
,
0010
0100
0001
1000
,
2000
0000
0000
0000
,
3000
0000
0001
0001
,
0002
0000
0000
0000
,
0003
0000
0000
0000
,
1000
0001
0100
0010
,
1010
0001
0100
0010
,
1000
0001
0100
0010
,
1001
1001
0110
0110
,
1000
0000
0001
1000
1000
0001
0000
1000
,
0000
1000
0000
0010
1000
0010
0001
0000
,
1000
0010
0010
1000
,
1000
0001
0000
0010
,
0100
0010
1000
1000
,
0010
0100
0000
0000
,
0000
1001
0010
0110
,
0001
1001
0010
0100
,
0010
0110
0000
1001
,
0000
0110
0100
0100
,
0100
0001
1000
0010
,
0100
0000
0001
1000
0001
0000
0010
0100
,
0010
2002
0000
0000
,
0000
0000
0000
0000
0000
3003
0000
0010
,
0000
1000
0010
0100
,
0001
1000
0010
0010
,
1000
0001
0100
0010
,
1000
1000
0010
0100
,
0000
0001
0001
0010
,
0010
1000
1000
0010
,
0100
0001
1000
0010
,
0100
0001
1000
0010
,
0100
1001
1001
0010
,
0010
0010
0010
0010
,
0010
1001
1001
1001
,
0010
0100
0100
0100
,
0100
0010
1000
1001
,
0010
0100
0001
0011
,
1000
0100
0010
1100
,
0010
0100
0010
0001
,
0000
2002
0000
0000
,
0000
0000
0000
3003
0000
0000
0010
0000
,
0010
2200
0000
0000
,
0000
3300
0001
0001
,
0010
2002
0000
3003
,
0010
0220
0000
0000
,
0330
0001
1000
0010
,
0001
0000
1000
0020
0000
0000
0000
0030
,
0000
0000
1000
0001
,
0100
0010
1000
0001
,
0100
0010
0010
1000
,
1000
0010
0100
0001
,
0001
1000
0001
1000
,
0010
0110
0001
1001
,
0010
1000
0010
1001
,
0010
0110
0001
1000
,
0010
1001
0010
2002
,
0000
0000
0000
0000
,
0000
3003
0000
0000
;

//---------------dance-single - Copied from----------------
#NOTES:
     dance-single:
     Copied from:
     Beginner:
     2:
     0.156,0.303,0.042,0.109,0.000:
0000
0000
0000
0000
,
0000
0000
0000
0000
,
0000
0000
0000
0000
,
0000
0000
0000
0000
,
0000
1000
0000
0000
,
0000
0001
0000
0000
,
0000
0100
0000
0000
,
0000
0000
0000
0000
,
0000
1000
1000
0000
,
0000
0010
0010
0000
,
0000
0100
0100
0000
,
0000
0001
0001
0000
,
0000
1000
0000
0010
,
0000
0100
0000
0001
,
0000
1000
0000
0001
,
0000
0000
0000
0000
,
2002
0000
0000
0000
0000
0000
0000
3003
,
0000
0000
0000
0000
,
0020
0000
0000
0000
,
0030
0000
0000
0000
,
1000
0000
0000
0000
,
0000
0000
0000
0000
,
0002
0000
0000
0000
0000
0000
0000
0003
,
1000
1000
1000
1000
,
0010
0000
0100
0000
0001
1000
0000
0001
,
0000
1000
0000
0010
0100
0000
1000
0000
,
1000
0000
0000
0000
,
0000
0001
0000
1000
,
0000
0010
0010
0100
,
0001
1000
0000
0000
,
0000
1000
0000
0001
,
0000
0100
0000
1000
,
0000
0010
0000
0100
,
0000
0001
0000
1000
,
0000
0010
0100
0001
,
1000
0010
0010
0010
,
0010
0020
0000
0000
,
0000
0000
0000
0000
0000
0030
0000
1000
,
0000
0001
0100
0010
,
1000
0010
0010
0000
,
0000
1000
0010
0100
,
0001
0001
0000
0000
,
0000
1000
0010
0100
,
0001
0001
0000
0100
,
0000
0001
1000
0010
,
0010
0010
0000
0000
,
0000
1000
0000
0001
,
0000
0100
0000
0010
,
0000
1000
0000
0010
,
0000
0100
0000
0000
,
0000
1000
0000
0000
,
0000
0001
0000
0000
,
0000
0100
0000
0000
,
0000
0010
0000
0000
,
0000
2000
0000
0000
,
0000
0000
3000
0000
,
0000
0002
0000
0000
,
0000
0003
0000
0000
,
0000
0000
0220
0000
0000
0000
0000
0330
,
0000
1000
0000
0001
,
0000
1000
0000
0001
,
0000
0000
0000
0000
,
0000
0000
0000
0000
,
0000
0000
1000
0000
,
0001
0000
1000
0000
,
0010
0000
0100
0000
,
0000
0000
2020
0000
0000
0000
0000
3030
,
0000
0000
0000
0000
,
0000
1000
0000
0001
,
0000
0100
0000
0010
,
0000
0110
0000
2002
,
0000
0000
0000
0000
,
0000
3003
0000
0000
;
