#TITLE:Anomie;
#SUBTITLE:;
#ARTIST:D-Fener;
#TITLETRANSLIT:;
#SUBTITLETRANSLIT:;
#ARTISTTRANSLIT:;
#CREDIT:SupremeX;
#BANNER:Anomie.png;
#BACKGROUND:Anomie-bg.png;
#LYRICSPATH:;
#CDTITLE:CDTitle.png;
#MUSIC:Anomie.ogg;
#OFFSET:0.062;
#SAMPLESTART:53.825;
#SAMPLELENGTH:12.000;
#SELECTABLE:YES;
#BPMS:0.000=144.000;
#STOPS:;
#BGCHANGES:17.500=clash.avi=1.000=0=0=1,
33.500=line_b.avi=1.000=0=0=1,
50.000=clash.avi=1.000=0=0=1,
77.500=line_b.avi=1.000=0=0=1,
97.500=no.avi=1.000=0=0=1,
129.500=nyevtunnel.avi=1.000=0=0=1,
157.500=Anomie-bg.png=1.000=0=0=1,
161.500=clash.avi=1.000=0=0=1,
193.500=line_b.avi=1.000=0=0=1,
225.500=no.avi=1.000=0=0=1,
249.500=clash.avi=1.000=0=0=1,
260.500=Anomie-bg.png=1.000=0=0=1,
99999=-nosongbg-=1.000=0=0=0 // don't automatically add -songbackground-
;

//---------------dance-single - ----------------
#NOTES:
     dance-single:
     :
     Hard:
     10:
     0.695,0.856,0.227,0.091,0.440: // measure 1
0000
0000
0000
0000
,  // measure 2
0000
0000
0000
0000
,  // measure 3
0000
0000
0000
0000
,  // measure 4
0000
0000
0000
0000
,  // measure 5
0000
0000
0000
1000
0100
1000
0001
0010
,  // measure 6
0100
1000
0010
1000
0001
0010
0100
1000
,  // measure 7
0010
0000
0100
0000
0010
0000
1000
0100
1000
0100
1000
0100
1000
0100
1000
0100
,  // measure 8
1000
0100
1000
0100
1000
0100
2000
0000
0000
0000
0000
0000
0000
0000
0000
0000
,  // measure 9
0000
0000
3000
0000
0000
0000
0001
0100
0001
0100
0001
0000
0100
0000
0010
1000
,  // measure 10
0010
1000
0000
0000
0000
0000
0001
0100
0010
1000
0001
0100
0010
1000
0001
0100
,  // measure 11
0010
0100
0010
0100
0001
1000
0001
1000
0010
0100
0010
0100
0010
1000
0001
1000
,  // measure 12
0001
1000
0000
0000
0000
0000
0010
0100
0010
0100
0010
1000
0001
1000
0001
1000
,  // measure 13
0010
0100
0001
1000
0010
0100
0001
1000
0010
0100
0001
1000
0010
0100
0001
1000
,  // measure 14
0010
0100
0000
0000
0000
0000
0010
1000
0010
1000
0010
0100
0010
0100
0010
1000
,  // measure 15
0001
1000
0001
1000
0001
0100
0001
0100
0010
1000
0010
1000
0010
0100
0010
0100
,  // measure 16
0010
0100
0000
0000
0000
0000
0010
1000
0001
0100
0010
1000
0001
0100
0010
1000
,  // measure 17
0001
1000
0001
1000
0001
1000
0010
0000
0010
0100
0010
0100
0001
0100
0001
0100
,  // measure 18
0001
0100
0000
0000
0000
0000
0100
0010
0100
0010
0100
0010
1000
0001
1000
0001
,  // measure 19
1000
0001
0000
0000
0000
0000
0100
0010
0100
0010
0100
0010
1000
0100
1000
0100
,  // measure 20
1000
0100
0000
0000
0000
0000
0000
1000
0010
1000
0010
1000
0010
0100
0001
0100
,  // measure 21
0001
0100
0000
0000
0000
0000
0010
0100
0010
0100
0010
0100
0001
0010
0001
0010
,  // measure 22
0001
0010
0000
0000
0000
0000
0000
0001
0010
0100
1000
0010
0100
0001
1000
0100
,  // measure 23
0010
0001
0000
0000
0000
0000
1000
0000
0010
0000
1000
0000
0001
0000
0200
0000
,  // measure 24
0000
0310
0000
1000
0100
1000
0001
0020
,  // measure 25
0000
0130
0000
1000
0010
1000
0001
0200
,  // measure 26
0000
0301
0000
0100
0001
0002
0000
0013
,  // measure 27
0000
0100
1000
2000
0000
3010
0100
0001
,  // measure 28
0000
0110
0000
1000
0001
0100
0001
1000
,  // measure 29
0100
0100
0000
0010
0001
0010
0100
1000
,  // measure 30
0010
0010
0000
0100
0001
1000
0001
0010
,  // measure 31
0100
0100
0000
1000
0100
0010
0001
1000
,  // measure 32
0001
0001
0000
0100
0010
0001
0010
0100
,  // measure 33
1000
0100
0000
0101
0001
0010
0100
1000
,  // measure 34
0010
0100
0010
1000
0010
0100
0001
1000
,  // measure 35
0100
0010
0001
0100
0010
1000
0001
0100
,  // measure 36
0010
1000
0100
0010
0001
0100
0001
1000
,  // measure 37
0010
1000
0100
0010
0001
0010
0100
1000
,  // measure 38
0100
1000
0010
0100
0010
0100
0001
1000
,  // measure 39
0001
1000
0010
0100
0001
0010
0100
1000
,  // measure 40
0100
0010
0001
1000
0000
0010
0100
0000
,  // measure 41
0001
1000
0000
1010
0000
0001
0101
0000
,  // measure 42
1000
0010
0100
0001
0000
0100
0110
0000
,  // measure 43
0001
1000
0100
1000
0001
0010
0011
0000
,  // measure 44
1000
0100
1000
0010
0000
1000
1100
0000
,  // measure 45
0001
0100
0101
0010
0000
1000
1010
0000
,  // measure 46
0001
0010
0100
1000
0000
0010
0110
0000
,  // measure 47
0001
0100
0010
1000
0001
0100
0101
0000
,  // measure 48
1000
0100
0010
0011
0000
0100
1100
0000
,  // measure 49
0001
0101
1000
1001
0000
0010
0100
1000
,  // measure 50
0100
0010
0001
0011
1000
0100
1000
0001
,  // measure 51
0100
0010
0100
0010
1000
0001
1001
0100
,  // measure 52
0001
0010
0100
1000
1001
0010
0100
1000
,  // measure 53
0100
1000
0010
0100
0001
1000
1100
0010
,  // measure 54
0001
0100
0001
0100
0010
1000
1010
0001
,  // measure 55
0100
0010
1000
0001
0100
0010
0110
0001
,  // measure 56
1000
0100
0010
0001
0100
0010
0100
0001
,  // measure 57
1000
1001
0000
2200
0000
0000
0000
0000
,  // measure 58
3300
0000
0000
0022
0000
0000
0000
0000
,  // measure 59
0000
0033
0000
1000
0100
0010
0001
0100
,  // measure 60
0010
1000
0000
0001
0010
0100
1000
0010
,  // measure 61
0100
0010
0000
0100
0001
0010
0100
1000
,  // measure 62
0100
1000
0000
0001
0100
0010
1000
0001
,  // measure 63
0100
0010
0000
1000
0001
0100
0010
1000
,  // measure 64
0001
0100
0010
1000
0001
0100
0010
1000
,  // measure 65
0100
1000
0001
0100
0010
0100
0001
1000
,  // measure 66
0001
1001
0000
0000
0000
0000
0000
0000
;

//---------------dance-single - ----------------
#NOTES:
     dance-single:
     :
     Medium:
     8:
     0.461,0.471,0.018,0.018,0.000:
0000
0000
0000
0000
,
0000
0000
0000
0000
,
0000
0000
0000
0000
,
0000
0000
0000
0000
,
0000
0000
0000
1000
0010
0100
0001
0010
,
0100
1000
0000
0100
0010
0001
0010
0100
,
1000
0100
0000
0001
0010
0001
1000
0010
,
0100
0010
1000
0200
0000
0000
0000
0000
,
0000
0000
0300
0010
0001
0010
0100
1000
,
0010
0100
0000
0001
1000
0100
1000
0010
,
0100
0010
1000
0001
1000
0010
0100
0010
,
1000
1000
0000
0001
0100
0001
1000
0010
,
0100
0001
0100
0001
0010
0100
1000
0010
,
0010
0000
0000
0100
0001
1000
0100
0010
,
0001
0100
0010
1000
0010
0100
0001
0100
,
0010
0010
0000
0001
0010
0100
1000
0100
,
0010
0001
0001
0010
0100
1000
0001
0010
,
0000
0100
0100
1000
0100
0010
0001
0100
,
0010
0010
0000
1000
0001
1000
1000
0010
,
0100
0100
0000
0001
1000
0100
0010
0001
,
1000
1000
0000
0010
0100
0001
0100
0010
,
1000
1000
0000
0001
0010
0100
1000
0010
,
0010
0010
0000
0100
0001
1000
0001
0100
,
0010
1000
0000
0010
0100
0010
1000
0100
,
1000
0100
0000
0010
0001
0010
0100
1000
,
0010
1000
0000
0001
0000
0100
0000
0010
,
0000
1000
0000
0001
0000
0100
0010
0100
,
0000
0001
0000
1000
0000
0010
0000
0100
,
0000
0010
0000
1000
0001
1000
0000
0010
,
0100
0010
0000
1000
0000
1000
0000
0010
,
0000
0010
0000
0100
0000
0001
0000
0100
,
0000
0001
0000
1010
0000
1010
0000
0001
,
0000
0001
0000
1000
0000
0010
0000
0100
,
0000
0001
0000
0010
0000
0001
0000
1000
,
0000
0010
0000
0100
0000
0010
0000
1000
,
0000
0001
0000
0100
0100
0010
0000
1000
,
1000
0001
0000
0010
0100
0000
0001
1000
,
0000
0010
0000
0100
0001
0000
1000
0100
,
0000
0010
0000
0001
1000
0100
0010
0001
,
0100
0010
0000
0200
0000
0000
0000
0000
,
0000
0300
0000
0001
0100
0001
1000
0000
,
0010
0100
0010
1000
0000
0001
0100
0000
,
0010
1000
0100
0010
0001
0100
0010
0000
,
1000
0001
0000
0100
0000
0010
1000
0000
,
0010
0100
0001
0100
0000
0010
1000
0000
,
0001
0010
0100
1000
0000
0100
0100
0000
,
0010
0001
0010
0100
0000
1000
0010
0000
,
1000
1000
0000
0001
0000
0100
0010
0000
,
1000
0100
0000
0010
0001
0100
0100
0000
,
0010
1000
0001
0100
0000
0010
0010
0000
,
0100
0001
0100
0010
0000
1000
1000
0000
,
0010
0100
0010
1000
0000
0001
0001
0000
,
1000
0100
1000
0010
0000
0100
0100
0000
,
0001
0010
0001
1000
0000
0100
0100
0000
,
0010
0001
1000
1000
0000
0010
0010
0000
,
0100
0100
0000
0001
0000
0010
0100
0000
,
1000
1000
0000
0001
0000
0100
0000
0010
,
0000
0010
0000
0100
0000
0100
0000
0001
,
0000
0001
0000
1000
0000
0010
0000
0100
,
0000
0100
0000
0001
0000
1000
0000
0010
,
0000
0010
0000
0100
0001
0100
0000
0010
,
0010
0010
0000
1000
0000
0001
0000
0100
,
0100
0100
0000
0001
0010
0001
1000
0100
,
0100
0000
0000
0010
0001
0010
0100
1000
,
0010
0010
0000
1000
0100
0010
0001
0100
,
0100
0000
0000
0000
;

//---------------dance-single - ----------------
#NOTES:
     dance-single:
     :
     Easy:
     5:
     0.315,0.325,0.181,0.127,0.000:
0000
0000
0000
0000
,
0000
0000
0000
0000
,
0000
0000
0000
0000
,
0000
0000
0000
0000
,
0000
0000
0000
1000
0000
0001
0000
0100
,
0000
0010
0000
1000
0000
0010
0100
0010
,
0000
1000
0000
0100
0000
0010
0000
0001
,
0000
1000
0000
0020
0000
0000
0000
0000
,
0000
0000
0030
1000
0000
0100
0000
1000
,
0001
0010
0000
0100
0000
1000
0000
0010
,
0000
0010
0000
0100
0000
0001
0000
1000
,
0001
1000
0000
0010
0000
0100
0000
0001
,
0000
0100
0000
0010
0000
1000
0000
0001
,
0100
0001
0000
1000
0000
0100
0000
1000
,
0000
0001
0000
0010
0000
0001
0000
1000
,
0010
1000
0000
0001
0000
0001
0000
0100
,
0000
0100
0000
0010
0000
1000
0000
0001
,
0010
0001
0000
0100
0000
0100
0000
0010
,
0000
0010
0000
1000
0000
0001
0000
1000
,
0000
1000
0000
0010
0000
0100
0000
0001
,
0000
0001
0000
1000
0000
0100
0000
0010
,
0001
0010
0000
0100
0000
1000
0000
0001
,
0000
0100
0000
0010
0000
1000
0000
0001
,
0000
0001
0000
0001
0000
0001
0000
0001
,
0000
0001
0000
1000
0000
1000
0000
1000
,
0000
1000
0000
0010
0000
0010
0000
0010
,
0000
0010
0000
0200
0000
0000
0000
0000
,
0000
0000
0300
0002
0000
0000
0000
0000
,
0000
0000
0003
2000
0000
0000
0000
0000
,
0000
0000
3000
0200
0000
0000
0000
0000
,
0000
0300
0000
0020
0000
0000
0000
0000
,
0000
0000
0030
0002
0000
0000
0000
0000
,
0000
0003
0000
1001
0000
1001
0000
0000
,
0000
0000
0000
1010
0000
1010
0000
0000
,
0000
0000
0000
0101
0000
0101
0000
0000
,
0000
0000
0000
1010
0000
1010
0000
0000
,
0000
0000
0000
0100
0000
0001
0000
1000
,
0000
0010
0000
0100
0000
0100
0000
0001
,
0000
0001
0000
1000
0010
1000
0000
0001
,
0100
0001
0000
2000
0000
0000
0000
0000
,
0000
3000
0000
0001
0000
0010
0000
0100
,
0000
1000
0000
1001
0000
1001
0000
0010
,
0000
0010
0000
0100
0000
0100
0000
0001
,
0000
0001
0000
1010
0000
1010
0000
0100
,
0000
0100
0000
0001
0000
0010
0000
0001
,
0000
1000
0000
0010
0000
0101
0000
0101
,
0000
0010
0000
1000
0000
1000
0000
0010
,
0000
0100
0000
2002
0000
0000
0000
0000
,
0000
0000
3003
0010
0000
0010
0000
0100
,
0000
0100
0000
0010
0000
1000
0000
0100
,
0000
0010
0000
0001
0000
1000
0000
0001
,
0000
0010
0000
0100
0000
1000
0000
1000
,
0000
1000
0000
0010
0000
0110
0000
0001
,
0000
1001
0000
1000
0000
1010
0000
0010
,
0000
0110
0000
0001
0000
0001
0000
1000
,
0000
1000
0000
0220
0000
0000
0000
0000
,
0000
0330
0000
0002
0000
0000
0000
0000
,
0000
0003
0000
2000
0000
0000
0000
0000
,
0000
3000
0000
0010
0000
0010
0000
0100
,
0000
0100
0000
0001
0000
0001
0000
1000
,
0000
1000
0000
0010
0000
0100
0000
0001
,
0000
0001
0000
1000
0000
0010
0000
0100
,
0000
0001
0000
0010
0000
0100
0000
1000
,
0000
1000
0000
0010
0000
0010
0000
0100
,
0000
0001
0000
0100
0000
0010
0000
1000
,
0000
0001
0000
0000
0000
0000
0000
0000
;

//---------------dance-single - Copied from----------------
#NOTES:
     dance-single:
     Copied from:
     Beginner:
     3:
     0.214,0.236,0.045,0.227,0.000:
0000
0000
0000
0000
,
0000
0000
0000
0000
,
0000
0000
0000
0000
,
0000
0000
0000
0000
,
0000
0000
0000
0020
0000
0000
0000
0000
,
0000
0030
0000
2000
0000
0000
0000
0000
,
0000
3000
0000
0002
0000
0000
0000
0000
,
0000
0003
0000
2002
0000
0000
0000
0000
,
0000
3003
0000
0100
0000
0010
0000
0100
,
0000
0000
0000
0001
0000
0001
0000
1000
,
0000
0000
0000
0010
0000
0010
0000
0100
,
0000
0000
0000
0001
0000
0001
0000
1000
,
0000
1000
0000
0100
0000
0100
0000
0010
,
0000
0000
0000
0001
0000
1000
0000
0001
,
0000
0010
0000
0010
0000
0100
0000
0100
,
0000
0100
0000
1000
0000
0001
0000
0100
,
0000
0010
0000
1000
0000
0001
0000
0100
,
0000
0100
0000
0010
0000
1000
0000
0001
,
0000
0001
0000
0100
0000
0001
0000
1000
,
0000
1000
0000
0010
0000
0100
0000
0100
,
0000
0100
0000
0001
0000
1000
0000
0100
,
0000
0100
0000
0010
0000
0001
0000
1000
,
0000
0100
0000
0000
0000
0000
0000
0000
,
0000
0000
0000
1001
0000
0000
0000
0110
,
0000
0000
0000
1001
0000
0000
0000
0000
,
0000
0000
0000
0020
0000
0000
0000
0000
,
0000
0030
0000
2000
0000
0000
0000
0000
,
0000
3000
0000
0002
0000
0000
0000
0000
,
0000
0003
0000
0200
0000
0000
0000
0000
,
0300
0000
0000
0020
0000
0000
0000
0000
,
0000
0030
0000
2000
0000
0000
0000
0000
,
0000
3000
0000
0200
0000
0000
0000
0000
,
0300
0000
0000
0001
0000
1000
0000
0001
,
0000
0000
0000
1000
0000
0010
0000
1000
,
0000
0000
0000
0010
0000
0100
0000
0010
,
0000
0000
0000
0001
0000
1000
0000
0001
,
0000
0000
0000
0100
0000
0010
0000
0100
,
0000
0000
0000
0001
0000
1000
0000
0001
,
0000
0000
0000
0100
0000
0010
0000
0100
,
0000
0000
0000
0001
0000
0010
0000
0001
,
0000
0000
0000
1000
0000
1000
0000
1000
,
0000
1000
0000
1000
0000
1000
0000
0000
,
0000
0000
0000
0001
0000
0001
0000
0001
,
0000
0001
0000
0001
0000
0000
0000
0000
,
0000
0000
0000
0200
0000
0000
0000
0000
,
0000
0000
0000
0000
0000
0000
0000
0300
,
0000
0000
0000
0020
0000
0000
0000
0000
,
0000
0000
0030
1000
0000
0000
0000
0000
,
0000
0000
0000
0001
0000
0010
0000
0001
,
0000
0000
0000
1000
0000
0100
0000
1000
,
0000
0000
0000
0010
0000
0100
0000
0010
,
0000
0000
0000
1000
0000
0001
0000
1000
,
0000
0000
0000
0010
0000
0100
0000
0010
,
0000
0000
0000
1000
0000
0010
0000
1000
,
0000
0000
0000
0001
0000
0100
0000
0001
,
0000
0000
0000
0220
0000
0000
0000
0000
,
0000
0330
0000
0002
0000
0000
0000
0000
,
0000
0003
0000
2000
0000
0000
0000
0000
,
0000
3000
0000
0020
0000
0000
0000
0000
,
0000
0030
0000
0200
0000
0000
0000
0000
,
0000
0300
0000
0002
0000
0000
0000
0000
,
0000
0003
0000
2000
0000
0000
0000
0000
,
0000
3000
0000
0200
0000
0000
0000
0000
,
0000
0300
0000
0020
0000
0000
0000
0000
,
0000
0030
0000
0002
0000
0000
0000
0000
,
0000
0003
0000
0000
0000
0000
0000
0000
;

//---------------dance-single - ----------------
#NOTES:
     dance-single:
     :
     Challenge:
     12:
     0.959,0.974,0.363,0.027,1.000:
0000
0000
0000
0000
,
0000
0000
0000
0000
,
0000
0000
0000
0000
,
0000
0000
0000
0000
,
0000
0000
0000
1000
0010
1000
1010
0001
,
0010
0100
1000
0010
0110
1000
0100
1000
,
0001
0000
0101
0000
1000
0000
0010
0100
0010
0100
0001
0010
0001
0100
0010
1000
,
0010
0100
0001
1000
0001
1000
0020
0000
0100
0000
0100
0000
1000
0000
1000
0000
,
0100
0000
0130
0000
0000
0000
0001
0010
0100
1000
0001
0100
0010
1000
0001
1000
,
0010
0100
0000
0000
0000
0000
1000
0100
0010
0001
0100
0010
0100
0001
1000
0010
,
0100
0010
1000
0001
0100
0010
1000
0010
0100
0001
1000
0001
0100
0010
1000
0001
,
0100
0010
0000
0000
0000
0000
1000
0100
0010
0001
0100
0001
0010
0100
1000
0010
,
0100
0001
1000
0010
0100
0001
0100
0010
1000
0100
0010
0001
0100
0010
1000
0100
,
0010
0001
0000
0000
0000
0000
0001
0100
0010
1000
0001
0100
0010
1000
0001
0010
,
0100
1000
0010
0100
0001
1000
0001
0100
0010
1000
0100
0010
0001
0100
0010
1000
,
0001
1000
0000
0000
0000
0000
0010
1000
0010
0100
0001
1000
0100
0010
0001
0100
,
0001
0010
0001
0100
0001
1000
0010
0000
0100
0001
0100
0010
1000
0001
0100
0010
,
1000
0001
0000
0000
0000
0000
0100
0010
0100
0001
1000
0010
0100
0001
1000
0010
,
1000
0001
0000
0000
0000
0000
0100
0010
1000
0001
0010
0100
1000
0010
0100
0001
,
1000
0010
0000
0000
0000
0000
0000
0100
0001
0100
0001
1000
0100
0010
0001
1000
,
0001
1000
0000
0000
0000
0000
0010
0100
0001
0010
1000
0001
0100
0010
1000
0001
,
0100
0010
0000
0000
0000
0000
0000
0001
1000
0001
1000
0010
1000
0010
0100
0010
,
0100
0010
0000
0000
0000
0000
1000
0000
0100
0000
0010
0000
0001
0000
0011
0000
,
0010
0110
1000
0010
1000
1100
0100
0010
,
0011
1000
1010
0011
0100
0001
0100
0110
,
0000
1100
0000
0001
0100
0010
1000
0110
,
0001
0101
1000
1010
0000
0100
0001
0110
,
1000
0101
0000
0010
0100
0001
0010
0001
,
1000
1100
1000
0010
0100
0001
0010
0001
,
1000
1010
0010
0100
0010
1000
0001
0010
,
0100
1100
0010
0011
0100
1000
0001
0100
,
0001
1001
0000
0100
0001
0010
0011
1100
,
0010
0000
0110
0000
0000
0000
1000
0100
1000
0100
1000
0010
0100
0010
0100
0010
,
1000
0001
1000
0001
1000
0010
0100
0010
0100
0010
1000
0100
0010
0001
0100
0010
,
1000
0001
0010
0100
1000
0100
0010
0001
0100
0010
1000
0001
0100
0010
1000
0001
,
0100
0010
0100
0001
1000
0000
0010
0100
0010
0100
0001
0010
0001
0010
0000
0100
,
1000
0100
1000
0001
0100
0001
1000
0010
1000
0001
0100
0010
1000
0001
0100
0010
,
0100
0001
1000
0010
0100
0001
0010
0100
1000
0010
0100
0001
1000
0100
0010
0001
,
0100
0010
1000
0001
0100
0010
0100
0010
1000
0100
0010
0001
0100
0010
1000
0001
,
0100
0010
1000
0001
1000
0000
0010
0000
0100
0000
0001
0000
0001
0000
0000
0000
,
1000
0100
0010
0000
0001
0010
0001
0010
0100
1000
0100
1000
0010
0100
0010
0100
,
0010
1000
0001
1000
0001
1000
0001
0000
0000
0000
0100
0010
0100
0010
0100
0010
,
1000
0100
1000
0100
1000
0001
0010
0001
0010
0001
0010
0100
1000
0000
0000
0000
,
0001
0100
0001
1000
0010
1000
0001
0110
,
1000
0000
1100
0000
0001
0010
0001
0010
0001
0010
0100
1000
0100
0000
0000
0000
,
1000
0010
1000
0010
0100
0010
0100
0001
0100
0010
0100
0010
1000
0001
1000
0000
,
0010
0100
0010
1000
0001
1000
0010
0100
0001
0000
1000
0000
0001
0000
1000
0000
,
0100
0010
0001
1001
0100
0110
0001
0101
,
0100
0000
0110
0000
1001
0000
1000
0010
1000
0010
1000
0010
1000
0001
0100
0001
,
0100
0001
0100
0001
1000
0010
1000
0010
1000
0010
1000
0001
0100
0001
0100
0001
,
0100
0001
0100
0010
0100
0010
0100
0010
0100
0010
1000
0001
1000
0001
1000
0001
,
1000
0001
1000
0000
0010
0000
0100
0000
0010
0000
1000
0000
0010
0000
0100
0001
,
0100
0000
0011
0000
0011
0000
0101
0000
1000
0001
1000
0001
1000
0001
1000
0010
,
0100
0010
0100
0010
0100
0001
1000
0001
1000
0001
1000
0001
1000
0001
0100
0010
,
0100
0010
0100
0010
0100
0010
1000
0100
1000
0100
1000
0001
0010
0001
0010
0001
,
1000
0010
1000
0010
1000
0010
0100
0001
1000
0010
0100
0001
1000
0010
0100
0000
,
0101
1100
1100
0020
0001
0001
0031
1000
,
1000
0000
0000
0200
0001
0001
0001
0010
,
0010
0000
0310
0000
0000
0000
1000
0000
0001
0000
0100
0000
0010
0000
1000
0001
,
0100
0001
0100
0000
0000
0000
0010
0000
1000
0000
0001
0000
0100
0000
0010
0100
,
0001
1000
0010
0000
0000
0000
1000
0000
0100
0000
0010
0000
0001
1000
0001
1000
,
0010
1000
0010
0000
0000
0000
0100
0000
0001
0000
1000
0000
0001
0000
0100
0000
,
0010
1000
0010
0000
0000
0000
0100
0000
0010
0000
0100
0001
0100
0010
1000
0000
,
0001
0101
0001
1000
0100
0010
0001
0100
,
0010
0000
1010
0000
0000
0000
0001
0100
0010
1000
0001
0100
0010
1000
0001
0100
,
0010
1000
1001
0000
0000
0000
0000
0000
0000
0000
0000
0000
0000
0000
0000
0000
;
