#TITLE:All Thu The Night;
#SUBTITLE:;
#ARTIST:jun feat. Lisa Lisa;
#TITLETRANSLIT:;
#SUBTITLETRANSLIT:;
#ARTISTTRANSLIT:;
#CREDIT:SupremeX;
#BANNER:All Thu The Night.png;
#BACKGROUND:All Thu The Night-bg.png;
#LYRICSPATH:;
#CDTITLE:CDTitle.png;
#MUSIC:All Thu The Night.ogg;
#OFFSET:-0.400;
#SAMPLESTART:41.360;
#SAMPLELENGTH:12.000;
#SELECTABLE:YES;
#BPMS:0.000=140.000;
#STOPS:;
#BGCHANGES:3.000=line.avi=1.000=0=0=1,
35.000=7 Bird.avi=1.000=0=0=1,
67.000=8 Moon.avi=1.000=0=0=1,
92.000=ring2r.avi=1.000=0=0=1,
95.000=bubble1.avi=1.000=0=0=1,
99.000=7 Bird.avi=1.000=0=0=1,
131.000=8 Moon.avi=1.000=0=0=1,
147.000=light1.avi=1.000=0=0=1,
158.500=All Thu The Night-bg.png=1.000=0=0=1,
163.000=wind1.avi=1.000=0=0=1,
171.000=ring2r.avi=1.000=0=0=1,
178.000=bubble1.avi=1.000=0=0=1,
195.000=spark1.avi=1.000=0=0=1,
211.000=light1.avi=1.000=0=0=1,
227.000=7 Bird.avi=1.000=0=0=1,
259.000=8 Moon.avi=1.000=0=0=1,
283.000=line.avi=1.000=0=0=1,
291.000=All Thu The Night-bg.png=1.000=0=0=1,
99999=-nosongbg-=1.000=0=0=0 // don't automatically add -songbackground-
;

//---------------dance-single - ----------------
#NOTES:
     dance-single:
     :
     Beginner:
     2:
     0.067,0.084,0.000,0.015,0.000: // measure 1
0000
0000
0000
0000
,  // measure 2
0000
0000
0000
0000
,  // measure 3
0000
0000
0000
0000
,  // measure 4
0000
0000
0000
0000
,  // measure 5
0000
0000
0000
0010
,  // measure 6
0000
0000
0000
0000
,  // measure 7
0000
0000
0000
0000
0000
0010
0000
0000
,  // measure 8
0000
0000
0000
1000
,  // measure 9
0000
0000
0000
0100
,  // measure 10
0000
0000
0000
0000
,  // measure 11
0000
0000
0000
0100
,  // measure 12
0000
0000
0000
0000
,  // measure 13
0000
0000
0000
1000
,  // measure 14
0000
0000
0000
0000
,  // measure 15
0000
0000
0000
0000
0000
0001
0000
0000
,  // measure 16
0000
0000
0000
0000
,  // measure 17
0000
0000
0000
1000
,  // measure 18
0000
0000
0000
0000
,  // measure 19
0000
0000
0000
0001
,  // measure 20
0000
0000
0000
0000
,  // measure 21
0000
0000
0000
1000
,  // measure 22
0000
0000
0000
0000
,  // measure 23
0000
0000
0000
0001
,  // measure 24
0000
0000
0000
0000
,  // measure 25
0000
0000
0000
0100
,  // measure 26
0000
0000
0000
0100
,  // measure 27
0000
0000
0000
0010
,  // measure 28
0000
0000
0000
0010
,  // measure 29
0000
0000
0000
1000
,  // measure 30
0000
0000
0000
1000
,  // measure 31
0000
0000
0000
0001
,  // measure 32
0000
0000
0000
0001
,  // measure 33
0000
0000
0000
0100
,  // measure 34
0000
0000
0000
0100
,  // measure 35
0000
0000
0000
0010
,  // measure 36
0000
0000
0000
0010
,  // measure 37
0000
0000
0000
1000
,  // measure 38
0000
0000
0000
1000
,  // measure 39
0000
0000
0000
0001
,  // measure 40
0000
0000
0000
1000
,  // measure 41
0000
0000
0000
0010
,  // measure 42
0000
0000
0000
0000
0000
0010
0000
0000
,  // measure 43
0000
0000
0000
0100
,  // measure 44
0000
0000
0000
0000
0000
0100
0000
0000
,  // measure 45
0000
0000
0000
0001
,  // measure 46
0000
0000
0000
0000
0000
0001
0000
0000
,  // measure 47
0000
0000
0000
1000
,  // measure 48
0000
0000
0000
1000
,  // measure 49
0000
0000
0000
0020
,  // measure 50
0000
0000
0000
0000
,  // measure 51
0030
0000
0000
0200
,  // measure 52
0000
0000
0000
0000
,  // measure 53
0000
0000
0000
0300
0000
0000
0001
0000
,  // measure 54
0000
0000
0000
1000
,  // measure 55
0000
0000
0000
0001
,  // measure 56
0000
1000
0000
0001
,  // measure 57
0000
0000
0000
0100
,  // measure 58
0000
0000
0000
0100
,  // measure 59
0000
0000
0000
0010
,  // measure 60
0000
0000
0000
0010
,  // measure 61
0000
0000
0000
1000
,  // measure 62
0000
0000
0000
1000
,  // measure 63
0000
0000
0000
0001
,  // measure 64
0000
0000
0000
0001
,  // measure 65
0000
0000
0000
0100
,  // measure 66
0000
0000
0000
0100
,  // measure 67
0000
0000
0000
0010
,  // measure 68
0000
0000
0000
0010
,  // measure 69
0000
0000
0000
1000
,  // measure 70
0000
0000
0000
1000
,  // measure 71
0000
0000
0000
0001
,  // measure 72
0000
0000
0000
0100
,  // measure 73
0000
0000
0000
0010
;

//---------------dance-single - ----------------
#NOTES:
     dance-single:
     :
     Easy:
     3:
     0.224,0.254,0.069,0.046,0.000:
0000
0000
0000
0000
,
0000
0000
0000
0000
,
0000
0000
0000
0000
,
0000
0000
0000
0000
,
0000
0000
0000
0100
,
0000
0000
0000
0000
,
0010
0000
0000
0000
,
0000
0000
0000
2000
,
0000
0000
3000
0010
,
0000
0100
0000
0000
0001
0000
1000
0000
,
0001
1000
0010
0100
,
0000
0100
0000
0000
0000
0000
0001
0000
,
1000
0001
1000
0010
,
0000
0010
0000
0000
0000
0000
1000
0000
,
0001
1000
0001
0100
,
0010
0000
0000
0000
,
0000
0000
0000
1000
,
0010
1000
0010
1000
,
0001
0100
0001
0100
,
0000
0010
0000
0000
1000
0000
0001
0000
,
1000
0001
0100
0010
,
0000
0100
0000
0000
0010
0000
1000
0000
,
0001
0100
0010
1000
,
0001
0001
0010
0200
,
0000
0000
0300
0010
,
0000
0010
0000
0000
1000
0000
0001
0000
,
0000
0001
0000
0000
1000
0000
0010
0000
,
0000
0010
0000
0000
0100
0000
0100
0000
,
0000
0100
0000
0000
0010
0000
1000
0000
,
0000
1000
0000
0000
0001
0000
0100
0000
,
0000
0100
0000
0000
0000
0000
0010
0000
,
1000
0001
0100
0010
,
1000
0000
0001
0100
,
0000
0110
0000
0000
0000
0000
0001
0000
,
0000
1000
0000
0000
0010
0000
0110
0000
,
0000
0110
0000
0000
1000
0000
0001
0000
,
0000
1000
0000
0000
0010
0000
0110
0000
,
0000
0110
0000
0000
0001
0000
1000
0000
,
0000
1000
0000
0000
0000
0000
0001
0000
,
1000
0001
0100
0010
,
1000
1000
0000
0010
,
0100
1000
0010
0100
,
0100
0100
0000
1000
,
0100
0010
0001
0100
,
0100
0100
0000
0010
,
1000
0010
0100
0100
,
0001
0001
0010
0100
,
1000
0000
0010
0100
,
0010
0000
1000
0001
,
0000
1000
0000
0000
0000
0000
0000
0000
,
1000
1000
0000
0010
,
0000
0100
0000
0000
0000
0000
0000
0000
,
0000
0000
0010
1000
,
0000
0010
0000
0000
0000
0000
1000
0000
,
0000
0001
0000
2000
,
0000
0000
0000
0000
0000
3000
0002
0000
,
0000
0000
0003
0100
,
0010
0100
0001
1000
,
0010
1000
0010
0100
,
0001
0100
0000
0010
,
1000
0010
1000
1001
,
0000
0010
0000
0000
0100
0000
0110
0000
,
0000
0110
0000
0000
0000
0000
1000
0000
,
0000
0010
0000
0000
0000
1000
0000
0000
,
0000
0001
0000
0000
0000
0000
1000
0000
,
0010
1000
0010
0100
,
0001
0100
0000
0010
,
0000
1000
0000
0000
0000
0000
0001
0000
,
0100
0001
0100
0010
,
0000
1000
0000
0000
0010
0000
0100
0000
,
0010
0100
0010
1000
,
0000
1000
0000
0000
0000
0001
0000
0001
,
0000
0001
0000
0000
0000
0000
0220
0000
,
0000
0000
0000
0000
0000
0330
0000
0000
;

//---------------dance-single - Copied from----------------
#NOTES:
     dance-single:
     Copied from:
     Medium:
     5:
     0.294,0.315,0.177,0.069,0.000:
0000
0000
0000
0000
,
0000
0000
0000
0000
,
0000
0000
0000
0000
,
0000
0000
0000
0000
,
0000
0000
0000
1000
,
0000
0010
0000
0000
0010
0000
0000
0000
,
1000
0001
1000
0001
,
0100
0000
0000
0220
,
0000
0000
0330
1000
,
0000
1001
0000
0000
0010
0000
0100
0000
,
0010
1000
0001
1000
,
0000
1010
0000
0000
0001
0000
0010
0000
,
0100
1000
0100
0010
,
0000
0011
0000
0000
1000
0000
0010
0000
,
1000
0010
0100
0001
,
1000
0000
0110
0000
,
1001
0000
1010
0100
,
0100
0100
0000
0000
0010
0000
0010
0000
,
0010
0010
0100
0001
,
0100
0100
0000
0000
0010
0000
0010
0000
,
0010
0010
1000
0001
,
0000
1000
0000
0000
0010
0000
1000
0000
,
0010
1000
0001
0100
,
0020
0000
0000
0000
0000
0030
2002
0000
,
0000
0000
3003
0100
,
0010
1000
0001
1000
,
0001
1000
0010
0100
,
0010
0100
0001
1000
,
0001
1000
0010
0110
,
0001
0100
0001
1000
,
0001
1000
0010
0100
,
0001
1000
0010
0100
,
0001
1000
0010
1010
,
0100
0010
0000
0000
0100
0000
0001
0000
,
1000
0010
0000
0000
0100
0000
0001
0000
,
0100
0100
0000
0010
1000
0000
0001
0000
,
0100
0100
0000
0010
1000
0000
1001
0000
,
0010
0100
0010
1000
,
0001
0100
0010
1000
,
0001
1000
0000
0010
0000
0100
0000
0001
,
0000
0001
0000
0000
0000
0000
1000
0000
,
1000
0010
0010
0100
,
0010
0100
1001
0100
,
0010
1000
0001
1000
,
1000
1000
0110
0001
,
0100
0010
1000
0001
,
1000
0010
0100
0001
,
1000
1000
0000
0000
0010
0000
0100
0000
,
0001
0001
0000
0000
1000
0000
0002
0000
,
0000
0000
0000
0003
,
1000
0000
0010
2000
,
0000
0000
0000
0000
,
0000
3000
0001
0100
,
0000
0010
0000
0000
0000
0000
0100
0000
,
0000
0010
0000
1000
,
0000
0001
0000
1000
,
0001
0100
0010
0110
,
0010
1000
0010
0110
,
0001
1000
0001
1001
,
0010
0100
1000
1010
,
0001
0010
0100
0101
,
0010
1000
0010
1010
,
0001
0100
0010
1000
,
1000
0010
0000
1000
0000
0010
0000
0100
,
0000
0001
0000
0000
0000
0000
1001
0000
,
0010
0100
0010
1000
,
0010
0100
0001
1001
,
0010
0100
1000
0100
,
0010
0001
1000
0110
,
0001
1000
0001
1000
,
0010
1000
0010
0100
,
0001
0001
0000
1000
0000
0010
0000
1000
,
0000
1000
0000
0000
0000
0000
2002
0000
,
0000
0000
0000
0000
,
0000
0000
0000
0000
0000
3003
0000
0000
;

//---------------dance-single - Copied from----------------
#NOTES:
     dance-single:
     Copied from:
     Hard:
     8:
     0.411,0.428,0.230,0.138,0.000:
0000
0000
0000
0000
,
0000
0000
0000
0000
,
0000
0000
0000
0000
,
0000
0000
0000
0000
,
0000
0000
0000
0000
1000
0100
1000
0000
,
0000
0010
0000
0100
0100
0000
0000
0100
,
0000
0001
0001
0000
1000
0100
0000
0010
,
0001
0000
1000
0100
0010
0001
0200
0000
,
0000
0000
0300
1001
,
0000
1100
0000
0000
0001
1000
0001
0000
,
0100
0010
0100
0000
0010
1000
0010
0000
,
0000
0101
0000
0000
0010
1000
0001
0000
,
1000
0100
1000
0100
0010
0001
0010
0000
,
0000
0110
0000
0000
1000
0100
1000
0000
,
0010
0100
0010
0000
0100
0100
0000
0001
,
0001
1000
0010
1000
,
0001
0100
0001
1000
,
0100
0100
0000
0001
0010
0001
0010
0100
,
1000
0100
1000
0000
0001
1000
0001
0000
,
0000
0110
0000
0000
1000
0100
0010
0000
,
0010
0001
0010
0100
0010
0001
0010
0000
,
0000
0110
0000
0000
1000
0100
0010
0100
,
1000
0100
0010
0000
1000
1000
0000
0001
,
0001
1000
0100
2002
,
0000
0000
0000
0000
0000
3003
0110
0000
,
0001
0010
0000
1000
0100
0010
0001
0000
,
1000
1000
0000
0000
0020
0000
0230
0000
,
0310
0100
0000
0001
1000
0000
0010
0000
,
1000
0100
0000
0010
0100
0000
1001
0000
,
0100
1000
0000
0100
0010
0000
0011
0000
,
0001
0010
0000
0100
1000
0100
0010
0000
,
0001
1000
0000
0100
0000
1100
0000
0010
,
0000
0110
0000
0000
0001
0000
1000
0100
,
1000
0010
0000
0100
0010
0000
0001
0000
,
1000
0100
0010
0001
1000
0100
1000
0000
,
0100
0010
0000
0001
0010
0000
0100
1000
,
0100
0010
0001
0010
0100
0000
1000
0000
,
0001
0010
0000
0100
1000
0000
0001
0000
,
1000
0100
0010
0001
0010
0100
1000
0000
,
0100
0100
0000
1000
0000
1100
0000
0010
,
0000
0101
0000
1000
0010
0100
0001
0000
,
1000
1000
0000
0010
0000
1000
0000
0101
,
0000
1010
0000
0000
0001
0000
1000
0000
,
0100
0200
0000
0310
0000
0100
0000
0001
,
0000
1000
0000
0001
0001
0000
1000
0000
,
0010
0100
0000
0001
0000
1001
0000
0100
,
0000
0110
0000
0010
1000
0000
0100
0000
,
1000
1000
0000
0002
0000
0000
0203
0000
,
0001
0301
0000
0000
1000
0000
0020
0000
,
1000
0000
0000
0000
0100
0000
0030
1000
,
1000
1000
0000
0000
0001
0000
0200
0000
,
0010
0000
0001
0000
,
0310
0001
0010
0100
,
1000
2000
0000
0000
0000
0000
3020
0000
,
0000
0000
0030
2002
,
3000
0200
0300
2000
,
3003
0000
0000
0100
,
1000
1000
0000
0001
0010
0100
1000
0000
,
0001
0100
0000
0000
0010
0000
1000
0000
,
0100
0010
0000
0001
0010
0100
1000
0000
,
0100
1000
0000
0000
0001
0000
1001
0000
,
1000
0100
0000
0010
0001
0000
1000
0100
,
1000
0100
0010
0001
0010
0001
1000
0000
,
0010
0100
0000
0100
0000
0010
0000
0110
,
0000
0101
0000
0010
1000
0000
1100
0000
,
0010
0010
0100
0001
1000
0100
0010
0001
,
1000
1000
0000
0010
0100
0000
0110
0000
,
0001
0001
0000
1000
0100
1000
0010
0100
,
0010
0100
0001
1000
0100
0000
1100
0000
,
0100
0100
0000
0010
0001
0010
0100
1000
,
0100
0010
0001
1000
0100
1000
0001
0000
,
1000
1000
0000
0110
0000
0011
0000
0110
,
0000
1100
0000
0000
0000
0000
2002
0000
,
0000
0000
0000
0000
,
0000
0000
0000
3003
0000
0000
0000
0000
;
