#TITLE:ALL MY LOVE;
#SUBTITLE:;
#ARTIST:TOMOSUKE feat. SABRINA;
#TITLETRANSLIT:;
#SUBTITLETRANSLIT:;
#ARTISTTRANSLIT:;
#CREDIT:SupremeX;
#BANNER:ALL MY LOVE.png;
#BACKGROUND:ALL MY LOVE-bg.png;
#LYRICSPATH:;
#CDTITLE:CDTitle.png;
#MUSIC:ALL MY LOVE.ogg;
#OFFSET:-1.341;
#SAMPLESTART:15.830;
#SAMPLELENGTH:15.000;
#SELECTABLE:YES;
#DISPLAYBPM:132.000;
#BPMS:0.000=132.000,16.000=131.980;
#STOPS:;
#BGCHANGES:16.000=dance7.avi=1.000=0=0=1,
32.000=6 Disco.avi=1.000=0=0=1,
38.000=discoball1.avi=1.000=0=0=1,
48.000=afro1.avi=1.000=0=0=1,
54.000=jewelry2.avi=1.000=0=0=1,
64.000=face1.avi=1.000=0=0=1,
70.500=blinds2.avi=1.000=0=0=1,
80.000=clap1.avi=1.000=0=0=1,
86.500=blinds2.avi=1.000=0=0=1,
96.000=bricks1.avi=1.000=0=0=1,
104.000=afro1.avi=1.000=0=0=1,
112.000=disco3.avi=1.000=0=0=1,
120.000=face1.avi=1.000=0=0=1,
128.000=discoball1.avi=1.000=0=0=1,
135.000=afro1.avi=1.000=0=0=1,
144.000=6 Disco.avi=1.000=0=0=1,
152.500=clap1.avi=1.000=0=0=1,
164.000=dance7.avi=1.000=0=0=1,
178.000=jewelry2.avi=1.000=0=0=1,
189.000=6 Disco.avi=1.000=0=0=1,
196.000=ALL MY LOVE-bg.png=1.000=0=0=1,
99999=-nosongbg-=1.000=0=0=0 // don't automatically add -songbackground-
;

//---------------dance-single - ----------------
#NOTES:
     dance-single:
     :
     Hard:
     8:
     0.357,0.389,0.074,0.064,0.069: // measure 1
0000
0000
0000
0000
,  // measure 2
0000
0000
0000
0000
,  // measure 3
0000
0000
0000
0000
,  // measure 4
0000
0000
0000
0000
,  // measure 5
0010
0010
0100
0100
,  // measure 6
0001
0001
1000
1000
,  // measure 7
0110
0100
1001
1000
,  // measure 8
0010
0000
0100
0000
0001
1000
0010
0100
,  // measure 9
0002
1000
1000
1003
,  // measure 10
0010
0000
0100
0000
0001
1000
0001
0100
,  // measure 11
0001
0000
1000
0010
0100
0000
0001
0000
,  // measure 12
1000
0000
0100
0000
1000
0000
0001
0000
0100
0001
0100
0000
0001
0000
0100
0000
,  // measure 13
0020
1000
0100
1000
,  // measure 14
0100
0000
1030
0000
0001
1000
0001
0100
,  // measure 15
0010
1000
0001
1000
0000
0000
0010
0000
,  // measure 16
0100
0000
0001
0000
1000
0000
0000
0000
0010
0100
0010
0000
0100
0000
0010
0000
,  // measure 17
1000
0000
0000
1000
0000
0000
0100
0000
0010
0000
0000
0010
0000
0000
0001
0000
,  // measure 18
0100
0000
0000
0110
0000
0000
0000
0000
0000
0000
0010
0000
1000
0000
0000
0001
,  // measure 19
0000
0001
0000
0000
1000
0000
0000
0000
0010
0000
0000
0000
0100
0000
0000
0000
,  // measure 20
0010
1000
0001
0100
,  // measure 21
0010
0000
0000
0100
0000
0000
0010
0000
1000
0000
0000
0010
0000
0000
0100
0000
,  // measure 22
0001
0000
0000
1001
0000
0000
0000
0000
0000
0000
0010
0000
1000
0000
0000
0010
,  // measure 23
0000
0100
0000
0000
0001
0000
0000
0000
0100
0000
0000
0000
0001
0000
0000
0000
,  // measure 24
1000
0010
1000
0001
,  // measure 25
0100
0010
0100
0010
1000
0000
0001
0100
,  // measure 26
0000
0010
1000
0001
0100
0000
0110
0000
,  // measure 27
0001
1000
0010
1000
0001
0000
0100
0010
,  // measure 28
0000
1000
0100
0000
0010
0001
0000
0000
,  // measure 29
1000
0010
0100
0001
1000
0000
0010
0100
,  // measure 30
0000
0001
1000
0001
1000
0000
0101
0000
,  // measure 31
0001
1000
0100
0010
0001
0000
0100
0010
,  // measure 32
0000
1000
0001
0000
0100
0010
1000
0001
,  // measure 33
0100
0000
0000
0020
0000
0000
0000
2030
,  // measure 34
0000
0000
0000
3001
0000
0000
0100
0100
,  // measure 35
0000
0000
0010
0010
0000
0000
1000
1000
,  // measure 36
0000
0001
0100
0001
1000
0010
1000
0000
,  // measure 37
0010
0000
0100
0001
1000
0001
0000
0100
,  // measure 38
0000
0000
0010
0000
0000
0000
0000
0000
1000
0000
0000
0001
0000
0000
0100
0000
,  // measure 39
0000
0020
0000
0000
0000
0000
0000
0000
,  // measure 40
0000
0000
0000
0030
1000
0000
0000
0000
,  // measure 41
0001
0000
1000
0000
0001
0100
0010
1000
,  // measure 42
0001
0000
0100
0000
0010
0000
1000
0001
,  // measure 43
0000
0001
0000
0000
1000
0100
1000
0001
,  // measure 44
0100
0000
0010
0100
0000
0001
0000
1000
,  // measure 45
0010
0000
0100
0000
0010
1000
0100
1000
,  // measure 46
0001
0000
0100
0000
0010
0000
1000
0100
,  // measure 47
0000
1000
0000
0000
0001
0000
0010
0000
,  // measure 48
0000
0000
0001
0100
0000
0010
1000
0002
,  // measure 49
0000
0100
0103
0010
,  // measure 50
1001
0000
0000
0000
;

//---------------dance-single - ----------------
#NOTES:
     dance-single:
     :
     Medium:
     6:
     0.278,0.285,0.032,0.064,0.064:
0000
0000
0000
0000
,
0000
0000
0000
0000
,
0000
0000
0000
0000
,
0000
0000
0000
0000
,
0010
0010
0100
0100
,
0001
0001
1000
1000
,
0010
0000
0100
0000
,
0001
1000
0001
0100
,
0002
1000
1000
1003
,
0010
0100
0001
1000
,
0001
0000
0000
0100
0000
0000
0001
0000
,
1000
0000
0000
0000
1000
0000
0000
0000
0001
0100
0001
0000
0100
0000
0100
0000
,
0020
1000
0000
1000
,
0000
1030
0001
0100
,
0010
0000
0001
1000
0000
0000
0010
0000
,
0100
0010
1000
0000
0001
0000
0100
0010
,
1000
0000
0000
1000
0000
0000
0000
0000
0001
0000
0000
0001
0000
0000
0000
0000
,
0100
0000
0000
0100
0000
0000
0000
0000
0000
0000
0000
0000
1000
0000
0000
0010
,
0000
0010
0000
0000
0100
0000
0000
0000
0000
0000
0000
0000
0001
0000
0000
0000
,
1000
0001
0000
1000
,
0010
0000
0000
0100
0000
0000
0000
0000
0001
0000
0000
1000
0000
0000
0000
0000
,
0010
0000
0000
0100
0000
0000
0000
0000
0000
0000
0000
0000
1000
0000
0000
0001
,
0000
0001
0000
0000
0100
0000
0000
0000
0000
0000
0000
0000
0010
0000
0000
0000
,
1000
0001
0000
0100
,
0010
0000
0010
0000
1000
0000
0001
0100
,
0000
1000
0001
0110
,
1000
0000
1000
0000
0001
0000
0100
0010
,
0000
1000
0001
0000
0100
0010
0000
0000
,
0001
0000
0100
0000
0010
0000
1000
0001
,
0000
1000
0010
0101
,
0001
1000
0001
0100
,
0000
0000
0001
0000
1000
0000
0010
0100
,
0010
0000
0000
2000
0000
0000
0000
3002
,
0000
0000
0000
0103
0000
0000
0001
0001
,
0000
0000
1000
1000
0000
0000
0000
0010
,
0000
0100
0001
0000
1000
0010
1000
0000
,
0010
0000
0100
0001
1000
0001
0000
0100
,
0000
0000
0010
0000
0000
0000
0000
0000
0100
0000
0000
0001
0000
0000
1000
0000
,
0000
0200
0000
0000
0000
0000
0000
0000
,
0000
0000
0000
0300
0010
0000
0000
0000
,
0100
0001
0001
1000
,
0010
0000
0100
0000
0010
0000
1000
0001
,
0000
1000
0000
0000
0010
0100
0010
0100
,
0001
0000
1000
0001
0000
1000
0000
0001
,
0000
0000
0100
0000
0010
1000
0001
1000
,
0010
0000
0100
0000
0001
0000
1000
0010
,
0000
0100
0000
0000
0001
0000
0010
0000
,
0000
0000
0100
1000
0000
0000
0010
0200
,
0000
0001
0301
1000
,
1001
0000
0000
0000
;

//---------------dance-single - ----------------
#NOTES:
     dance-single:
     :
     Easy:
     3:
     0.186,0.207,0.011,0.032,0.000:
0000
0000
0000
0000
,
0000
0000
0000
0000
,
0000
0000
0000
0000
,
0000
0000
0000
0000
,
1000
0000
0001
0000
,
1000
0000
0001
0000
,
0100
0000
0100
0000
,
0010
0010
0010
0010
,
2000
0000
0000
0000
,
3000
0000
0001
0100
,
0001
0000
0000
1000
0000
0000
0000
0000
,
0010
0010
0100
0100
,
0002
0000
0000
0000
,
0000
0003
1000
0001
,
1000
0000
0000
0010
0000
0000
0000
0000
,
0100
0100
0001
0001
,
1000
0000
0010
0000
,
0100
0000
0000
0001
,
0001
0000
0000
1000
,
0000
0010
0000
0100
,
0001
0000
1000
0000
,
0010
0000
0000
1000
,
0001
0000
0000
0100
,
0000
0010
0100
0010
,
1000
0000
1000
0000
0001
0000
0000
0100
,
0000
0100
0001
1000
,
0010
0000
0010
0000
0100
0000
0000
0001
,
0000
1000
0010
0000
,
0100
0000
0100
0000
0001
0000
0000
1000
,
0000
1000
0010
0100
,
0001
0000
1000
0000
0001
0000
0000
0100
,
0000
0010
0100
0100
,
0001
0000
0000
1000
0000
0000
0000
0010
,
0000
0000
0000
0100
0000
0000
0001
1000
,
0000
0000
0001
0100
0000
0000
0001
0100
,
0000
0000
0000
0000
,
1000
0000
0010
0000
,
0100
0000
0001
1000
,
0010
0200
0000
0000
,
0000
0000
0000
0300
0001
0000
0000
0000
,
1000
1000
0010
0100
,
0001
0000
0001
0000
1000
0000
0000
0010
,
0000
0010
0000
0000
0100
0000
0010
0000
,
0100
0000
0000
0001
0000
1000
0000
0001
,
0000
0000
0100
0001
,
0100
0000
0010
0000
1000
0000
0000
0010
,
0000
0100
0000
0000
0000
0000
0001
0000
,
0000
1000
0000
0010
,
0000
0100
0010
1000
,
1001
0000
0000
0000
;

//---------------dance-single - Copied from----------------
#NOTES:
     dance-single:
     Copied from:
     Beginner:
     1:
     0.053,0.078,0.000,0.021,0.000:
0000
0000
0000
0000
,
0000
0000
0000
0000
,
0000
0000
0000
0000
,
0000
0000
0000
0000
,
0010
0000
0000
0000
,
0010
0000
0000
0000
,
0100
0000
0000
0000
,
0100
0000
0000
0000
,
0002
0000
0000
0000
,
0000
0003
0000
0000
0000
0000
0000
0000
,
1000
0000
0000
0000
,
0010
0000
0000
0000
,
0200
0000
0000
0000
,
0000
0300
0000
0000
0000
0000
0000
0000
,
0001
0000
0000
0000
,
1000
0000
0000
0000
,
0010
0000
0000
0000
,
0000
0000
0000
0000
,
0010
0000
0000
0000
,
0000
0000
0000
0000
,
0100
0000
0000
0000
,
0100
0000
0000
0000
,
0100
0000
0000
0000
,
0000
0000
0000
0000
,
0001
0000
0000
0000
,
0000
0000
0000
0000
,
0001
0000
0000
0000
,
0000
0000
0000
0000
,
1000
0000
0000
0000
,
0000
0000
0000
0000
,
1000
0000
0000
0000
,
0000
0000
0000
0000
,
0010
0000
0000
0000
,
0000
0000
0000
0000
0000
0000
0000
0100
,
0000
0000
0000
0000
,
0000
0000
0000
0000
,
0010
0000
0000
0000
,
0000
0000
0000
0000
,
0000
0100
0000
0000
0000
0000
0000
0000
,
0000
0000
0010
0000
,
0000
0000
0000
0000
,
1000
0000
0000
0000
,
1000
0000
0000
0000
,
0001
0000
0000
0000
,
0001
0000
0000
0000
,
1000
0000
0000
0000
,
1000
0000
0000
0000
,
0001
0000
0000
0000
,
0001
0000
0000
0000
,
0100
0000
0000
0000
;
