#TITLE:un deux trois;
#SUBTITLE:(25th Anniversary Special);
#ARTIST:SDMS;
#TITLETRANSLIT:;
#SUBTITLETRANSLIT:;
#ARTISTTRANSLIT:;
#GENRE:;
#CREDIT:;
#BANNER:un deux trois (25th Anniversary Special)-bn.png;
#BACKGROUND:un deux trois (25th Anniversary Special)-bg.png;
#LYRICSPATH:;
#CDTITLE:;
#MUSIC:un deux trois (25th Anniversary Special).ogg;
#OFFSET:0.000000;
#SAMPLESTART:13.714000;
#SAMPLELENGTH:20.000000;
#SELECTABLE:YES;
#DISPLAYBPM:140.000000;
#BPMS:0.000000=140.000000
;
#STOPS:
;
#BGCHANGES:;
#KEYSOUNDS:;
#ATTACKS:;

//---------------dance-single - ----------------
#NOTES:
     dance-single:
     :
     Hard:
     17:
     0.970354,1.019773,0.768960,0.064080,1.057320,636.000000,564.000000,72.000000,6.000000,0.000000,0.000000,0.970354,1.019773,0.768960,0.064080,1.057320,636.000000,564.000000,72.000000,6.000000,0.000000,0.000000:
// measure 0
0000
0000
0000
0000
,  // measure 1
0000
0000
0000
0000
,  // measure 2
0000
0000
0000
0000
,  // measure 3
0000
0000
0000
0000
,  // measure 4
1010
0000
0001
0100
0001
0000
1000
0000
1000
0000
0000
0000
0100
0000
0010
0000
,  // measure 5
0001
0000
1000
0010
1000
0000
0100
0000
0100
0000
0000
0000
0010
0000
0001
0000
,  // measure 6
1000
0000
0010
0100
0010
0000
1000
0000
1000
0000
0000
0000
0001
0000
0100
0000
,  // measure 7
0010
0000
0000
1000
0000
0000
0010
0000
0000
1000
0000
0000
0001
0000
0000
0010
0000
0000
0001
0000
0000
0010
0000
0000
0001
0000
0000
0100
0000
0000
0001
0000
0000
0100
0000
0000
0010
0000
0100
0000
0010
0000
0100
0000
0010
0000
0100
0000
,  // measure 8
0010
0000
1000
0001
0010
0001
0100
0000
0101
0000
0101
0000
1001
0000
1001
0000
,  // measure 9
0001
0100
0010
1000
0001
0100
0010
0000
0110
0000
0110
0000
1010
0000
1010
0000
,  // measure 10
0001
1000
0100
0010
0001
1000
0010
0000
0110
0000
0110
0000
1001
0000
1001
0000
,  // measure 11
0001
0010
0100
1000
0010
0100
0001
0000
1000
0000
0100
0010
0001
0000
0101
0000
,  // measure 12
1000
0010
0100
0010
1000
0001
0100
0000
1010
0000
1010
0000
1100
0000
1100
0000
,  // measure 13
0010
0001
1000
0100
1000
0010
0100
0000
0001
0000
1000
0010
1000
0000
0001
0000
,  // measure 14
0100
0010
0100
0001
1000
0100
0010
0000
0011
0000
0011
0000
1001
0000
1001
0000
,  // measure 15
0010
1000
0100
1000
0100
0010
0001
0000
0100
0000
0010
1000
0001
0000
0110
0000
,  // measure 16
1010
0000
0001
0100
0000
0100
0001
0000
1000
0000
0000
0000
1000
0000
0100
0000
,  // measure 17
0010
0000
0001
1000
0000
1000
0001
0000
0100
0000
0000
0000
0010
0000
1000
0000
,  // measure 18
0100
0000
0010
0001
0000
0001
0010
0000
0001
0000
0000
0000
1000
0000
0001
0000
,  // measure 19
0100
0000
0010
1000
0000
1000
0010
0000
0100
0000
0000
0000
0001
0000
0001
0000
,  // measure 20
0001
0000
0010
0001
0100
0010
1000
0000
0100
0000
0000
0000
1100
0000
0110
0000
,  // measure 21
0011
0000
1000
0001
1000
0010
0100
0001
0010
0000
0000
0000
1001
0000
0110
0000
,  // measure 22
1001
0000
0010
1000
0100
0010
0001
0100
0001
0000
0000
0000
1000
0010
1000
0000
,  // measure 23
0100
0000
0010
0001
0100
0000
0010
1000
0100
0000
0000
0000
1000
0001
0100
0010
,  // measure 24
1000
0000
0000
0000
0000
0000
0001
0000
0000
0100
0000
0000
0000
0000
0000
0010
0000
0000
0000
0000
0000
0010
0000
0000
0000
0000
0000
0000
1000
0000
0000
0000
0001
0000
0000
0000
0000
0000
0000
0000
0000
0000
0000
0000
0000
0101
0000
0000
,  // measure 25
0000
0000
0000
0000
0000
0000
0000
0000
0000
1100
0000
0000
0000
0000
0000
0000
0000
0000
0000
0000
0000
0010
0000
0000
0000
0000
0000
0000
0000
0000
0001
0000
0000
0000
1000
0000
0000
0000
0000
0000
0000
0000
0000
0000
0000
0000
0000
0000
,  // measure 26
0100
1000
0100
1000
0100
0010
0100
0010
0002
0000
0000
0000
0000
0000
0000
0000
,  // measure 27
1003
0010
1000
0010
1000
0001
1000
0001
0200
0000
0000
0320
0000
0000
2030
0000
,  // measure 28
3001
0100
0001
0100
0010
0100
0010
0100
0002
0000
0000
0000
0000
0000
0000
0000
,  // measure 29
1003
0001
1000
0001
0010
0001
0010
0001
0200
0000
0000
0000
0000
0000
0301
1000
,  // measure 30
0100
0010
0100
0010
0100
0010
0100
0010
0001
1000
0001
1000
0001
1000
0001
1000
,  // measure 31
0010
1000
0010
1000
0010
1000
0010
1000
0001
0100
0001
0100
0001
0100
0001
0100
,  // measure 32
0001
0000
0000
0010
0000
0000
0001
0000
0000
0010
0000
0000
0100
0000
0000
1000
0000
0000
0100
0000
0000
1000
0000
0000
0010
0000
0000
0100
0000
0000
0010
0000
0000
0100
0000
0000
0001
0000
1000
0000
0001
0000
1000
0000
0001
0000
1000
0000
,  // measure 33
0001
0000
0100
0010
1000
0010
0100
0010
1000
0010
0100
0010
1000
0010
0100
0000
,  // measure 34
0001
0000
0010
0100
1000
0000
0001
0000
0100
0000
0100
0000
0010
0000
0010
0000
,  // measure 35
1000
0000
0001
0010
0100
0000
1000
0000
0001
0000
0001
0000
0100
0000
0100
0000
,  // measure 36
0001
0000
0010
0001
1000
0000
0010
0000
1000
0000
1000
0000
0100
0000
0100
0000
,  // measure 37
1000
0000
0010
0100
0001
0000
0010
0000
0001
0000
0001
0000
1000
0000
1000
0000
,  // measure 38
0001
0010
0100
0010
0001
1000
0010
0000
1010
0000
1001
0000
0011
0000
0110
0000
,  // measure 39
0100
1000
0010
0100
0001
1000
0100
0000
0011
0000
1001
0000
0110
0000
0101
0000
,  // measure 40
1000
0001
1000
0100
0010
0001
1000
0000
1010
0000
1100
0000
1001
0000
0011
0000
,  // measure 41
0100
0001
1000
0100
1000
0010
0100
0000
0110
0000
0101
0000
1100
0000
0011
0000
,  // measure 42
1000
0100
0010
0001
0100
0000
0010
0000
1010
0000
0110
0000
1001
0000
1100
0000
,  // measure 43
0010
0001
0100
0001
1000
0100
0010
0000
0011
0000
1001
0000
0101
0000
0110
0000
,  // measure 44
1000
0100
0010
0100
0010
0001
1000
0000
0101
0000
1010
0000
1100
0000
0110
0000
,  // measure 45
0010
0001
1000
0001
1000
0100
0010
0000
0011
0000
1100
0000
0101
0000
1010
0000
,  // measure 46
0100
0000
0001
0010
0100
0000
1000
0100
0010
0000
0001
0000
0100
0000
0010
0000
,  // measure 47
1000
0000
0001
0100
0001
1000
0010
0000
0110
0000
0110
0000
1001
0000
1001
0000
,  // measure 48
0010
1000
0100
0010
0001
1000
0100
0000
1100
0000
0110
0000
0011
0000
1001
0000
,  // measure 49
0100
0001
0100
0001
1000
0100
1000
0100
1000
0010
1000
0010
0100
0001
0100
0001
,  // measure 50
1000
0100
1000
0100
1000
0100
1000
0100
1000
0100
1000
0100
1000
0100
1000
0100
,  // measure 51
0010
0001
0010
0001
0010
0001
0010
0001
0010
0001
0010
0001
0010
0001
0010
0001
,  // measure 52
0100
0000
0000
0010
0000
0000
0100
0000
0000
0010
0000
0000
1000
0000
0000
0001
0000
0000
1000
0000
0000
0001
0000
0000
0100
0000
0000
0010
0000
0000
0100
0000
0000
0010
0000
0000
1000
0000
0100
0000
0010
0000
0001
0000
0010
0000
0100
0000
,  // measure 53
1000
0000
0001
0100
0000
0000
0010
1000
0001
1000
0010
1000
0001
1000
0010
1000
,  // measure 54
0001
1000
0010
1000
0001
1000
0010
1000
0001
1000
0000
0000
0000
0000
0000
0000
;
