#TITLE:toy boxer;
#SUBTITLE:;
#ARTIST:BEMANI Sound Team "S-C-U & SYUNN";
#TITLETRANSLIT:;
#SUBTITLETRANSLIT:;
#ARTISTTRANSLIT:;
#GENRE:;
#CREDIT:;
#BANNER:toy boxer-bn.png;
#BACKGROUND:toy boxer-bg.png;
#LYRICSPATH:;
#CDTITLE:;
#MUSIC:toy boxer.ogg;
#OFFSET:0.000000;
#SAMPLESTART:61.902000;
#SAMPLELENGTH:20.000000;
#SELECTABLE:YES;
#DISPLAYBPM:190.000000;
#BPMS:0.000000=190.000000
;
#STOPS:
;
#BGCHANGES:;
#KEYSOUNDS:;
#ATTACKS:;

//---------------dance-single - ----------------
#NOTES:
     dance-single:
     :
     Beginner:
     4:
     0.166306,0.260768,0.111758,0.055879,0.000000,125.000000,113.000000,12.000000,6.000000,0.000000,0.000000,0.166306,0.260768,0.111758,0.055879,0.000000,125.000000,113.000000,12.000000,6.000000,0.000000,0.000000:
0000
0000
0000
0000
,
0000
0000
0000
0000
,
0000
0000
0000
0000
,
0000
0000
0000
0000
,
0000
0000
0000
0000
,
0000
0000
0000
0000
,
0000
0000
0000
0000
,
0000
0000
0000
0000
,
0000
0000
0000
0000
,
0001
0000
0000
0000
,
0001
0000
0000
0000
,
0010
0000
0001
0000
,
0100
0000
0000
0000
,
1000
0000
0000
0000
,
1000
0000
0000
0000
,
0010
0000
1000
0000
,
0100
0000
0000
0000
,
0002
0000
0000
0000
,
0003
0000
0000
0000
,
0001
0001
0001
0000
,
0001
0000
0000
0000
,
2000
0000
0000
0000
,
3000
0000
0000
0000
,
1000
1000
1000
0000
,
1000
0000
0000
0000
,
0001
0000
0010
0000
,
0001
0000
0010
0000
,
1000
0000
0010
0000
,
1000
0000
0000
0000
,
1000
0000
0100
0000
,
1000
0000
0100
0000
,
0001
0000
0100
0000
,
0001
0000
0000
0000
,
0001
0001
0001
0000
,
0010
0000
0100
0000
,
0010
0010
0010
0000
,
1000
0000
0000
0000
,
1000
1000
1000
0000
,
0010
0000
0100
0000
,
0010
0010
0010
0000
,
0001
0000
0000
0000
,
0001
0000
0100
0000
,
1000
0000
0010
0000
,
1000
0000
0010
0000
,
0001
0000
0100
0000
,
0001
0000
0010
0000
,
1000
0000
0100
0000
,
1000
0000
0100
0000
,
0001
0000
0000
0000
,
1001
0000
0000
0000
,
1001
0000
0000
0000
,
1001
0000
0000
0000
,
0010
0010
0010
0000
,
1001
0000
0000
0000
,
1001
0000
0000
0000
,
1001
0000
0000
0000
,
0100
0100
0100
0000
,
1000
0000
0010
0000
,
0100
0000
0010
0000
,
1000
0000
0100
0000
,
0001
0000
0000
0000
,
0001
0000
0010
0000
,
0100
0000
0010
0000
,
0001
0000
0100
0000
,
1000
0000
0000
0000
,
1000
0000
0100
0000
,
1000
0000
0010
0000
,
0001
0000
0001
0000
,
0001
0000
0000
0000
,
1001
0000
0000
0000
,
1001
0000
0000
0000
,
2002
0000
0000
0000
,
3003
0000
0000
0000
,
0001
0000
0100
0000
,
0001
0000
0010
0000
,
1000
0000
1000
0000
,
1000
0000
0000
0000
,
1001
0000
0000
0000
,
1001
0000
0000
0000
,
2002
0000
0000
0000
,
3003
0000
0000
0000
,
0000
0000
0000
0000
;

//---------------dance-single - ----------------
#NOTES:
     dance-single:
     :
     Easy:
     9:
     0.404457,0.488824,0.381839,0.111758,0.000000,304.000000,263.000000,41.000000,12.000000,0.000000,0.000000,0.404457,0.488824,0.381839,0.111758,0.000000,304.000000,263.000000,41.000000,12.000000,0.000000,0.000000:
0000
0000
0000
0000
,
0000
0000
0000
0000
,
0000
0000
0000
0000
,
0000
0000
0000
0000
,
0000
0000
0000
0000
,
0000
0000
0000
0000
,
0000
0000
0000
0000
,
0000
0000
0000
0000
,
0000
0000
0000
0000
,
0001
0010
0001
0000
,
1000
0010
1000
0000
,
0001
0100
0001
0000
,
1000
0100
1000
0000
,
0001
0010
0100
1000
,
0010
0100
0001
0010
,
0100
1000
0010
0100
,
2002
0000
0000
3003
,
1000
0100
1000
0001
,
0010
0000
0001
0000
0100
0010
0100
0000
,
0001
0100
0001
1000
,
0010
0000
1000
0000
0100
0010
0100
0000
,
1000
0001
0100
0010
,
1000
0000
0100
0000
0010
0001
0010
0000
,
0001
1000
0010
0100
,
0001
0000
0100
0000
0010
1000
0010
0000
,
1000
1000
0100
0100
,
0001
0001
0100
0100
,
1000
1000
0010
0010
,
0001
0000
0001
0000
0010
0100
0010
0000
,
0001
0001
0010
0010
,
1000
1000
0010
0010
,
0001
0001
0100
0100
,
1000
0001
1000
0000
1001
0000
0000
0000
,
1000
0100
0001
0100
,
1000
0100
0001
0100
,
1000
0010
0001
0010
,
1000
0001
1000
0000
1001
0000
0000
0000
,
0001
0100
1000
0100
,
0001
0100
1000
0100
,
0001
0010
1000
0010
,
0001
1000
0001
0000
1001
0000
0000
0000
,
0010
1000
0100
0010
,
0001
0100
0010
1000
,
0100
0010
0001
0100
,
0010
0100
0010
0000
0110
0000
0000
0000
,
0010
0001
0100
0010
,
1000
0100
0010
0001
,
0100
0010
0100
0000
0000
0110
0000
0000
,
2002
0000
0000
3003
,
0001
1000
0010
1000
,
1100
0101
1100
0000
,
1000
0001
0010
0001
,
0101
1100
0101
0000
,
0001
1000
0100
1000
,
1010
0011
1010
0000
,
1000
0001
0100
0001
,
0011
1010
0011
0000
,
0010
0000
1000
0000
0100
0010
0100
0000
,
1100
0110
0011
0000
,
0010
0000
0001
0000
0100
0010
0100
0000
,
0101
0110
1010
0000
,
1000
0000
0001
0000
0100
0000
0010
1000
,
0010
0000
0100
0000
0001
0000
0010
0100
,
1000
1000
0001
0001
,
2002
0000
0000
3003
,
0010
0001
0100
1001
,
0010
1000
0100
1001
,
0100
0001
0010
1001
,
0100
1000
0010
1001
,
0220
0330
0010
0100
,
0000
0100
0001
0000
,
0011
0000
1010
0000
,
1100
0000
0101
0000
,
0001
1000
0010
0110
,
1000
0001
0010
0110
,
0001
1000
0100
0110
,
1000
0001
0100
0110
,
2002
3003
0001
1000
,
0000
0000
1000
0000
0100
0010
0100
0000
,
0220
0000
0000
0000
,
0000
0000
0000
0330
,
0000
0000
0000
0000
;

//---------------dance-single - ----------------
#NOTES:
     dance-single:
     :
     Medium:
     12:
     0.525528,0.638242,0.279395,0.093132,0.027939,395.000000,365.000000,30.000000,10.000000,0.000000,0.000000,0.525528,0.638242,0.279395,0.093132,0.027939,395.000000,365.000000,30.000000,10.000000,0.000000,0.000000:
0000
0000
0000
0000
,
0000
0000
0000
0000
,
0000
0000
0000
0000
,
0000
0000
0000
0000
,
0000
0000
0000
0000
,
0000
0000
0000
0000
,
0000
0000
0000
0000
,
0000
0000
0000
0000
,
0000
0000
0000
0000
,
0001
1000
0001
1000
,
0001
1000
0001
1000
,
0010
0100
0010
0100
,
0010
0100
0010
0100
,
0001
0010
0100
1000
0100
0010
0001
0000
,
1000
0100
0010
0001
0010
0100
1000
0000
,
0001
0010
0100
0000
1000
0010
0100
0000
,
0000
0010
0000
0000
0010
0000
1001
0000
,
1000
0010
0100
0010
,
1000
0000
0100
0000
0010
0001
0010
0000
,
0001
0100
1000
0100
,
0010
0000
0100
0000
0010
0100
0010
0000
,
1000
0001
0010
0100
,
1000
0000
0010
0000
0100
0001
0100
0000
,
0001
1000
0100
0001
,
0100
0000
1000
0000
0001
1000
0001
0000
,
1000
0000
0100
0000
1000
0100
1000
0000
,
0001
0000
0010
0000
0001
0010
0001
0000
,
0010
0000
0100
0000
0010
0100
0010
0000
,
0001
0000
1000
0000
0001
1000
0001
0000
,
0100
0000
0001
0000
0100
0001
0100
0000
,
0010
0000
1000
0000
0010
1000
0010
0000
,
0100
0000
0010
0000
0100
0010
0100
0000
,
0001
1000
1001
0000
,
0001
0000
0010
0001
0000
0100
0001
0000
,
0010
0001
0000
0100
0001
0000
0010
0000
,
0100
0000
1000
0010
0000
1000
0100
0000
,
1000
0010
0000
1000
0100
0000
0010
0000
,
0001
0000
0000
1000
0000
0000
0001
0000
0000
1000
0000
0000
0001
0000
1000
0000
,
0000
1000
0010
0000
0100
0000
0100
0000
,
0010
1000
0010
0000
0100
0001
0010
0001
,
0000
0000
0010
0010
,
0001
0000
1000
0100
0000
0010
0001
0000
,
1000
0100
0000
0010
0001
0000
1000
0000
,
0001
0000
1000
0010
0000
0100
0001
0000
,
1000
0010
0000
0100
0001
0000
0001
0000
,
1000
0010
1000
0010
1000
0010
1000
0000
,
0001
0010
0001
0010
0001
0010
0001
0000
,
1000
0001
1000
0000
0000
1001
0000
0000
,
0100
0100
0100
0100
,
0010
1000
0010
1000
0100
0000
0010
0001
,
0010
0001
0100
0000
1100
0000
0101
0000
,
0100
0001
0100
0001
0010
0000
0100
1000
,
0100
1000
0010
0000
0011
0000
1010
0000
,
1000
0100
1000
0100
0010
0000
0001
0100
,
0001
0100
0010
0000
0110
0000
1001
0000
,
2000
0000
3000
0200
0000
0300
0002
0000
,
0003
0200
0000
0300
1000
0000
0001
0000
,
1000
0010
0100
0001
1000
0000
0001
0100
,
0010
1000
0001
0000
0110
0000
1001
0000
,
1000
0100
0010
0001
1000
0000
0001
0010
,
0100
1000
0001
0000
0110
0000
1001
0000
,
0001
0010
0001
0010
0100
1000
0100
0010
,
0001
0100
0001
0100
0010
1000
0010
0100
,
0001
0010
0100
1000
0010
0100
0001
0010
,
0000
0110
0000
0000
1001
0000
1001
0000
,
0001
0100
0010
0000
0010
1000
0100
0000
,
0100
0010
0001
0000
0001
1000
0100
0000
,
0100
1000
0001
0000
0001
0010
0100
0000
,
1100
0101
1001
0110
,
2002
0000
3000
0100
0103
0000
0010
1000
,
0000
1001
0000
0001
0100
0000
0010
0000
,
1000
0000
0000
0100
0000
0000
1000
0000
0000
0100
0000
0000
1000
0000
0000
0100
,
0000
0000
0010
0000
0000
0001
0000
0000
0010
0000
0000
0000
0001
0000
0000
0000
,
1000
0010
0100
0000
0100
0001
0010
0000
,
0010
0100
1000
0000
1000
0001
0010
0000
,
0010
0001
1000
0000
1000
0100
0010
0000
,
0011
1010
1001
0110
,
2002
0000
0003
0010
3010
0000
0100
0001
,
0000
1001
0000
1000
0010
0100
0010
0000
,
0220
0000
0000
0330
,
1000
0000
0001
1000
0000
1001
0000
0000
,
0000
0000
0000
0000
;

//---------------dance-single - ----------------
#NOTES:
     dance-single:
     :
     Hard:
     16:
     0.806253,1.013679,0.307334,0.102445,0.470314,606.000000,573.000000,33.000000,11.000000,0.000000,0.000000,0.806253,1.013679,0.307334,0.102445,0.470314,606.000000,573.000000,33.000000,11.000000,0.000000,0.000000:
0000
0000
0000
0000
,
0000
0000
0000
0000
,
0000
0000
0000
0000
,
0000
0000
0000
0000
,
0000
0000
0000
0000
,
0000
0000
0000
0000
,
0000
0000
0000
0000
,
0000
0000
0000
0000
,
0000
0000
0000
0000
,
0010
0010
1000
1000
,
0001
0001
0100
0100
,
0001
0001
1000
1000
,
0100
0100
0010
0010
,
0001
1000
0001
1000
0100
0010
0100
0010
,
0100
1000
0100
1000
0001
0010
0001
0010
,
0001
1000
0001
1000
0001
1000
0001
1000
0010
0100
0010
0100
0010
0100
0010
0100
,
0000
0000
1001
0000
0000
0000
0010
0100
0010
0000
0100
0000
0100
0000
0000
0000
,
0010
0000
1000
0000
0001
0000
0010
0001
0010
0000
0100
0000
1000
0000
0000
0000
,
0100
0000
1000
0000
0001
0000
0100
0001
0100
0000
0010
0000
1000
0000
0000
0000
,
0001
0000
1000
0000
0001
0000
0100
0010
0100
0000
0010
0000
1000
0000
0000
0000
,
0100
0000
0010
0000
0001
0000
1000
0100
1000
0000
0001
0000
0010
0000
0000
0000
,
0100
0000
1000
0000
0100
0000
0010
0001
1000
0000
0001
0000
0100
0000
0000
0000
,
0010
0000
0100
0000
0001
0000
1000
0100
0010
0000
0100
0000
1000
0000
0000
0000
,
0001
0000
1000
0000
0001
0000
0100
0010
1000
0000
0100
0000
0010
0000
0000
0000
,
0001
0000
1000
0000
0010
0000
0100
0001
0010
0000
0001
0000
1000
0000
0000
0000
,
0001
0010
0001
1000
0100
0010
0001
1000
,
0010
0100
0001
0010
1000
0010
0100
0100
,
1000
0001
0010
0100
1000
0100
0001
0100
,
0010
0001
0001
0100
0001
0001
1000
0000
,
0001
0010
1000
0010
0100
0001
0100
1000
,
0010
0100
0010
1000
0010
0100
0010
0010
,
0100
0001
0010
1000
0010
0100
0010
0100
,
1001
0000
1000
0100
0010
0001
1000
0000
,
0010
0100
0001
0010
0100
0001
1000
0010
,
0100
1000
0010
0100
1000
0100
0001
0100
,
1000
0100
0010
1000
0100
0010
0001
1000
,
0010
0000
0100
0000
0000
0000
0001
0010
0001
0000
1000
0000
0100
0000
1000
0000
,
0010
0000
0100
0001
0000
0010
0001
0000
0100
0001
0000
0010
0001
0000
0100
0000
,
0000
0000
0100
0000
0010
0000
1000
0000
0001
0000
1000
0001
1000
0000
0100
0000
,
0010
0001
0100
0010
1000
0100
0010
0100
,
0000
0110
0000
1000
0001
1000
0001
0000
,
0010
0100
1000
0010
0100
1000
0001
0010
,
0100
0001
0010
0100
0001
0100
1000
0100
,
0001
0100
0010
0001
0100
0010
1000
0001
,
0010
0000
0100
0000
0000
0000
1000
0010
1000
0000
0001
0000
0100
0000
0001
0000
,
1000
0000
0001
0010
0100
0000
1000
0000
0010
0100
0001
0000
1000
0000
0100
0010
,
0001
0000
1000
0000
0001
0100
0000
0010
0100
0000
0010
0000
1000
0000
0001
0000
,
1000
0100
0010
0001
1000
0000
0000
0000
0000
0000
0010
0000
0000
0000
0000
0000
,
0100
0100
0100
1001
,
0110
0000
0001
0100
0001
0000
0010
0000
0100
0000
1000
0000
0001
0000
0100
0010
,
0100
0010
1000
0001
1100
0100
0110
0000
,
0001
0000
1000
0010
1000
0000
0001
0000
0010
0000
0100
0000
1000
0000
0010
1000
,
0010
0100
0001
1000
1010
0010
0110
0100
,
0101
0000
0001
0010
0001
0000
1000
0000
0001
0000
0100
0000
0010
0000
1000
0100
,
1000
0000
0001
0000
0100
0000
0001
0000
1000
0000
0010
0100
0010
0000
1000
0000
,
0020
0000
1000
2030
0000
0001
3002
0000
,
0100
0203
0000
0010
0310
0000
1001
0000
,
0110
0000
1000
0100
1000
0000
0001
0000
0100
0000
0010
1000
0010
0000
0100
0000
,
0001
0000
0010
0100
1000
0000
0001
0000
0101
0000
0100
0000
0110
0000
0000
0000
,
1000
0000
0001
0010
0001
0000
0100
0000
0010
0000
1000
0100
1000
0000
0001
0000
,
0100
0000
0010
1000
0001
0000
0010
0000
0110
0000
0100
0000
1100
0000
1000
0000
,
1001
0000
0010
0000
0001
0000
0001
0000
1000
0000
0010
0000
1000
0100
1000
0000
,
0010
0000
1000
0000
0010
0000
0010
0000
0100
0000
0001
0000
0100
0010
0100
0010
,
1000
0001
1000
0001
1000
0001
1000
0001
0010
0100
0010
0100
0010
0100
0010
0100
,
0000
0000
0110
0000
0000
0000
0000
0000
0011
0000
0000
0000
1100
0000
0001
1000
,
0100
0000
1000
0000
0001
0100
0000
0010
0100
0000
0001
0100
0000
0010
0100
0000
,
0001
0000
1000
0000
0100
0010
0000
0100
1000
0000
0100
0010
0000
0100
1000
0000
,
0010
0000
1000
0000
0001
0010
0000
0100
0010
0000
0001
0010
0000
0100
0010
0000
,
0100
0000
1000
0100
0000
1000
0100
0000
0010
0000
0001
1000
0000
0001
1000
0000
,
2002
0000
0000
0000
3003
0000
1000
0001
1000
0000
0010
0000
0100
0000
0010
0000
,
0000
0000
1010
0000
0000
0000
0010
1000
0100
0000
0000
0010
0000
0000
0001
0000
,
0011
0000
0000
0101
0000
0000
1100
0000
0000
1010
0000
0000
0101
0000
0000
0011
,
0000
0000
1100
0000
0000
1001
0000
0000
0001
0010
0100
1000
0010
0100
0001
0010
,
0100
0000
1000
0000
0001
0100
0000
0010
0100
0000
1000
0100
0000
0010
0100
0000
,
0001
0000
1000
0000
0100
0010
0000
0100
0001
0000
0100
0010
0000
0100
1000
0000
,
0010
0000
1000
0100
0000
0010
0001
0000
1000
0100
0000
0010
0001
0000
1000
0000
,
0010
0000
0100
0001
0000
1000
0010
0000
0100
0001
0000
1000
0010
0000
0100
0000
,
2002
0000
0000
0000
3003
0000
1000
0010
1000
0000
0010
0000
0100
0000
0200
0000
,
0000
0000
0010
0000
0300
0000
0010
0100
0010
0000
1000
0000
0001
0000
0010
0000
,
0220
0000
0000
0330
,
0001
0000
1000
0001
0000
1001
0000
0000
,
0000
0000
0000
0000
;

//---------------dance-double - ----------------
#NOTES:
     dance-double:
     :
     Easy:
     8:
     0.392483,0.451222,0.223516,0.037253,0.000000,295.000000,271.000000,24.000000,4.000000,0.000000,0.000000,0.392483,0.451222,0.223516,0.037253,0.000000,295.000000,271.000000,24.000000,4.000000,0.000000,0.000000:
00000000
00000000
00000000
00000000
,
00000000
00000000
00000000
00000000
,
00000000
00000000
00000000
00000000
,
00000000
00000000
00000000
00000000
,
00000000
00000000
00000000
00000000
,
00000000
00000000
00000000
00000000
,
00000000
00000000
00000000
00000000
,
00000000
00000000
00000000
00000000
,
00000000
00000000
00000000
00000000
,
00001000
00000010
00001000
00000000
,
00000001
00000100
00000010
00000000
,
00001000
00000010
00001000
00000000
,
00000001
00000010
00000100
00000000
,
00010000
00001000
00100000
00010000
,
01000000
00100000
10000000
01000000
,
00100000
00001000
00010000
00000100
,
00000220
00000000
00000000
00000330
,
00000001
00000100
00000001
00000000
00000100
00000000
00000000
00000000
,
00000001
00000100
00001000
00000000
,
00010000
00001000
00010000
00000000
00001000
00000000
00000000
00000000
,
00010000
01000000
10000000
00000000
,
10000000
00100000
10000000
00000000
00100000
00000000
00000000
00000000
,
10000000
00100000
00010000
00000000
,
00001000
00010000
00001000
00000000
00010000
00000000
00000000
00000000
,
00001000
00000100
00000001
00000000
,
00000001
00000010
00000100
00000010
,
00001000
00000010
00010000
00000010
,
00001000
00010000
00001000
00100000
,
00001000
00010000
00001000
01000000
,
00010000
01000000
00100000
01000000
,
10000000
01000000
00100000
01000000
,
00010000
00100000
01000000
00010000
,
00001000
00000000
00011000
00000000
,
00001000
00000010
00000100
00001000
,
00000010
00000100
00001000
00000100
,
00000001
00001000
00000100
00000010
,
00001000
00000000
00011000
00000000
00001000
00010000
00001000
00000000
,
00001000
00010000
00100000
10000000
,
00000000
10000000
00100000
00010000
,
00001000
00010000
01000000
10000000
,
10010000
00000000
00000000
00000000
01000000
00100000
01000000
00000000
,
00100000
10000000
01000000
10000000
,
00100000
01000000
00010000
00100000
,
00010000
00001000
00000100
00000001
,
00000100
00000000
00001000
00000000
00000010
00001000
00000010
00000000
,
00000100
00000100
00001000
00001000
,
00010000
00010000
01000000
01000000
,
01100000
00000000
10010000
00000000
,
01100000
00000000
00000000
00000000
,
00001000
00010000
00001000
00000100
,
00001000
00000000
00010000
00000000
00001000
00010000
00001000
00000000
,
00010000
00001000
00010000
01000000
,
00010000
00000000
00001000
00000000
00010000
00001000
00010000
00000000
,
00001000
00010000
00001000
00000010
,
00001000
00000000
00010000
00000000
00001000
00010000
00001000
00000000
,
00010000
00001000
00010000
00100000
,
00010000
00000000
00001000
00000000
00010000
00001000
00010000
00000000
,
00001000
00000010
00000001
00000010
,
00001000
00010000
00001000
00011000
,
00010000
00100000
10000000
00100000
,
00010000
00001000
00010000
00011000
,
00001000
00000100
00000001
00000100
,
00001000
00010000
00001000
00011000
,
00010000
01000000
10000000
01000000
,
00010000
00001000
00010000
00011000
,
00001000
00000010
00000011
00000001
,
00001000
00000100
00001100
00001000
,
00010000
00100000
00110000
00010000
,
10000000
01000000
11000000
00000000
,
10010000
00000000
01100000
00000000
,
10000000
00000000
01000000
00000000
00010000
00001000
00010000
00000000
,
00001000
00000000
00000100
00000000
00000001
00001000
00000001
00000000
,
00000110
00000000
00001001
00000000
,
00000001
00000100
00000110
00000010
,
00010000
00001000
00011000
00001000
,
00100000
00010000
01010000
01000000
,
00100000
10000000
11000000
00000000
,
10000000
00000000
00100000
00000000
00010000
00001000
00010000
00000000
,
00001000
00000000
00000010
00000000
00000001
00000100
00000001
00000000
,
00000100
00000000
00001000
00000000
00010000
00001000
00010000
00000000
,
00022000
00000000
00000000
00033000
,
00000000
00000000
00000000
00000000
;

//---------------dance-double - ----------------
#NOTES:
     dance-double:
     :
     Medium:
     12:
     0.518876,0.638242,0.139697,0.083818,0.046566,390.000000,375.000000,15.000000,9.000000,0.000000,0.000000,0.518876,0.638242,0.139697,0.083818,0.046566,390.000000,375.000000,15.000000,9.000000,0.000000,0.000000:
00000000
00000000
00000000
00000000
,
00000000
00000000
00000000
00000000
,
00000000
00000000
00000000
00000000
,
00000000
00000000
00000000
00000000
,
00000000
00000000
00000000
00000000
,
00000000
00000000
00000000
00000000
,
00000000
00000000
00000000
00000000
,
00000000
00000000
00000000
00000000
,
00000000
00000000
00000000
00000000
,
00000001
00000010
00000100
00001000
,
00000010
00000100
00001000
00010000
,
00000100
00001000
00010000
00100000
,
00001000
00010000
00100000
01000000
,
00010000
00100000
01000000
10000000
00010000
00100000
01000000
00000000
,
10000000
01000000
00100000
00010000
00100000
00001000
00010000
00000000
,
00000100
00001000
00000100
00000010
00000001
00001000
00000001
00001000
,
00000000
00001001
00000000
00000000
00000100
00000000
00000100
00000000
,
00000001
00000000
00000100
00000000
00000010
00000100
00000010
00000000
,
00001000
00000000
00000100
00000000
00010000
00001000
00010000
00000000
,
00001000
00000000
00100000
00000000
01000000
00100000
01000000
00000000
,
10000000
00000000
00010000
00000000
01000000
00100000
01000000
00000000
,
00100000
00000000
10000000
00000000
01000000
00010000
01000000
00000000
,
00010000
00000000
00001000
00000000
00000010
00001000
00000010
00000000
,
00001000
00000000
00010000
00000000
00100000
00010000
00100000
00000000
,
00010000
00001000
00000100
00000000
,
00000001
00000000
00001001
00000000
00000100
00000010
00000100
00000000
,
00000010
00000001
00000100
00001000
,
00010000
00000000
00011000
00000000
00100000
00010000
00100000
00000000
,
00010000
01000000
10000000
01000000
,
00100000
00000000
01100000
00000000
10000000
00010000
10000000
00000000
,
00100000
00010000
00001000
00000010
,
00000001
00000000
00001001
00000000
00000010
00000100
00000010
00000000
,
00000220
00000000
00000000
00000330
,
00000001
00000000
00000010
00000100
00000000
00001000
00000100
00000000
,
00000010
00000100
00000000
00010000
00001000
00000000
00010000
00000000
,
01000000
00000000
00100000
00010000
00000000
00100000
01000000
00000000
,
00100000
00010000
00000000
10000000
01000000
00000000
01000000
00000000
,
10000000
00000000
00000000
10000000
00000000
00000000
00100000
00000000
00000000
00100000
00000000
00000000
00010000
00000000
00001000
00000000
,
00000000
00001000
00010000
00000000
00000100
00000010
00000001
00000000
,
00000001
00000000
00000010
00001000
00000000
00001000
00010000
00001000
,
00000000
00000000
01000000
01000000
,
10000000
00000000
00100000
01000000
00000000
00010000
01000000
00000000
,
00100000
01000000
00000000
00001000
00010000
00000000
00001000
00000000
,
00000100
00000000
00000010
00001000
00000000
00000010
00000100
00000000
,
00000010
00001000
00000000
00000001
00000100
00000000
00000100
00000000
,
00000001
00000000
00000000
00000001
00000000
00000000
00000010
00000000
00000000
00000010
00000000
00000000
00001000
00000000
00000000
00001000
,
00000000
00000000
00010000
00000000
00000000
00010000
00000000
00000000
01000000
00000000
10000000
00000000
01000000
00000000
10000000
00000000
,
00100000
00100000
00100000
00000000
00000000
01100000
00000000
00000000
,
20020000
00000000
00000000
30030000
,
10000000
00100000
10000000
00100000
01000000
00000000
00001000
00010000
,
00001000
00010000
00000010
00000000
00001000
00000100
00001000
00000000
,
00000001
00000010
00000001
00000010
00000100
00000000
00010000
00001000
,
00010000
00001000
00100000
00000000
01000000
10000000
01000000
00000000
,
10000000
01000000
10000000
01000000
00100000
00000000
00001000
00010000
,
00001000
00010000
00000100
00000000
00001000
00000010
00001000
00000000
,
00000001
00000000
00000100
00000010
00000000
00010000
00001000
00000000
,
01000000
00010000
00000000
01000000
00100000
00000000
01100000
00000000
,
10000000
00100000
01000000
00010000
00100000
00000000
00001000
00010000
,
00000100
00001000
00000010
00000000
00000100
00000001
00000100
00000000
,
00000001
00000010
00000100
00001000
00000010
00000000
00010000
00001000
,
01000000
00010000
00100000
00000000
01000000
10000000
01000000
00000000
,
10000000
00100000
01000000
00100000
10000000
01000000
00100000
00001000
,
00010000
00000010
00001000
00000100
00000010
00000001
00001000
00000001
,
00000100
00000010
00000100
00001000
00010000
00001000
00010000
00100000
,
00000000
01100000
00000000
00000000
00100000
00000000
10010000
00000000
,
10000000
01000000
00100000
00000000
00100000
00001000
00010000
00000000
,
00010000
00000100
00001000
00000000
00001000
00000010
00000100
00000000
,
00000100
00000001
00000010
00000000
00000010
00000100
00000001
00000000
,
00000001
00000100
00001000
00000000
00001000
00000100
00010000
00000000
,
00022000
00000000
00030000
00010000
00013000
00000000
00010000
01000000
,
00000000
01000000
10000000
00000000
00100000
01000000
00100000
00000000
,
00010000
00000000
00000000
00001000
00000000
00000000
00000010
00000000
00000000
00001000
00000000
00000000
00010000
00000000
00000000
00001000
,
00000000
00000000
00000100
00000000
00000000
00001000
00000000
00000000
00010000
00000000
00000000
00000000
01100000
00000000
00000000
00000000
,
00010000
00100000
01000000
00000000
01000000
10000000
00010000
00000000
,
00010000
00100000
00001000
00000000
00001000
00010000
00000010
00000000
,
00000010
00000100
00001000
00000000
00001000
00000100
00000001
00000000
,
00000001
00000010
00001000
00000000
00001000
00010000
01000000
00000000
,
02200000
00000000
03000000
01000000
01300000
00000000
01000000
10000000
,
00000000
10000000
00100000
01000000
00001000
00010000
00000010
00000100
,
00000002
00000000
00000000
00000003
,
00000010
00000000
00001000
00010000
00000000
00011000
00000000
00000000
,
00000000
00000000
00000000
00000000
;

//---------------dance-double - ----------------
#NOTES:
     dance-double:
     :
     Hard:
     16:
     0.792949,0.976135,0.214203,0.102445,0.474971,596.000000,573.000000,23.000000,11.000000,0.000000,0.000000,0.792949,0.976135,0.214203,0.102445,0.474971,596.000000,573.000000,23.000000,11.000000,0.000000,0.000000:
00000000
00000000
00000000
00000000
,
00000000
00000000
00000000
00000000
,
00000000
00000000
00000000
00000000
,
00000000
00000000
00000000
00000000
,
00000000
00000000
00000000
00000000
,
00000000
00000000
00000000
00000000
,
00000000
00000000
00000000
00000000
,
00000000
00000000
00000000
00000000
,
00000000
00000000
00000000
00000000
,
00000001
00000010
00000001
00000010
,
00000100
00001000
00000100
00001000
,
00000010
00010000
00000010
00010000
,
00001000
00010000
00001000
00010000
,
00001000
00100000
00001000
00100000
00010000
00100000
00010000
01000000
,
00100000
10000000
00100000
10000000
00100000
01000000
00010000
00100000
,
00001000
00010000
00001000
00010000
00000010
00001000
00000010
00001000
00000001
00000010
00000001
00000010
00000100
00001000
00000100
00001000
,
00000000
00000000
00000110
00000000
00000000
00000000
00000001
00001000
00000001
00000000
00000100
00000000
00000100
00000000
00000000
00000000
,
00000010
00000000
00001000
00000000
00000100
00000000
00010000
00001000
00010000
00000000
00001000
00000000
01000000
00000000
00000000
00000000
,
00100000
00000000
01000000
00000000
00010000
00000000
10000000
01000000
10000000
00000000
01000000
00000000
00100000
00000000
00000000
00000000
,
00010000
00000000
01000000
00000000
00100000
00000000
00010000
00001000
00010000
00000000
00001000
00000000
00000100
00000000
00000000
00000000
,
00000010
00000000
00001000
00000000
00000100
00000000
00000010
00000001
00000010
00000000
00000100
00000000
00001000
00000000
00000000
00000000
,
00000001
00000000
00001000
00000000
00000100
00000000
00000010
00000001
00001000
00000000
00000100
00000000
00010000
00000000
00000000
00000000
,
00001000
00000000
00100000
00000000
00010000
00000000
01000000
00100000
10000000
00000000
00100000
00000000
01000000
00000000
00000000
00000000
,
00010000
00000000
10000000
00000000
01000000
00000000
00100000
00001000
00010000
00000000
00000100
00000000
00001000
00000000
00000000
00000000
,
00000010
00000000
00010000
00000000
00000010
00000000
00001000
00000001
00000100
00000000
00000010
00000000
00001000
00000000
00000000
00000000
,
00000001
00000010
00001000
00000001
00000100
00001000
00000010
00000010
,
00010000
00001000
00000010
00001000
00010000
00001000
00010000
00010000
,
00001000
01000000
00010000
00100000
10000000
00010000
01000000
01000000
,
10000000
00100000
00100000
01000000
00010000
00010000
00100000
00000000
,
10000000
01000000
00010000
10000000
00100000
00010000
01000000
01000000
,
00001000
00010000
01000000
00010000
00001000
00010000
00001000
00001000
,
00010000
00000010
00001000
00000100
00000001
00001000
00000010
00000010
,
00000001
00000100
00000100
00000010
00001000
00000001
00001001
00000000
,
00000001
00000010
00001000
00000001
00000100
00001000
00000010
00000001
,
00001000
00000100
00000001
00001000
00000010
00010000
00100000
01000000
,
00100000
10000000
00010000
00100000
10000000
00010000
01000000
10000000
,
00100000
00000000
01000000
00000000
00000000
00000000
00100000
01000000
00100000
00000000
10000000
00000000
10000000
00000000
00000000
00000000
,
01000000
00000000
00100000
00010000
00000000
00100000
00001000
00000000
00010000
00001000
00000000
00010000
00000100
00000000
00001000
00000000
,
00000000
00000000
00001000
00000000
00000001
00000000
00000010
00000000
00000001
00000000
00000100
00000010
00000100
00000000
00000001
00000000
,
00000001
00000010
00000100
00000001
00000100
00001000
00000100
00010000
,
00000000
00011000
00000000
00010000
01000000
10000000
01000000
00000000
,
10000000
00100000
00010000
10000000
01000000
00010000
00100000
10000000
,
00010000
01000000
10000000
00010000
00100000
00001000
00000010
00000100
,
00000010
00000001
00001000
00000010
00000001
00001000
00000100
00000001
,
00000010
00000000
00000100
00000000
00000000
00000000
00000010
00000100
00000010
00000000
00000001
00000000
00001000
00000000
00000001
00000000
,
00000100
00000000
00000010
00001000
00000010
00000000
00010000
00000000
00001000
00010000
00001000
00000000
01000000
00000000
00010000
10000000
,
00010000
00000000
00100000
00000000
01000000
00010000
00000000
00010000
00001000
00000000
00000010
00000000
00001000
00000000
00010000
00000000
,
00001000
00010000
00001000
00010000
00001000
00000000
00000000
00000000
00000000
00000000
00110000
00000000
00000000
00000000
00000000
00000000
,
00001000
00010000
00001000
00011000
,
00001000
00000000
00000010
00000100
00000010
00000000
00000001
00000000
00000100
00000000
00000010
00000000
00010000
00000000
00000100
00001000
,
00000100
00000000
00010000
00000000
00001000
00000000
00100000
00000000
00010000
00000000
10000000
01000000
00100000
00000000
00000000
00000000
,
00010000
00000000
01000000
00100000
01000000
00000000
00010000
00000000
00100000
00000000
01000000
00000000
00010000
00000000
00001000
00010000
,
00001000
00000000
00000010
00000000
00000100
00000000
00001000
00000000
00000010
00000000
00000100
00000001
00001000
00000000
00000001
00000000
,
00000010
00000000
00000100
00001000
00000100
00000000
00000010
00000000
00001000
00000000
00010000
00000000
01000000
00000000
00100000
00010000
,
00100000
00000000
01000000
00000000
10000000
00000000
00100000
00000000
10000000
00000000
00100000
01000000
00010000
00000000
10000000
00000000
,
02000000
00000000
03010000
00002000
00000000
00013000
00000020
00000000
,
00000130
00000002
00000000
00001003
00000020
00000000
00010030
00000000
,
00000100
00000000
00001000
00000010
00001000
00000000
00000001
00000000
00000010
00000000
00000100
00010000
00000100
00000000
00010000
00000000
,
00001000
00000000
00100000
00010000
00100000
00000000
01000000
00000000
10000000
00000000
00100000
00000000
01100000
00000000
00000000
00000000
,
10000000
00000000
00010000
01000000
00010000
00000000
00100000
00000000
01000000
00000000
00010000
00001000
00010000
00000000
00000100
00000000
,
00001000
00000000
00000010
00000100
00000010
00000000
00001000
00000000
00000001
00000000
00000010
00000000
00000110
00000000
00000000
00000000
,
00000001
00000000
00000100
00000000
00000010
00000000
00000010
00000000
00010000
00000000
00001000
00000000
00010000
00001000
00010000
00000000
,
00100000
00000000
01000000
00000000
00010000
00000000
00010000
00000000
10000000
00000000
01000000
00000000
00100000
00010000
00100000
00000000
,
00001000
00010000
00001000
00010000
00000010
00001000
00000010
00001000
00000001
00000100
00000001
00000100
00000001
00001000
00000001
00001000
,
00000000
00000000
00001001
00000000
00000000
00000000
00000000
00000000
00000110
00000000
00000000
00000000
00000100
00000000
00000100
00010000
,
00001000
00000000
00100000
00000000
00010000
01000000
00000000
00010000
10000000
00000000
00010000
00100000
00000000
00010000
10000000
00000000
,
01000000
00000000
00100000
00000000
00001000
00100000
00000000
00001000
00010000
00000000
00001000
01000000
00000000
00001000
00010000
00000000
,
00000100
00000000
00001000
00000000
00000010
00000100
00000000
00000010
00001000
00000000
00000010
00010000
00000000
00000010
00001000
00000000
,
00000100
00000000
00010000
00001000
00000000
00010000
00001000
00000000
01000000
00000000
00001000
00010000
00000000
00001000
00010000
00000000
,
00022000
00000000
00000000
00000000
00033000
00000000
00001000
00010000
00001000
00000000
00010000
00000000
01000000
00000000
10000000
00000000
,
00000000
00000000
10010000
00000000
00000000
00000000
10000000
00010000
10000000
00000000
00000000
00100000
00000000
00000000
01000000
00000000
,
10100000
00000000
00000000
00110000
00000000
00000000
00011000
00000000
00000000
00001100
00000000
00000000
00000011
00000000
00000000
00000101
,
00000000
00000000
00001010
00000000
00000000
00001001
00000000
00000000
00000001
00000100
00000010
00001000
00000100
00010000
00001000
00010000
,
00001000
00000000
00100000
00000000
00010000
00100000
00000000
01000000
00100000
00000000
00010000
00100000
00000000
01000000
00100000
00000000
,
00010000
00000000
01000000
00000000
00001000
00100000
00000000
00001000
00010000
00000000
00001000
00100000
00000000
00001000
00010000
00000000
,
00000100
00000000
00000010
00000001
00000000
00001000
00000100
00000000
00000010
00000001
00000000
00001000
00000100
00000000
00010000
00000000
,
00001000
00000000
01000000
00010000
00000000
10000000
00100000
00000000
01000000
00010000
00000000
10000000
00100000
00000000
01000000
00000000
,
20020000
00000000
00000000
00000000
30030000
00000000
00100000
01000000
00100000
00000000
10000000
00000000
01000000
00000000
00100000
00000000
,
00000000
00000000
01100000
00000000
00000000
00000000
00100000
00001000
00010000
00000000
00001000
00000000
00000010
00000000
00000001
00000000
,
00002002
00000000
00000000
00003003
,
00000100
00000000
00001000
00010000
00000000
00011000
00000000
00000000
,
00000000
00000000
00000000
00000000
;

//---------------dance-single - ----------------
#NOTES:
     dance-single:
     :
     Challenge:
     18:
     1.089639,1.238941,0.391153,0.000000,1.094296,819.000000,777.000000,42.000000,0.000000,0.000000,0.000000,1.089639,1.238941,0.391153,0.000000,1.094296,819.000000,777.000000,42.000000,0.000000,0.000000,0.000000:
// measure 0
0000
0000
0000
0000
,  // measure 1
0000
0000
0000
0000
,  // measure 2
0000
0000
0000
0000
,  // measure 3
0000
0000
0000
0000
,  // measure 4
0000
0000
0000
0000
,  // measure 5
0000
0000
0000
0000
,  // measure 6
0000
0000
0000
0000
,  // measure 7
0000
0000
0000
0000
,  // measure 8
0000
0000
0000
0000
,  // measure 9
0001
0010
1000
0100
0001
0000
0010
0100
,  // measure 10
1000
0010
0001
0000
0100
0010
1000
0000
,  // measure 11
0001
0010
1000
0100
0001
0000
1000
0010
,  // measure 12
0100
0000
0000
0001
0000
0000
1000
0000
0000
0010
0000
0000
0100
0000
0000
0001
0010
0001
0010
0000
0000
1000
0000
0000
,  // measure 13
0100
0010
0001
0100
0001
0010
1000
0001
,  // measure 14
1000
0000
0000
0100
0000
0000
0010
0000
0000
0001
0000
0000
0100
0000
0000
0010
1000
0010
1000
0000
0000
0001
0000
0000
,  // measure 15
0100
0001
0010
1000
0010
0001
0010
1000
0100
0001
0100
1000
0001
0100
0010
1000
,  // measure 16
0001
0000
0100
0000
1000
0000
0001
0010
0100
0000
1000
0000
0010
0000
0100
0000
,  // measure 17
0001
0000
0010
0000
0100
0000
1000
0001
1000
0000
0010
0000
0100
0000
0001
0000
,  // measure 18
0000
0000
0010
0000
0001
0000
0100
0010
1000
0001
0010
0000
0100
0000
1000
0000
,  // measure 19
1001
0000
0000
0000
0010
0000
1100
0000
0001
0100
0001
0000
1000
0000
0000
0000
,  // measure 20
0101
0000
0000
0000
0010
0000
1010
0000
0000
1000
0100
0000
1000
0000
0001
0000
,  // measure 21
0011
0000
0000
0000
0100
0000
1000
0010
0100
0001
1000
0000
0100
0000
0110
0000
,  // measure 22
0001
0000
0000
0000
0100
0000
0001
0010
0001
1000
0100
0000
0010
0000
0001
1000
,  // measure 23
0100
0000
0000
0000
0010
0000
0001
1000
0010
1000
0100
0000
0001
0000
1000
0000
,  // measure 24
0010
0000
0000
0000
0000
0000
1000
0000
0000
0000
0000
0000
0100
0000
0000
0000
0000
0000
0010
0000
0000
0001
0000
0000
1000
0000
0000
0001
0000
0000
0100
0000
0000
0000
0000
0000
0010
0000
1000
0000
0010
0000
1000
0000
0000
0000
0000
0000
,  // measure 25
0001
0000
0100
0000
1000
0000
0010
0100
0010
1000
0001
0000
0010
0100
1000
0000
,  // measure 26
0001
0000
0100
0000
1000
0000
0010
1000
0001
0010
0100
0000
1000
0000
0010
0100
,  // measure 27
0001
0000
0000
0000
0011
0000
0100
1000
0010
0100
0001
0000
1010
0000
0100
0001
,  // measure 28
1000
0000
0010
0000
0100
0000
0001
0010
0100
1000
0001
0000
0100
0010
1000
0000
,  // measure 29
1001
0000
0000
0000
0101
0000
0010
1000
0100
0010
0001
0000
1000
0100
0001
0000
,  // measure 30
0010
0000
0100
0000
1000
0000
0001
0100
0001
0100
0010
0000
1000
0000
0001
0100
,  // measure 31
0010
0000
0000
0000
1100
0000
0010
0001
0100
0001
1000
0100
0010
0001
0100
0000
,  // measure 32
0010
0000
0000
0000
0110
0000
1000
0000
0001
0010
0001
0100
0001
1000
0001
0000
,  // measure 33
1000
0000
0010
0000
0001
0000
0100
0001
0010
1000
0001
0000
0100
0000
1000
0000
,  // measure 34
0010
0000
0100
0000
1000
0000
0001
0010
0100
1000
0010
0000
1000
0010
0001
0000
,  // measure 35
0100
0000
1000
0000
0010
0000
0001
0100
0010
0001
1000
0000
0100
0000
0001
0000
,  // measure 36
0100
0000
0001
0000
0010
0000
1000
0100
0010
0000
0001
1000
0100
0000
1000
0000
,  // measure 37
0010
0000
1000
0100
0000
0100
0001
0000
0010
0001
0000
0001
0100
0000
1000
0000
,  // measure 38
0010
0000
0000
0000
0000
0000
1000
0000
0000
0000
0000
0000
0001
0000
0000
0000
0000
0000
0010
0000
0000
0001
0000
0000
0100
0000
0000
0010
0000
0000
1000
0000
0001
0000
1000
0000
0001
0000
0000
0000
0000
0000
0100
0000
0000
0000
0000
0000
,  // measure 39
0010
0000
1000
0000
0100
0000
0001
0010
1000
0001
0100
0010
1000
0000
0001
0000
,  // measure 40
0010
0000
0100
0000
1000
0000
0010
0100
0001
0100
0010
1000
0001
0000
1000
0100
,  // measure 41
0001
0000
0100
0000
1000
0000
0010
1000
0100
1000
0010
0000
0001
0000
1000
0000
,  // measure 42
0010
0000
0001
0000
1000
0000
0100
1000
0010
1000
0100
0010
0001
0100
1000
0000
,  // measure 43
0010
0000
0001
0000
1000
0000
0001
0000
1000
0010
0100
0000
0010
0000
0100
0000
,  // measure 44
0010
0000
1000
0000
0100
0000
0001
1000
0010
0100
0001
0010
1000
0001
0100
0010
,  // measure 45
1000
0000
0100
0010
0001
0000
0100
0000
0010
1000
0100
0000
0001
0000
1000
0010
,  // measure 46
0100
0000
0001
0000
0010
0100
1000
0010
0001
0000
0100
0010
1000
0000
0001
0000
,  // measure 47
1000
0100
0001
0010
1000
0000
0100
0000
0000
0000
0011
0000
0000
0000
0000
0000
,  // measure 48
1010
0000
0001
0000
0000
0000
0000
0000
0100
0010
1000
0001
0100
1000
0010
0000
,  // measure 49
0110
0000
0001
0000
0010
0100
1000
0000
0010
0000
0100
0000
0001
0010
1000
0000
,  // measure 50
0100
0000
0010
0000
0001
0000
1000
0001
0100
0000
1010
0000
0101
0000
0010
1000
,  // measure 51
0001
0000
0010
0001
0100
0010
1000
0000
0100
1000
0001
0000
0010
0001
0100
0000
,  // measure 52
1001
0000
0000
1010
0000
0000
1100
0000
0000
0010
0000
0000
0001
0000
0000
0100
0010
1000
0001
0000
0000
0100
0000
0000
,  // measure 53
0010
0000
1000
0000
0001
0010
0100
0000
1000
0000
0010
0000
0100
0000
0001
0010
,  // measure 54
0001
0000
0000
0100
0000
0000
1000
0000
0000
0001
0000
0000
1000
0000
0000
0010
0100
0001
1000
0000
0000
0010
0000
0000
,  // measure 55
0110
0000
0001
0010
0100
0000
1100
0000
0010
1000
0001
0000
0101
0000
0010
0000
,  // measure 56
1000
0000
1010
0000
0100
0001
0010
0000
1001
0000
0100
0001
0010
0000
1000
0100
,  // measure 57
0001
0000
0010
0000
1000
0001
0100
0000
1010
0000
0100
0000
0001
0010
1000
0000
,  // measure 58
0100
0000
0010
0000
0001
0100
1000
0000
0110
0000
1001
0000
0110
0000
0100
0000
,  // measure 59
0001
0000
0010
0001
0100
0010
1000
0000
0101
0000
0010
1000
0001
0010
0100
0000
,  // measure 60
1000
0000
0000
0100
0000
0000
0001
0000
0000
0000
0000
0000
0010
0000
0000
0001
0000
0000
0100
0000
0000
0000
0000
0000
0010
0000
0000
0000
0000
0000
1000
0000
0100
0000
0010
0000
0001
0000
0000
0000
0000
0000
0100
0000
0000
0000
0000
0000
,  // measure 61
1000
0000
0010
0000
0100
0001
0010
0000
1001
0000
0100
0000
0001
0010
1000
0000
,  // measure 62
0100
0000
0000
0010
0000
0000
0001
0000
0000
0000
0000
0000
0100
0000
0000
0010
0000
0000
1000
0000
0000
0000
0000
0000
0101
0000
0000
0000
0000
0000
1000
0000
0001
0000
0100
0000
0010
0000
0000
1000
0000
0000
0100
0000
0000
0001
0000
0000
,  // measure 63
0010
1000
0001
0010
0001
0100
1000
0100
0001
0100
0010
1000
0010
0001
1000
0100
,  // measure 64
0010
0000
0001
0000
0100
1000
0001
0000
0010
0000
0001
0100
1000
0000
0010
0100
,  // measure 65
0001
0000
0010
0001
0010
0100
1000
0000
0010
1000
0100
0010
0001
0100
1000
0000
,  // measure 66
0010
0000
1000
0001
0010
0001
0100
0000
0001
0010
0100
0010
0001
0100
1000
0000
,  // measure 67
0010
1000
0100
0000
0010
0001
0100
0001
0010
0100
1000
0010
1000
0001
0100
0000
,  // measure 68
0010
1000
0010
0100
0010
0001
0010
0000
0010
0001
0010
0100
0010
1000
0010
0000
,  // measure 69
0100
0000
0001
0000
0010
0000
1000
0100
0001
0000
0010
0000
0001
1000
0100
0000
,  // measure 70
0010
0001
1000
0000
0010
0100
0010
1000
0001
0000
0010
0001
0100
0010
1000
0000
,  // measure 71
0110
0000
0000
1001
0000
0000
0110
0000
0000
1001
0000
0000
0110
0000
0000
1001
,  // measure 72
0000
0000
0000
0000
0000
0000
0110
0000
0000
0000
0000
0000
0000
0000
0000
1001
0000
0000
0000
0000
0000
0000
0000
0000
1000
0000
0000
0001
0000
0000
0010
0000
0100
0000
0010
0000
0001
0000
0000
1000
0000
0000
0010
0000
0000
0100
0000
0000
,  // measure 73
0001
0000
0010
0001
0100
0010
1000
0100
0001
0010
0001
0100
1000
0010
0001
0000
,  // measure 74
0100
0000
0001
0010
0001
0100
1000
0010
0001
1000
0001
1000
0100
0010
0001
0000
,  // measure 75
0100
0010
1000
0010
0100
0000
0001
0010
1000
0001
0100
0000
0010
1000
0001
0000
,  // measure 76
1000
0100
0001
0010
0100
0000
1000
0010
0100
0010
1000
0001
0010
0100
1000
0000
,  // measure 77
0001
0100
0010
1000
0100
1000
0010
0001
1000
0100
0001
0010
1000
0001
0010
0100
,  // measure 78
1000
0001
1000
0100
0010
0100
0010
1000
0100
0010
1000
0001
0100
0001
0010
0001
,  // measure 79
1000
0010
0100
1000
0100
1000
0001
0010
0001
0100
0001
0010
0100
1000
0010
0001
,  // measure 80
0100
0010
1010
0001
0000
0101
0000
0000
;
