#VERSION:0.83;
#TITLE:think ya better D;
#SUBTITLE:(25th Anniversary Special);
#ARTIST:sAmi;
#TITLETRANSLIT:;
#SUBTITLETRANSLIT:;
#ARTISTTRANSLIT:;
#GENRE:;
#ORIGIN:;
#CREDIT:;
#BANNER:think ya better D (25th Anniversary Special)-bn.png;
#BACKGROUND:think ya better D (25th Anniversary Special)-bg.png;
#PREVIEWVID:;
#JACKET:think ya better D (25th Anniversary Special)-jacket.png;
#CDIMAGE:;
#DISCIMAGE:;
#LYRICSPATH:;
#CDTITLE:;
#MUSIC:think ya better D (25th Anniversary Special).ogg;
#OFFSET:0.000000;
#SAMPLESTART:19.410000;
#SAMPLELENGTH:20.000000;
#SELECTABLE:YES;
#DISPLAYBPM:136.000000;
#BPMS:0.000=136.010;
#STOPS:;
#DELAYS:;
#WARPS:;
#TIMESIGNATURES:0.000=4=4;
#TICKCOUNTS:0.000=4;
#COMBOS:0.000=1;
#SPEEDS:0.000=1.000=0.000=0;
#SCROLLS:0.000=1.000;
#FAKES:;
#LABELS:0.000=Song Start;
#BGCHANGES:;
#KEYSOUNDS:;
#ATTACKS:
;

//---------------dance-single - ----------------
#NOTEDATA:;
#CHARTNAME:;
#STEPSTYPE:dance-single;
#DESCRIPTION:;
#CHARTSTYLE:;
#DIFFICULTY:Challenge;
#METER:17;
#RADARVALUES:0.758743,0.932832,0.352697,0.082988,0.814315,512.000000,478.000000,34.000000,8.000000,0.000000,0.000000,0.000000,0.000000,0.000000,0.758743,0.932832,0.352697,0.082988,0.814315,512.000000,478.000000,34.000000,8.000000,0.000000,0.000000,0.000000,0.000000,0.000000;
#CREDIT:;
#DISPLAYBPM:136.000000;
#NOTES:
// measure 0
0000
0000
0000
0000
,  // measure 1
0000
0000
0000
0000
,  // measure 2
1000
1000
1000
0000
0000
0000
0001
0001
0001
0000
0100
0000
0010
0010
0010
0000
,  // measure 3
0001
0000
0100
0100
0100
0000
0010
0000
1000
0000
0100
0100
0100
0000
0000
0000
,  // measure 4
0010
0010
0010
0000
0001
0000
0100
0100
0100
0000
0010
0000
1000
1000
1000
0000
,  // measure 5
0100
0000
0010
0010
0010
0000
0001
0000
1000
0000
0001
0001
0001
0000
0000
0000
,  // measure 6
0100
0100
0100
0000
0010
0000
1000
1000
1000
0000
0001
0000
0010
0010
0010
0000
,  // measure 7
0100
0000
1000
1000
1000
0000
0010
0000
0100
0000
0001
0001
0001
0000
0010
0000
,  // measure 8
0001
0001
0001
0000
1000
0000
0100
0100
0100
0000
1000
0000
0010
0010
0010
0000
,  // measure 9
0100
0000
0001
0001
0001
0000
0010
0000
0100
0000
1000
1000
1000
0000
0001
0000
,  // measure 10
0200
0302
0023
0230
2300
3020
2030
3002
,  // measure 11
0103
0000
0000
0000
0000
0000
0010
1000
0010
0100
0001
0000
0001
0000
0000
0010
,  // measure 12
0001
0000
0100
0010
0000
1000
0000
1000
0000
1000
0100
0010
0001
0000
0000
0000
,  // measure 13
1000
1000
0000
0101
0000
0010
0000
0100
0001
0000
0001
0000
0001
0000
0000
0000
,  // measure 14
1010
0000
0000
0100
0000
0010
1000
0001
0010
0000
0100
0000
0100
0000
0000
0000
,  // measure 15
1000
0000
0000
0000
1000
0000
0100
0010
0000
0010
0001
0100
0001
0000
1000
0000
,  // measure 16
0010
0000
0100
0001
0000
0001
0000
0001
1000
0000
0001
0000
0001
0000
0000
0000
,  // measure 17
1100
0000
0000
0000
0000
0000
0001
0100
1000
0000
1000
0000
1000
0000
0000
0000
,  // measure 18
0010
1000
0000
0100
0000
0010
0000
0001
1000
0000
0010
0000
0100
0000
0000
0000
,  // measure 19
0110
0000
0000
0010
1000
0100
1000
0001
0000
0001
0010
0000
0100
0000
0000
0000
,  // measure 20
1000
1000
0000
0010
0000
0100
0000
0001
0010
0000
0010
0000
0010
0000
0000
0000
,  // measure 21
0011
0000
0000
0000
0000
0000
0000
0010
0001
0100
1000
0010
0001
0000
0000
0000
,  // measure 22
0100
0010
1000
0001
0000
1000
0000
1000
0000
1000
0000
0100
0100
0000
0000
0000
,  // measure 23
0010
0000
0010
0000
0000
0000
0000
0001
1000
0000
0100
0000
1000
0000
1000
0000
,  // measure 24
0010
0000
1000
0100
0000
0100
0000
0010
0000
0010
0000
0001
1000
0000
0001
0000
,  // measure 25
1001
0000
0000
0000
0000
0000
0000
0100
0001
0010
1000
0100
0001
0000
0000
0000
,  // measure 26
1000
0010
1000
0001
0000
0100
0000
0100
0000
0100
0000
0100
0010
0000
0000
0000
,  // measure 27
1000
1000
1000
0000
0000
0000
0001
0001
0001
0000
0000
0000
0100
0100
0100
0000
,  // measure 28
0000
0000
0001
0000
1000
0000
0000
0000
1010
0000
0010
0010
0010
0000
0000
0000
,  // measure 29
0100
0100
0100
0000
0000
0000
0010
0010
0010
0000
0000
0000
1000
1000
1000
0000
,  // measure 30
0000
0000
0100
0000
0010
0000
0000
0000
0011
0000
0001
0001
0001
0000
0000
0000
,  // measure 31
0010
0010
0010
0000
0000
0000
0001
0001
0001
0000
0000
0000
0100
0100
0100
0000
,  // measure 32
0010
1000
0000
0100
0000
1000
0001
0010
0100
0000
1000
1000
1000
0000
0000
0000
,  // measure 33
0000
0000
0010
0100
0000
0001
0000
0000
1000
0001
0010
0000
0100
0000
1000
0000
,  // measure 34
0000
0000
0010
0000
0100
0001
0000
1000
0000
1000
0100
0010
0001
0000
0100
0000
,  // measure 35
0010
0010
0010
0000
0000
0000
1000
0001
0000
0100
0000
0000
0001
0001
0001
0000
,  // measure 36
0010
0000
0100
0000
0000
0000
0000
0000
1000
0100
0001
0000
1000
0100
0001
0000
,  // measure 37
0010
0000
0010
0100
0000
0100
1000
0000
1000
0001
0000
0001
0100
0000
0100
0010
0000
0010
1000
0000
1000
0001
0000
0001
,  // measure 38
1000
0000
0001
0100
0000
0010
1000
0000
0001
0100
0000
0010
1000
0000
0100
0010
0000
0001
1000
0000
0010
0100
0000
0001
,  // measure 39
0010
0010
0010
0000
0000
0000
0100
0100
0100
0000
1000
0000
0001
0001
0001
0000
,  // measure 40
0010
0000
0100
0100
0100
0000
1000
0000
0001
0000
0100
0100
0100
0000
0000
0000
,  // measure 41
0001
0001
0001
0000
0010
0000
0100
0100
0100
0000
1000
0000
0010
0010
0010
0000
,  // measure 42
0100
0000
0010
0010
0010
0000
1000
0000
0001
0000
0010
0010
0010
0000
0000
0000
,  // measure 43
0001
0001
0001
0000
1000
0000
0010
0010
0010
0000
0100
0000
0001
0001
0001
0000
,  // measure 44
0010
0000
0100
0100
0100
0000
0010
0000
0001
0000
1000
1000
1000
0000
0001
0000
,  // measure 45
0100
0100
0100
0000
0010
0000
1000
1000
1000
0000
0001
0000
0010
0010
0010
0000
,  // measure 46
0100
0000
1000
1000
1000
0000
0001
0000
0100
0000
0010
0010
0010
0000
0100
0000
,  // measure 47
1010
0101
0011
1100
1001
0110
1010
0101
,  // measure 48
0011
1100
0101
0011
1001
0110
1010
0011
,  // measure 49
0100
0100
0100
0000
0000
0000
1000
1000
1000
0000
0001
0000
0100
0100
0100
0000
,  // measure 50
0010
0000
1000
1000
1000
0000
0100
0000
0010
0000
0001
0001
0001
0000
0000
0000
,  // measure 51
1000
1000
1000
0000
0000
0000
0001
0001
0001
0000
0010
0000
0100
0100
0100
0000
,  // measure 52
1000
0000
0010
0010
0010
0000
0100
0000
0001
0000
1000
1000
1000
0000
0110
0000
,  // measure 53
1001
0000
0000
0011
0000
0000
1100
0000
0000
0101
0000
0000
1100
0000
0000
0011
,  // measure 54
0000
0000
1001
0000
0000
1010
0000
0000
1100
0000
0000
0000
0000
0000
0000
0000
;
