#TITLE:the boy follows the sky;
#SUBTITLE:;
#ARTIST:Power of Nature;
#MUSIC:the boy follows the sky.ogg;
#BANNER:the boy follows the sky-bn.png;
#BACKGROUND:the boy follows the sky-bg.png;
#LYRICSPATH:;
#CDTITLE:;
#SAMPLESTART:91.071;
#SAMPLELENGTH:20;
#BPMS:0.000000=140.000000;
#STOPS:;
#TIMESIGNATURES:0.000000=4=4,
28.000000=7=8,
35.000000=5=4,
40.000000=4=4,
60.000000=7=8,
63.500000=4=4,
75.500000=7=8,
79.000000=4=4,
87.000000=7=4,
101.000000=7=8,
111.500000=4=4,
119.500000=2=4,
121.500000=4=4,
165.500000=7=8,
172.500000=4=4
;
#BGCHANGES:;
#FGCHANGES:;
#ATTACKS:;
#SPEEDS:0.000000=1.000000=0.000000=0;
#SCROLLS:0.000000=1.000000;
#PREVIEWVID:;
#KEYSOUNDS:;

//---------------dance-single - ---------------
#NOTES:
     dance-single:
     :
     Hard:
     17:
     0.000000,0.000000,0.000000,0.000000,0.000000,0.000000,0.000000,0.000000,0.000000,0.000000,0.000000,0.000000,0.000000,0.000000,0.000000,0.000000,0.000000,0.000000,0.000000,0.000000,0.000000,0.000000,0.000000,0.000000,0.000000,0.000000,0.000000,0.000000:
// measure 0
0000
0000
0000
0000
,  // measure 1
0000
0000
0000
0000
,  // measure 2
1000
0100
1000
0001
1000
0010
0100
0001
0000
1000
0001
1000
0010
0100
0001
1000
,  // measure 3
0000
0010
1000
0010
0100
0001
1000
0100
0000
0010
0001
1000
0001
0010
0100
1000
,  // measure 4
0000
0001
1000
0010
1000
0100
0010
0001
0000
0100
0010
0100
0001
1000
0100
0000
,  // measure 5
0010
0010
0000
0000
0000
0000
0001
0001
0000
0000
0000
0100
0100
0000
0000
0000
,  // measure 6
0000
0001
0001
0000
0000
1000
1000
0000
0000
0000
0000
0010
0010
0000
0000
0000
,  // measure 7
1010
0000
0101
0000
0000
0011
0000
0101
0000
1100
0000
0000
1000
0001
0100
0000
,  // measure 8
0110
0000
0000
1010
0000
0101
0000
0011
0000
0000
0100
1000
0002
0000
0000
0000
,  // measure 9
0010
0000
0000
0000
1003
0100
0010
0100
1000
0010
0100
0001
0000
1000
0010
0100
,  // measure 10
0001
0010
0100
1000
0001
0010
1000
0010
0001
0100
0010
1000
0100
0001
0100
1000
,  // measure 11
0002
0000
0000
0000
2003
0000
0000
0000
3001
0010
1000
0010
0100
0010
0001
1000
,  // measure 12
0020
0000
0100
0000
2030
0001
0001
0100
,  // measure 13
3200
0000
0000
0000
0010
0000
0000
0000
1300
0000
0001
0000
0101
0000
0010
0100
,  // measure 14
1000
0000
0001
0100
0010
0000
1000
0100
0000
0000
0010
0001
0100
0000
0010
1000
,  // measure 15
0100
0000
1000
1010
0000
0001
0101
2000
,  // measure 16
0010
0010
3010
0200
0001
0001
0301
0020
,  // measure 17
0100
0100
0130
1000
0001
1001
0100
0010
,  // measure 18
1000
0000
0100
0000
0010
0000
0001
0000
1000
0001
1000
0000
0001
0100
0010
0100
,  // measure 19
0001
0000
1000
0100
0010
0001
0100
0000
0010
1000
0001
0010
0100
0000
1100
0000
,  // measure 20
0000
0101
0000
0011
0000
1100
0000
0000
1001
0000
0100
0010
1000
0000
0110
0000
,  // measure 21
0000
0101
0000
1010
0000
0100
0001
0000
0001
0000
0001
0010
0100
0000
1000
0001
,  // measure 22
0000
0010
0001
0100
0000
0010
1000
0010
1000
0100
0010
0001
0000
0100
0001
0010
,  // measure 23
0001
1000
0010
0100
0001
1000
0100
0010
0001
1000
0001
0100
0000
0010
1000
0001
,  // measure 24
0000
1000
0100
0010
0100
0001
0100
1000
0000
0001
0010
0100
1000
0010
0001
0010
,  // measure 25
1000
0100
0010
0001
0100
0010
0100
0001
1000
0100
0010
0001
0000
1000
0010
0100
,  // measure 26
0010
1000
0001
0010
1000
0010
0001
0100
0010
1000
0000
0000
0001
0100
0001
0100
,  // measure 27
0001
0010
1000
0010
0100
0010
0001
1000
0000
0001
0100
1000
0100
0001
1000
0010
,  // measure 28
0100
0010
1000
0100
0010
0001
0000
0000
0100
0001
0100
0010
1000
0001
0100
0000
,  // measure 29
0100
0000
0010
0000
0010
0000
0100
0000
0100
0000
0001
0010
0100
1000
0001
0000
,  // measure 30
0001
0000
0001
1000
0001
0000
0100
0010
0100
0010
1000
0000
1000
0000
0100
0010
,  // measure 31
0100
0010
0001
0000
0001
0000
1000
0100
0010
0100
1000
0010
0100
0010
1000
0000
,  // measure 32
0001
0000
0000
0100
0000
0000
0010
0000
0000
0100
0000
0000
0010
0000
0000
0100
0000
0000
0001
0000
0000
1000
0000
0000
0000
0000
0000
0001
0000
0000
1000
0000
0000
0000
0000
0000
0100
0000
0000
0000
0000
0000
0010
0000
0000
0000
0010
0000
,  // measure 33
0000
0000
0010
0000
0000
0000
0010
0000
0000
0000
0010
0000
0000
0000
0010
0000
0000
0000
0001
0000
0000
0100
0000
0000
0010
0000
0000
0100
0000
0000
0001
0000
0000
1000
0000
0000
0100
0000
0000
0010
0000
0000
0000
0000
0000
0001
0000
0000
,  // measure 34
1000
0001
1000
0010
0100
0001
0000
1000
0100
0010
0001
0100
0001
1000
0010
0100
,  // measure 35
0001
0000
0000
0000
0010
0000
0000
0000
0100
0000
0000
0000
1000
0000
0000
0001
0000
0000
0100
0000
0000
0001
0000
0000
0100
0000
0000
0001
0000
0000
0000
0000
0000
1000
0000
0000
0100
0000
0000
0010
0000
0000
0000
0000
0000
0001
0000
0000
,  // measure 36
0100
1000
0100
0010
0100
0001
0000
1000
0100
0010
0001
0100
0010
1000
0001
0100
,  // measure 37
0010
0000
0000
0000
1000
0000
0000
0000
0001
0000
0000
0000
0100
0000
0000
0010
0000
0000
0100
0000
0000
0001
0000
0000
0100
0000
0000
0001
0000
0000
0000
0000
0000
1000
0000
0000
0100
0000
0000
0010
0000
0000
0000
0000
0000
0001
0000
0000
,  // measure 38
1000
0001
1000
0010
0100
0001
0010
0100
1000
0001
0100
0001
0010
0100
1000
0001
,  // measure 39
1000
0000
0000
0000
0010
0000
0000
0000
0100
0000
0000
0000
0001
0000
0000
1000
0000
0000
0001
0000
0000
0010
0000
0000
0100
0000
0000
1000
0000
0000
0000
0000
0000
1000
0000
0000
0010
0000
0000
0100
0000
0000
0000
0000
0000
0001
0000
0000
,  // measure 40
0010
0100
1000
0010
0100
0001
0000
1000
0100
0001
0100
0010
0001
1000
0010
0100
,  // measure 41
0001
0000
0000
0000
0010
0000
0000
0000
0100
0000
0000
0000
1000
0000
0000
0001
0000
0000
0100
0000
0000
0000
0000
0000
1001
0000
0000
0000
0000
0000
0000
0000
0000
1010
0000
0000
0000
0000
0000
0011
0000
0000
0000
0000
0000
1100
0000
0000
,  // measure 42
0000
0000
0100
0010
0001
0000
0011
0000
0000
1001
0000
0110
0000
1001
0000
0000
,  // measure 43
0100
0010
1000
0000
0010
0000
0100
0000
0010
0000
1000
0000
0010
0000
0100
0000
,  // measure 44
0010
1000
0100
0001
0100
1000
0100
0010
,  // measure 45
0001
0101
0010
1000
0100
1000
0001
0100
,  // measure 46
0010
1000
0100
0010
0001
0100
0010
0100
,  // measure 47
0001
0100
1000
0100
0001
0010
0100
1000
,  // measure 48
0001
0100
1000
0100
0010
0100
1000
0100
,  // measure 49
0001
1010
1000
0100
0010
0001
0100
0001
,  // measure 50
1000
0000
0010
0100
0010
1000
0001
0000
0100
0000
0001
0010
0100
0010
0001
0000
,  // measure 51
1000
0000
0001
1000
0010
1000
0001
0000
0100
0000
0010
1000
0100
0010
0001
0000
,  // measure 52
0100
0010
0001
0010
1000
0100
0001
0100
,  // measure 53
1000
0000
0000
0001
0000
0100
0000
0001
0000
0010
0000
0010
0000
0010
0000
0100
0000
1000
0000
0001
0000
0100
0000
0100
,  // measure 54
0000
0100
0000
0010
0000
1000
0000
0100
0000
0010
0000
0010
0000
0010
0000
0001
0000
1000
0000
0001
0000
0100
0000
0100
,  // measure 55
0000
0100
0000
0001
0000
0010
0000
0100
0000
1000
0000
1000
0000
1000
0000
0010
0000
1000
0000
0001
0000
0100
0000
0100
,  // measure 56
0000
0100
0000
0001
0000
0010
0000
0100
0000
1000
0000
1000
0000
1000
0000
0010
0000
0100
0000
0001
0000
0010
0000
0010
,  // measure 57
0000
0010
0000
0100
0000
0010
0000
0001
0000
0100
0000
0010
0000
1000
0000
0100
0000
0010
0000
0001
0000
1000
0000
0001
,  // measure 58
0000
0100
0000
0001
0000
0001
0000
0001
0000
1000
0000
1000
0000
1000
0000
0010
0000
0010
0000
0010
0000
0100
0000
0100
,  // measure 59
0000
0100
0000
0001
0000
0010
0000
1000
0000
0001
0000
0100
0000
1000
0000
0001
0000
0010
0000
1000
0000
0001
0000
0100
,  // measure 60
0000
0000
1000
0000
0000
0000
0001
0000
0000
0010
0000
0000
0001
0000
0000
0100
0000
0000
0010
0000
0000
1000
0000
0000
0000
0000
0000
1000
0000
0000
0100
0000
0000
0000
0000
0000
0100
0000
0000
0010
0000
0000
0000
0000
0000
0010
0000
0000
,  // measure 61
0001
0000
1000
0010
0000
0010
0100
0000
0001
0000
1000
0001
0010
0100
0010
0001
,  // measure 62
1000
0010
0100
0001
1000
0000
1000
0100
0000
1000
0010
0000
0010
0100
0000
0100
,  // measure 63
0001
1000
0001
0000
0010
0100
1000
0000
0001
0000
0100
0010
0100
0001
1000
0010
,  // measure 64
0100
0001
1000
0010
1000
0001
0010
0100
0000
0100
1000
0000
1000
0001
0000
0001
,  // measure 65
0100
0000
0010
1000
0010
0100
0010
1000
0001
0000
0010
0100
0010
0001
0100
0010
,  // measure 66
1000
0000
0001
0010
0100
0000
1000
0010
0000
0010
0100
0000
0100
0001
0000
0001
,  // measure 67
1000
0001
1000
0000
0010
1000
0001
0000
0100
0000
0001
0010
1000
0010
0001
0100
,  // measure 68
0010
1000
0200
0000
0010
0000
0010
0000
1000
0000
0010
0000
0010
0000
0301
0000
,  // measure 69
0100
2000
0001
0001
3001
0020
0100
0100
,  // measure 70
0130
0002
0010
0010
1000
0010
0010
0103
,  // measure 71
0001
2000
0100
0100
3100
0020
0001
0001
,  // measure 72
0031
1001
0000
0000
0010
0000
0000
1000
,  // measure 73
0100
0020
0000
0030
0000
0002
0000
0003
,  // measure 74
0000
2000
0000
0000
0001
0000
0000
3100
,  // measure 75
0000
2000
0010
0010
3010
0200
0001
0001
,  // measure 76
0301
0000
0000
0000
;

//---------------dance-single - ---------------
#NOTES:
     dance-single:
     :
     Medium:
     13:
     0,0,0,0,0:
// measure 0
0000
0000
0000
0000
,  // measure 1
0000
0000
0000
0000
,  // measure 2
1000
0001
0000
0000
0011
0000
0000
0100
0000
1000
0000
0000
1010
0000
0000
0010
,  // measure 3
0000
0100
0000
0000
0101
0000
0000
0001
0000
1000
0000
0000
1100
0000
0000
1000
,  // measure 4
0000
0010
0000
0000
1001
0000
0000
0100
0000
0001
0000
0000
0110
0000
0000
0000
,  // measure 5
0001
1000
0000
0000
0000
0000
0010
0100
0000
0000
0000
0001
0100
0000
0000
0000
,  // measure 6
0000
0010
1000
0000
0000
0010
0100
0000
0000
0000
0000
0001
1000
0000
0000
0000
,  // measure 7
0010
0000
0010
0000
0000
1000
0000
0100
0000
1000
0000
0000
0001
0100
0001
0000
,  // measure 8
0001
0000
0000
0010
0000
0100
0000
0010
0000
0000
0001
1000
0002
0000
0000
0000
,  // measure 9
0100
0000
0000
0000
1003
0000
0010
0000
0100
0000
0001
0000
0000
0010
0100
0010
,  // measure 10
0100
1000
0010
0100
1000
0100
0001
0010
,  // measure 11
0200
0000
0320
0000
0031
1000
0010
0100
,  // measure 12
0002
0000
1003
1001
0000
0010
0100
0001
,  // measure 13
1000
1100
0000
0010
0001
1000
0001
0101
,  // measure 14
0000
0010
1000
0100
0010
0011
0000
0001
,  // measure 15
1000
0010
1000
1010
0000
0010
0100
0001
,  // measure 16
1000
0110
0000
0010
1010
0000
0100
0001
,  // measure 17
1000
0001
0101
0000
0010
0100
0010
1000
,  // measure 18
1001
0000
0001
0010
0100
1000
1100
0000
,  // measure 19
0001
1000
0010
0100
0110
0000
0001
0001
,  // measure 20
0000
1000
0000
0100
0000
0010
0000
0000
0100
0000
0100
0000
1000
0000
1000
0000
,  // measure 21
0000
0001
0000
0100
0000
0000
0010
0000
0010
0000
0010
0000
1000
0000
0100
0000
,  // measure 22
0010
0001
0000
0100
0010
1000
0000
0001
,  // measure 23
0100
1000
0100
0001
0010
0100
1000
0001
,  // measure 24
0000
0010
0001
0100
0000
0010
1000
0100
,  // measure 25
0001
0000
0100
0000
1000
0000
0010
0000
0100
0000
0001
1000
0000
0000
0110
0000
,  // measure 26
0110
0000
0001
0000
1000
0000
0010
0000
1000
0100
0000
0000
0011
0000
0011
0000
,  // measure 27
0001
0000
0100
0000
0010
0000
1000
0100
0000
0000
1100
0000
1100
0000
0001
0000
,  // measure 28
1000
0000
0010
0000
0100
0001
0000
0000
1000
0000
1000
0000
0001
0000
0010
0000
,  // measure 29
0001
0100
0100
0010
1000
0100
0100
0001
,  // measure 30
0100
1000
0000
1001
0000
0100
0000
0010
,  // measure 31
0000
0000
0100
0000
0000
0000
1000
0000
0010
0000
0100
0001
0000
0000
0010
0000
,  // measure 32
0000
0100
0000
0000
1000
0000
0000
0001
0000
0000
0100
0000
0000
0010
0000
1000
,  // measure 33
0000
0000
0000
0000
0000
0000
0001
0000
0000
0000
0100
0000
0000
0000
0001
0000
0000
0000
0100
0000
0000
0000
0000
0000
0010
0000
0000
0000
0000
0000
1000
0000
0000
0000
0000
0000
0100
0000
0000
0010
0000
0000
0000
0000
0000
0000
0000
0000
,  // measure 34
0001
0000
1000
0000
0010
0100
0000
0000
0001
0000
1000
0000
0010
0000
1000
0000
,  // measure 35
0001
0000
0000
0000
0100
0000
0000
0000
0001
0000
0000
0000
0100
0000
0000
0000
0000
0000
0010
0000
0000
0000
0000
0000
1000
0000
0000
0100
0000
0000
0000
0000
0000
0000
0000
0000
0010
0000
0000
0001
0000
0000
0000
0000
0000
0000
0000
0000
,  // measure 36
0100
0000
0010
0000
1000
0001
0000
0000
0010
0000
0001
0000
0100
0000
0010
0000
,  // measure 37
1000
0000
0000
0000
0100
0000
0000
0000
1000
0000
0000
0000
0100
0000
0000
0000
0000
0000
0010
0000
0000
0000
0000
0000
0000
0000
0000
0001
0000
0000
0000
0000
0000
0000
0000
0000
0000
0000
0000
1000
0000
0000
0000
0000
0000
0000
0000
0000
,  // measure 38
0001
0000
0100
0000
0010
0000
0000
0000
1000
0100
1000
0000
0001
0000
0100
0000
,  // measure 39
0010
0000
0000
0000
1000
0000
0000
0000
0010
0000
0000
0000
1000
0000
0000
0000
0000
0000
0001
0000
0000
0000
0000
0000
0010
0000
0000
0100
0000
0000
0000
0000
0000
0000
0000
0000
0100
0000
0000
1000
0000
0000
0000
0000
0000
0000
0000
0000
,  // measure 40
0001
0000
1000
0000
0010
0100
0000
0000
0100
0000
0001
0000
0010
0000
0100
0000
,  // measure 41
1000
0000
0000
0000
0001
0000
0000
0000
1000
0000
0000
0000
0001
0000
0000
0000
0000
0000
0100
0000
0000
0000
0000
0000
0100
0000
0000
0000
0000
0000
0000
0000
0000
0010
0000
0000
0000
0000
0000
1000
0000
0000
0000
0000
0000
0001
0000
0000
,  // measure 42
0000
0000
1000
0100
1000
0000
1000
0000
0000
0001
0000
0100
0000
0010
0000
0000
,  // measure 43
1000
0001
2000
0000
0000
0000
0010
0000
0000
0000
0001
0000
0000
0000
3100
0000
,  // measure 44
1000
1001
0000
0010
0000
0001
0100
0001
,  // measure 45
1000
0110
0000
0001
0000
1000
0000
0100
,  // measure 46
0010
0002
0000
0100
0000
2003
0000
0100
,  // measure 47
0000
3002
0000
0010
0000
1003
0001
0100
,  // measure 48
0000
0010
1000
0100
0000
0010
0001
0100
,  // measure 49
0000
1010
0000
0001
0000
0100
0000
0010
,  // measure 50
1000
0000
0001
0100
0000
0100
0010
0000
0000
0000
1000
0100
0000
0100
0010
0000
,  // measure 51
0000
0001
0010
0100
1000
0001
0100
0010
,  // measure 52
0000
0200
0001
0301
0010
2000
0100
3100
,  // measure 53
0000
0000
0000
1000
0000
0010
0000
1000
0000
0010
0000
0000
0000
0000
0000
0100
0000
0001
0000
0100
0000
0010
0000
0000
,  // measure 54
0000
0000
0000
1000
0000
0001
0000
1000
0000
0010
0000
0000
0000
0000
0000
0100
0000
0001
0000
0100
0000
0010
0000
0000
,  // measure 55
0000
0000
0000
1000
0000
0100
0000
1000
0000
0001
0000
0000
0000
0000
0000
0010
0000
0100
0000
0010
0000
0001
0000
0000
,  // measure 56
0000
0000
0000
0100
0000
0001
0000
0100
0000
0001
0000
0000
0000
0000
0000
1000
0000
0100
0000
1000
0000
0010
0000
0000
,  // measure 57
0000
0000
0000
0100
0000
0010
0000
0100
0000
0001
0000
0000
0000
0000
0000
0001
0000
0010
0000
0001
0000
1000
0000
0000
,  // measure 58
0000
0000
0000
0010
0000
0100
0000
0010
0000
1000
0000
0000
0000
0000
0000
0100
0000
0010
0000
0100
0000
1000
0000
0000
,  // measure 59
0000
0000
0000
0001
0000
0010
0000
0100
0000
1000
0000
0100
0000
0010
0000
0001
0000
0010
0000
0100
0000
1000
0000
0100
,  // measure 60
0000
0010
0000
0001
0000
0000
0100
0000
0000
0010
0000
0000
1000
0000
0000
1000
0000
0000
0010
0000
0000
0001
0000
0000
,  // measure 61
0100
0001
0100
0010
0010
0001
1000
1000
,  // measure 62
0100
0010
0100
0001
0010
0001
1000
1000
,  // measure 63
0100
0100
0010
0010
1000
1000
0001
0100
,  // measure 64
0001
0010
0001
0100
0001
0010
1000
0100
,  // measure 65
1000
0001
1000
0010
1000
0100
0100
0001
,  // measure 66
0010
0010
0001
0100
0001
0010
1000
1000
,  // measure 67
0100
0100
0100
0001
1000
0010
1000
0010
,  // measure 68
0001
0012
0000
0000
0100
0000
0000
1003
,  // measure 69
0001
2000
0000
3000
0000
0020
0000
0030
,  // measure 70
0000
0200
0000
0000
0001
0000
0000
1300
,  // measure 71
0000
0200
0000
0300
0000
0020
0000
0030
,  // measure 72
0000
0101
0000
0000
0000
0000
0000
1000
,  // measure 73
0100
2000
0000
3000
0000
0002
0000
0003
,  // measure 74
0000
0200
0000
0000
0000
0000
0000
0310
,  // measure 75
0000
2000
0000
3000
0000
0002
0000
0103
,  // measure 76
0001
0000
0000
0000
;

//---------------dance-single - ---------------
#NOTES:
     dance-single:
     :
     Easy:
     9:
     0,0,0,0,0:
// measure 0
0000
0000
0000
0000
,  // measure 1
0000
0000
0000
0000
,  // measure 2
1000
1100
1000
1100
,  // measure 3
0001
0101
0001
0101
,  // measure 4
1000
1100
0001
0101
,  // measure 5
0010
0000
0000
0000
0000
0000
1000
0000
0000
0000
0000
0100
0000
0000
0000
0000
,  // measure 6
0000
0010
0000
0000
0000
0010
0000
0000
0000
0000
0000
0001
0000
0000
0000
0000
,  // measure 7
1001
0000
0000
0000
0000
0010
0000
0010
0000
0010
0000
0000
0000
0000
0110
0000
,  // measure 8
0000
0000
0000
0001
0000
0001
0000
0001
0000
0000
0000
0000
0200
0000
0000
0000
,  // measure 9
0001
1000
0301
0010
,  // measure 10
1000
0100
0010
0001
,  // measure 11
0100
0001
0010
0100
,  // measure 12
2000
3000
0020
0030
,  // measure 13
2000
0000
3000
0000
0002
0000
0203
0010
,  // measure 14
0000
0000
1000
0000
0000
0301
0000
0000
,  // measure 15
0100
0000
0000
0010
0000
0000
1000
0002
,  // measure 16
0000
0013
0000
0002
0000
1003
0000
0020
,  // measure 17
0000
1030
0000
0200
0000
0320
0000
0000
,  // measure 18
0001
0000
0000
1000
0000
0000
0031
0000
,  // measure 19
0000
1000
0000
0000
0100
0000
1000
0001
,  // measure 20
0000
0100
0000
0010
0000
0100
0000
0000
0110
0000
0000
0000
1000
0000
0100
0000
,  // measure 21
0000
0010
0000
0001
0000
0000
0000
0000
0110
0000
0000
0000
1000
0000
0000
0000
,  // measure 22
0010
1000
0100
0010
,  // measure 23
0001
0000
0100
0010
1000
0000
0001
0000
,  // measure 24
1000
0010
0100
0001
,  // measure 25
0010
0000
0100
0000
1000
0000
0000
0000
0001
0000
0000
0010
0000
0000
0001
0000
,  // measure 26
1000
0000
0100
0000
0000
0000
0010
0000
0000
0001
0000
0000
1000
0000
0010
0000
,  // measure 27
0100
0000
0000
0000
0010
0000
0000
1000
0000
0000
0001
0000
0010
0000
0100
0000
,  // measure 28
0000
0000
1000
0000
0000
0001
0000
0000
1000
0000
0010
0000
0000
0000
0101
0000
,  // measure 29
0000
0101
0000
1100
0000
1100
0000
0001
,  // measure 30
0001
0001
0000
2002
0000
0000
0000
0000
,  // measure 31
0000
3000
0000
1000
0000
0100
0000
1000
,  // measure 32
0000
1003
0000
0001
0000
0010
0000
0001
,  // measure 33
0000
0100
0000
0010
0000
1000
0000
0100
,  // measure 34
0000
0010
0001
0000
0001
0100
0000
0010
,  // measure 35
1000
0000
0001
1000
0000
0010
0000
1000
,  // measure 36
0000
0001
0010
0000
0100
1000
0000
1000
,  // measure 37
0010
0000
0100
0002
0000
0000
0000
0000
,  // measure 38
0000
0000
0000
1003
0010
1000
0001
0010
,  // measure 39
0100
0000
1000
0001
0000
0100
0000
0001
,  // measure 40
0000
1000
0010
0000
0010
0100
0000
0001
,  // measure 41
0010
0000
0000
0000
0100
0000
1000
0000
0001
0000
0000
0100
0000
0100
0000
0100
,  // measure 42
0000
0000
0000
0000
0010
0000
1000
0000
0000
0001
0000
0001
0000
0001
0000
0000
,  // measure 43
0000
2020
0000
0000
0000
0030
0000
0001
,  // measure 44
0001
0002
0000
0000
0000
0000
0000
3003
,  // measure 45
0000
1000
0100
0000
0000
0010
0001
0000
,  // measure 46
0000
0100
0010
0000
0000
1000
0001
0000
,  // measure 47
0000
0010
0001
0000
0000
1000
0010
0000
,  // measure 48
0000
0100
0010
0000
0000
0100
0001
0000
,  // measure 49
0000
0110
0000
0001
0000
0010
0000
0100
,  // measure 50
1000
0002
0000
0103
0000
0020
0000
1030
,  // measure 51
0000
1100
0000
0010
0000
0001
0100
0001
,  // measure 52
0000
2000
0000
3000
0000
0020
0000
0030
,  // measure 53
0000
1000
0000
1100
0000
0001
0000
0101
,  // measure 54
0000
0100
0000
0110
0000
0010
0000
0110
,  // measure 55
0000
0100
0000
0101
0000
0001
0000
0011
,  // measure 56
0000
0010
0000
1001
0000
0100
0000
1001
,  // measure 57
0000
0010
0000
1010
0000
0100
0000
1100
,  // measure 58
0000
0010
0000
0011
0000
0001
0000
0101
,  // measure 59
0000
1010
0000
0101
0000
0011
0000
1100
,  // measure 60
0000
0001
0100
0010
0100
0001
0010
0100
,  // measure 61
1000
0002
0000
1003
0000
2000
0000
3010
,  // measure 62
0000
0010
1000
0010
0100
0001
0010
0100
,  // measure 63
1000
0002
0000
0103
0000
0200
0000
0301
,  // measure 64
0000
0001
0010
0100
0010
0001
1000
0010
,  // measure 65
0100
0020
0000
1030
0000
2000
0000
3100
,  // measure 66
0000
0100
1000
0001
1000
0010
0100
0001
,  // measure 67
1000
0020
0000
0130
0000
0200
0000
0301
,  // measure 68
0000
1001
0000
0000
0000
0000
0000
0010
,  // measure 69
0001
0200
0000
0300
0000
0020
0000
0030
,  // measure 70
0000
2000
0000
0000
0000
3000
0000
0001
,  // measure 71
0000
0020
0000
0030
0000
0200
0000
0300
,  // measure 72
0000
1001
0000
0000
0000
0000
0000
1000
,  // measure 73
0010
2000
0000
3000
0000
0200
0000
0300
,  // measure 74
0000
0020
0000
0000
0000
0030
0000
0001
,  // measure 75
0000
2000
0000
3000
0000
0002
0000
0003
;

//---------------dance-single - ---------------
#NOTES:
     dance-single:
     :
     Beginner:
     5:
     0,0,0,0,0:
// measure 0
0000
0000
0000
0000
,  // measure 1
0000
0000
0000
0000
,  // measure 2
1000
0000
1000
0000
,  // measure 3
0001
0000
0001
0000
,  // measure 4
1000
0000
0001
0000
,  // measure 5
0010
0000
0000
0000
0000
0000
0001
0000
0000
0000
0000
0100
0000
0000
0000
0000
,  // measure 6
0000
0010
0000
0000
0000
0010
0000
0000
0000
0000
0000
1000
0000
0000
0000
0000
,  // measure 7
1001
0000
0000
0000
0000
0000
0000
0110
,  // measure 8
0000
0000
0000
1001
,  // measure 9
0000
1000
1000
0000
,  // measure 10
0010
0000
0100
0000
,  // measure 11
0001
0000
1000
0000
,  // measure 12
0001
0000
0010
0000
,  // measure 13
0001
0000
0100
0200
,  // measure 14
0000
0000
0000
0000
,  // measure 15
0000
0000
0000
0000
0300
0000
0000
0010
,  // measure 16
0000
0000
0000
1000
0000
0000
0000
0100
,  // measure 17
0000
0000
0000
1000
0000
2000
0000
0000
,  // measure 18
0000
0000
0000
0000
,  // measure 19
0000
0000
0000
3000
0000
0000
0001
0000
,  // measure 20
0000
0000
0000
0010
0000
0000
0000
0000
0001
0000
0000
0000
0001
0000
0000
0000
,  // measure 21
0000
0000
0000
0100
0000
0000
0000
0000
0010
0000
0000
0000
0010
0000
0000
0000
,  // measure 22
0000
1000
0000
0100
,  // measure 23
0000
0010
0010
0000
,  // measure 24
0001
0000
1000
0000
,  // measure 25
0010
0000
0000
0000
0010
0000
0000
0000
0000
0000
0000
0110
0000
0000
0000
0000
,  // measure 26
0000
0000
1000
0000
0000
0000
0000
0000
0000
1001
0000
0000
0000
0000
0000
0000
,  // measure 27
0001
0000
0000
0000
0000
0000
0000
1001
0000
0000
0000
0000
0000
0000
0100
0000
,  // measure 28
0000
0000
0000
0000
0000
0110
0000
0000
0000
0000
0000
0000
0000
0000
0010
0000
,  // measure 29
0000
0000
0000
0010
0000
0000
0000
1000
,  // measure 30
0000
0000
0000
0002
0000
0000
0000
0003
,  // measure 31
0000
0000
0000
0010
0000
0000
0000
0001
,  // measure 32
0000
0000
0000
0100
0000
0000
0000
0010
,  // measure 33
0000
0000
0000
1000
0000
1000
0000
0000
,  // measure 34
0000
0001
0000
0000
0000
0010
0000
0010
,  // measure 35
0000
0000
0000
0100
0000
0100
0000
0000
,  // measure 36
0000
1000
0000
0000
0000
0001
0000
0001
,  // measure 37
0000
0000
0000
1001
0000
0000
0000
0000
,  // measure 38
0000
0000
0000
0010
0000
0010
0000
0010
,  // measure 39
0000
0000
0000
0100
0000
0100
0000
0000
,  // measure 40
0000
0001
0000
0000
0000
1000
0000
1000
,  // measure 41
0000
0000
0000
1001
0000
0000
0000
0000
,  // measure 42
0000
0110
0000
0000
,  // measure 43
0000
1001
0000
0000
0000
0000
0000
0000
,  // measure 44
0000
0110
0000
0000
0000
0000
0000
0000
,  // measure 45
0000
1000
0000
0000
0000
1000
0000
0000
,  // measure 46
0000
0001
0000
0000
0000
0001
0000
0000
,  // measure 47
0000
0010
0000
0000
0000
0010
0000
0000
,  // measure 48
0000
0100
0000
0000
0000
0100
0000
0000
,  // measure 49
0000
1000
0000
0000
0000
0010
0000
0000
,  // measure 50
0000
1000
0000
0000
0000
0001
0000
0000
,  // measure 51
0000
0010
0000
0000
0000
0100
0000
0000
,  // measure 52
0000
1000
0000
0000
0000
1000
0000
0000
,  // measure 53
0000
0001
0000
0000
0000
0010
0000
0000
,  // measure 54
0000
0001
0000
0000
0000
0100
0000
0000
,  // measure 55
0000
0010
0000
0000
0000
1000
0000
0000
,  // measure 56
0000
0100
0000
0000
0000
0010
0000
0000
,  // measure 57
0000
0001
0000
0000
0000
0100
0000
0000
,  // measure 58
0000
0001
0000
0000
0000
0010
0000
0000
,  // measure 59
0000
0100
0000
0000
0000
1000
0000
0000
,  // measure 60
0000
0001
0000
0010
0000
0001
0000
0010
,  // measure 61
0000
0001
0000
0000
0000
1000
0000
0000
,  // measure 62
0000
1000
0000
0100
0000
1000
0000
0100
,  // measure 63
0000
1000
0000
0000
0000
0010
0000
0000
,  // measure 64
0000
0100
0000
0001
0000
0100
0000
0001
,  // measure 65
0000
0100
0000
0000
0000
0010
0000
0000
,  // measure 66
0000
0010
0000
1000
0000
0010
0000
1000
,  // measure 67
0000
0010
0000
0000
0000
0100
0000
0000
,  // measure 68
0000
0110
0000
0000
0000
0000
0000
0001
,  // measure 69
0000
0001
0000
0000
0000
0010
0000
0000
,  // measure 70
0000
0100
0000
0000
0000
0000
0000
1000
,  // measure 71
0000
1000
0000
0000
0000
0001
0000
0000
,  // measure 72
0000
1001
0000
0000
0000
0000
0000
0010
,  // measure 73
0000
0010
0000
0000
0000
0100
0000
0000
,  // measure 74
0000
0010
0000
0000
0000
0000
0000
1000
,  // measure 75
0000
1000
0000
0000
0000
0001
0000
0000
;

//---------------dance-single - ---------------
#NOTES:
     dance-single:
     :
     Challenge:
     20:
     0,0,0,0,0:
// measure 0
0000
0000
0000
0000
,  // measure 1
0000
0000
0000
0000
,  // measure 2
1000
0000
0000
0000
0000
0000
0010
0000
0000
0000
0000
0000
1000
0000
0000
0000
0000
0000
0001
0000
0000
0000
0000
0000
1000
0000
0000
0000
0100
0000
0000
0000
0010
0000
0000
0000
0001
0000
0000
0000
0000
0000
0100
0000
0000
0000
0000
0000
0000
0000
0000
0000
0000
0000
0001
0000
0000
0010
0000
0000
0001
0000
0000
0000
0000
0000
0100
0000
0000
0000
0000
0000
0001
0000
0000
0000
1000
0000
0000
0000
0010
0000
0000
0000
0100
0000
0000
0000
0000
0000
0001
0000
0000
0000
0000
0000
,  // measure 3
0000
0000
0000
0000
0000
0000
1000
0000
0000
0000
0000
0000
0010
0000
0000
0000
0000
0000
0100
0000
0000
0000
0000
0000
0001
0000
0000
0000
0010
0000
0000
0000
0100
0000
0000
0000
1000
0000
0000
0000
0000
0000
0001
0000
0000
0000
0000
0000
0000
0000
0000
0000
0000
0000
1000
0000
0000
0010
0000
0000
1000
0000
0000
0000
0000
0000
0001
0000
0000
0000
0000
0000
0100
0000
0000
0000
0010
0000
0000
0000
1000
0000
0000
0000
0001
0000
0000
0000
0000
0000
0010
0000
0000
0000
0000
0000
,  // measure 4
0000
0000
0000
0000
0000
0000
0001
0000
0000
1000
0000
0000
0001
0000
0000
0000
0000
0000
0100
0000
0000
0000
0000
0000
0010
0000
0000
0000
1000
0000
0000
0000
0001
0000
0000
0000
0100
0000
0000
0000
0000
0000
0001
0000
0000
0000
0000
0000
0000
0000
0000
0000
0000
0000
0010
0000
0000
0100
0000
0000
0010
0000
0000
0000
0000
0000
0001
0000
0000
0000
0000
0000
1000
0000
0000
0000
0001
0000
0000
0000
0010
0000
0000
0000
0100
0000
0000
0000
0000
0000
1000
0000
0000
0000
0000
0000
,  // measure 5
0010
0010
0000
1000
0001
0000
1000
1000
0000
0010
0100
0001
0001
0000
0010
0100
,  // measure 6
0000
0100
0100
1000
0001
0100
0100
0000
0010
1000
0000
0010
0010
0000
0100
0001
,  // measure 7
0011
0000
1100
0000
0000
1010
0000
0101
0000
1100
0000
0000
0010
0001
1001
0000
,  // measure 8
0110
0000
0000
1010
0000
0101
0000
1100
0000
0000
1000
0001
1020
0000
0000
0000
,  // measure 9
0100
0000
0000
0000
1030
0010
0001
0100
1000
0010
0001
0100
1000
0010
0001
0100
,  // measure 10
1000
0100
0001
0010
0100
0001
0010
0001
0100
0001
0100
1000
0010
1000
0010
1000
,  // measure 11
0010
0001
0100
1000
0001
1000
0001
0100
0010
0100
0010
1000
0001
0010
1000
0100
,  // measure 12
0010
0000
0001
0100
0000
0110
0000
0110
0000
0110
0000
0010
1000
0000
0001
0000
,  // measure 13
0100
0000
0001
1000
0000
1001
0000
1001
0000
0001
0010
0100
1000
0000
1000
0000
,  // measure 14
0001
0000
0100
0010
0000
1010
0000
1010
0000
1010
0000
1000
0001
0000
0100
0000
,  // measure 15
0001
0010
0100
1000
0100
0010
0001
0010
0100
1000
0100
0010
0001
0010
0100
1000
,  // measure 16
0001
1000
0000
1000
0100
1000
0000
1100
0000
0010
0001
0000
0100
0001
0100
0010
,  // measure 17
0100
0001
0000
1000
0010
1000
0000
1000
0100
0010
0001
0000
0100
0000
0001
0000
,  // measure 18
1000
0010
0000
0101
0000
0101
0000
0100
0010
0100
0001
0000
1000
0000
0001
0010
,  // measure 19
0100
1000
0100
0010
0001
1000
0100
0010
0001
0010
0100
1000
1100
0000
0101
0000
,  // measure 20
0000
0110
0000
1001
0000
0110
0001
0000
0011
0000
0100
1000
1100
0000
0011
0000
,  // measure 21
1000
1001
0000
1001
0000
0010
0110
0000
0110
0000
0110
0001
1000
0010
1000
0001
,  // measure 22
0010
1000
0010
0001
0100
0010
0100
0001
0010
0100
1000
0010
0100
0001
0010
0001
,  // measure 23
0100
0010
1000
0001
1000
0100
0001
0100
0010
0100
0001
0100
1000
0010
0100
1000
,  // measure 24
0100
0001
0100
0010
0100
0001
1000
0100
0001
0100
1000
0010
0100
0001
0010
0001
,  // measure 25
0010
0000
0000
1000
0000
0000
0010
0000
0000
0001
0000
0000
0100
0000
0010
0000
1000
0000
0001
0000
0000
0010
0000
0000
0100
0000
0000
1000
0000
0000
0001
0000
0000
0001
0000
0000
0000
0000
0000
0010
0000
0000
0001
0000
0000
0100
0000
0000
,  // measure 26
0001
0000
0000
1000
0000
0000
0010
0000
0100
0000
0001
0000
1000
0000
0000
0100
0000
0000
0010
0000
0000
0001
0000
0000
1000
0000
0000
1000
0000
0000
0000
0000
0000
0010
0000
0000
1000
0000
0000
0100
0000
0000
1000
0000
0000
0001
0000
0000
,  // measure 27
0100
0000
1000
0000
0100
0000
0001
0000
0000
0010
0000
0000
0001
0000
0000
1000
0000
0000
0010
0000
0000
0010
0000
0000
0000
0000
0000
0100
0000
0000
1000
0000
0000
0100
0000
0000
0001
0000
0000
0010
0000
0000
0100
0000
1000
0000
0001
0000
,  // measure 28
0100
0000
0010
0000
1000
0000
0001
0000
0100
0000
0100
0000
0000
0000
0000
0000
0001
1000
0001
1000
0001
0000
0100
0000
0010
0000
1000
0000
0001
0000
0000
0000
,  // measure 29
0001
0000
0000
0000
0000
0000
0010
0000
0000
0100
0000
0000
1000
0000
0000
0000
0000
0000
0010
0000
0000
0000
0000
0000
0010
0000
0000
0000
0000
0000
1000
0000
0000
0001
0000
0000
0100
0000
0000
0010
0000
0000
1000
0000
0000
0000
0100
0000
,  // measure 30
0010
0000
0001
0000
0000
0000
0100
0000
0010
0000
0100
0000
0010
0000
0000
0000
0000
0000
1001
0000
0000
0000
0000
0000
0001
0000
0000
0100
0000
0000
0001
0000
0000
0000
0000
0000
0010
0000
0000
0100
0000
0000
1000
0000
0000
0001
0000
0000
,  // measure 31
0000
0100
0001
0010
0001
1000
0010
1000
0001
0010
0001
1000
0010
1000
0001
0010
,  // measure 32
0001
0000
0000
1000
0000
0000
0010
0000
0000
1000
0000
0000
0001
0000
0000
0010
0000
0000
0001
0000
0000
1000
0000
0000
0010
0000
0000
1000
0000
0000
0001
0000
0000
0010
0000
0000
0001
0000
0000
1000
0000
0000
0001
0000
0010
0000
0100
0000
,  // measure 33
1000
0000
0100
0000
0010
0000
0001
0000
0010
0000
0100
0000
1000
0000
0100
0000
0010
0000
0001
0000
0000
0100
0000
0000
0010
0000
0000
1000
0000
0000
0100
0000
0000
0010
0000
0000
0001
0000
0000
1000
0000
0000
0000
0000
0000
0010
0000
0000
,  // measure 34
0001
0010
0100
0010
1000
0010
0000
1000
0100
0010
0001
0100
0010
1000
0001
0010
,  // measure 35
0001
0000
1000
0000
0010
0000
1000
0000
0100
0000
0010
0000
0001
0000
0000
1000
0000
0000
0001
0000
0000
0010
0000
0000
0100
0000
0000
1000
0000
0000
0010
0000
0000
0100
0000
0000
0001
0000
0000
1000
0000
0000
0000
0000
0000
0010
0000
0000
,  // measure 36
0001
0010
0100
0010
1000
0010
0000
1000
0100
0001
0100
1000
0010
0100
0001
1000
,  // measure 37
0001
0000
0010
0000
0100
0000
1000
0000
0001
0000
0100
0000
0010
0000
0000
1000
0000
0000
0001
0000
0000
0010
0000
0000
0001
0000
0000
0100
0000
0000
0010
0000
0000
1000
0000
0000
0100
0000
0000
0010
0000
0000
0001
0000
0000
1000
0000
0000
,  // measure 38
0010
0000
0100
0000
0001
1000
0001
1000
0001
1000
0001
1000
0001
0000
0100
0000
0010
0000
0100
0000
1000
0000
0100
0000
0001
0000
0010
0000
0100
0000
1000
0000
,  // measure 39
0001
0000
0100
0000
0010
0000
1000
0000
0100
0000
0010
0000
0001
0000
0000
1000
0000
0000
0010
0000
0000
0100
0000
0000
0001
0000
0000
1000
0000
0000
0100
0000
0000
0010
0000
0000
0001
0000
0000
1000
0000
0000
0000
0000
0000
0010
0000
0000
,  // measure 40
0001
0010
0100
0010
1000
0010
0100
0001
0010
1000
0010
0001
0100
0010
1000
0001
,  // measure 41
1000
0000
0100
0000
0010
0000
0100
0000
0010
0000
0001
0000
1000
0000
0000
0010
0000
0000
0101
0000
0000
0000
0000
0000
1100
0000
0000
0000
0000
0000
0000
0000
0000
1001
0000
0000
0000
0000
0000
0011
0000
0000
0000
0000
0000
1100
0000
0000
,  // measure 42
0000
0000
0010
0001
0101
0000
1010
0000
0000
1100
0000
0110
0000
0011
0000
0000
,  // measure 43
1000
0000
0001
0000
1001
0000
0000
0000
0100
0000
0010
0000
0000
0000
0010
0000
1000
0000
0001
0000
0000
0000
1000
0000
0100
0000
0010
0000
0001
0100
0001
0100
,  // measure 44
0010
0000
0000
1000
0000
0000
0010
0000
0000
1000
0000
0000
0001
0000
0000
0000
0000
0000
0000
0000
0000
0000
0000
0000
0010
0000
0000
0000
0000
0000
0100
0000
0000
0000
0000
0000
0000
0000
0000
0000
0000
0000
0100
0000
0000
0000
0000
0000
1000
0000
0000
0000
0000
0000
0000
0000
0000
0000
0000
0000
0001
0000
0000
0000
0100
0000
0000
0000
0010
0000
0000
0000
1000
0000
0000
0000
0100
0000
0000
0000
0010
0000
0000
0000
0001
0000
0000
0000
0100
0000
0000
0000
0010
0000
0000
0000
,  // measure 45
1000
0000
0100
0000
0010
0000
0001
0000
0000
0000
0000
0000
0100
0000
0000
0000
0000
0000
0001
0000
0000
0010
0000
0000
1000
0000
0000
0000
0000
0000
0100
0000
0000
0000
0000
0000
0010
0000
0000
0000
0000
0000
0001
0000
0000
0100
0000
0000
,  // measure 46
1000
0000
0010
0000
1000
0000
0001
0010
0100
0000
1000
0000
0001
0000
0100
0010
,  // measure 47
1000
0000
0100
0000
0010
0000
0001
0100
0001
0000
1000
0000
0010
0000
1000
0100
,  // measure 48
1000
0000
0000
0000
0001
0000
0000
0000
1000
0000
0000
0000
0010
0000
0100
0000
0010
0000
0000
0000
1000
0000
0000
0000
0100
0000
0000
0000
0010
0001
0010
0001
,  // measure 49
0010
0100
1000
0001
0100
0000
0010
0000
1000
0000
0000
0000
0001
0000
0010
0000
0100
0000
0000
0000
1000
0000
0001
0000
1000
0000
0000
0000
0010
0000
0100
0000
,  // measure 50
0001
1000
0000
1010
0001
0000
0101
0100
0010
1000
0000
1100
0001
0000
0011
1000
,  // measure 51
0001
0100
0000
1001
0010
0000
0110
0001
1000
0100
0000
1100
0010
0001
0101
0100
,  // measure 52
0010
0000
0000
1000
0000
0000
0001
0000
0100
0000
0001
0000
0100
0000
0000
0000
0000
0000
0010
0000
1000
0000
0010
0000
1000
0000
0000
0000
0000
0000
0001
0000
0010
0000
0001
0000
0010
0000
0000
0000
0000
0000
0100
0000
1000
0000
0100
0000
,  // measure 53
1000
0000
0000
0000
0000
0000
0000
0000
0000
0000
0000
0000
0000
0000
0000
0000
0000
0000
0000
0000
0000
0000
0000
0000
0001
0000
0000
0000
0000
0000
0000
0000
0000
0000
0000
0000
0000
0000
0000
0000
0001
0000
0000
0000
0000
0000
0000
0000
0000
0000
0000
0000
0000
0000
0000
0000
0001
0000
0000
0000
0000
0000
0000
0000
0000
0000
0000
0000
0000
0000
0000
0000
0010
0000
0000
0000
0000
0001
0000
0000
0000
0000
0000
0010
0000
0000
0000
0000
0100
0000
0000
0000
0000
1000
0000
0000
0000
0000
0000
0001
0000
0000
0000
0000
0100
0000
0000
0000
0000
0010
0000
0000
0000
0000
0000
1000
0000
0000
0000
0000
0001
0000
0000
0000
0000
0000
0000
0000
0000
0000
0000
0000
0000
0000
0000
0000
0001
0000
0000
0000
0000
0000
0000
0000
0000
0000
0000
0000
0000
0000
0000
0000
0001
0000
0000
0000
0000
0000
0000
0000
0000
0000
0000
0000
0000
0000
0000
0000
0100
0000
0000
0000
0000
0010
0000
0000
0000
0000
0000
0100
0000
0000
0000
0000
0010
0000
0000
0000
0000
1000
0000
0000
,  // measure 54
0000
0000
0000
0001
0000
0000
0000
0000
1000
0000
0000
0000
0000
0100
0000
0000
0000
0000
0000
0010
0000
0000
0000
0000
0001
0000
0000
0000
0000
0000
0000
0000
0000
0000
0000
0000
0000
0000
0000
0000
0001
0000
0000
0000
0000
0000
0000
0000
0000
0000
0000
0000
0000
0000
0000
0000
0001
0000
0000
0000
0000
0000
0000
0000
0000
0000
0000
0000
0000
0000
0000
0000
1000
0000
0000
0000
0000
0010
0000
0000
0000
0000
0000
1000
0000
0000
0000
0000
0010
0000
0000
0000
0000
1000
0000
0000
0000
0000
0000
0001
0000
0000
0000
0000
0010
0000
0000
0000
0000
0100
0000
0000
0000
0000
0000
1000
0000
0000
0000
0000
0010
0000
0000
0000
0000
0100
0000
0000
0000
0000
0000
0010
0000
0000
0000
0000
1000
0000
0000
0000
0000
0100
0000
0000
0000
0000
0000
0010
0000
0000
0000
0000
0001
0000
0000
0000
0000
1000
0000
0000
0000
0000
0000
0001
0000
0000
0000
0000
0100
0000
0000
0000
0000
0010
0000
0000
0000
0000
0000
0100
0000
0000
0000
0000
0001
0000
0000
0000
0000
1000
0000
0000
,  // measure 55
0000
0000
0000
0001
0000
0000
0000
0000
0010
0000
0000
0000
0000
0100
0000
0000
0000
0000
0000
1000
0000
0000
0000
0000
0001
0000
0000
0000
0000
0000
0000
0000
0000
0000
0000
0000
0000
0000
0000
0000
0001
0000
0000
0000
0000
0000
0000
0000
0000
0000
0000
0000
0000
0000
0000
0000
0001
0000
0000
0000
0000
0000
0000
0000
0000
0000
0000
0000
0000
0000
0000
0000
0100
0000
0000
0000
0000
0010
0000
0000
0000
0000
0000
0100
0000
0000
0000
0000
0001
0000
0000
0000
0000
1000
0000
0000
0000
0000
0000
0100
0000
0000
0000
0000
0010
0000
0000
0000
0000
0001
0000
0000
0000
0000
0000
1000
0000
0000
0000
0000
0010
0000
0000
0000
0000
0000
0000
0000
0000
0000
0000
0000
0000
0000
0000
0000
0010
0000
0000
0000
0000
0000
0000
0000
0000
0000
0000
0000
0000
0000
0000
0000
0010
0000
0000
0000
0000
0000
0000
0000
0000
0000
0000
0000
0000
0000
0000
0000
0100
0000
0000
0000
0000
0001
0000
0000
0000
0000
0000
1000
0000
0000
0000
0000
0001
0000
0000
0000
0000
0010
0000
0000
,  // measure 56
0000
0000
0000
0100
0000
0000
0000
0000
1000
0000
0000
0000
0000
0010
0000
0000
0000
0000
0000
0100
0000
0000
0000
0000
0001
0000
0000
0000
0000
0000
0000
0000
0000
0000
0000
0000
0000
0000
0000
0000
0001
0000
0000
0000
0000
0000
0000
0000
0000
0000
0000
0000
0000
0000
0000
0000
0001
0000
0000
0000
0000
0000
0000
0000
0000
0000
0000
0000
0000
0000
0000
0000
0010
0000
0000
0000
0000
0001
0000
0000
0000
0000
0000
1000
0000
0000
0000
0000
0010
0000
0000
0000
0000
1000
0000
0000
0000
0000
0000
0100
0000
0000
0000
0000
0010
0000
0000
0000
0000
0001
0000
0000
0000
0000
0000
0100
0000
0000
0000
0000
0010
0000
0000
0000
0000
0100
0000
0000
0000
0000
0000
0001
0000
0000
0000
0000
1000
0000
0000
0000
0000
0100
0000
0000
0000
0000
0000
0010
0000
0000
0000
0000
0001
0000
0000
0000
0000
0100
0000
0000
0000
0000
0000
0010
0000
0000
0000
0000
0100
0000
0000
0000
0000
0001
0000
0000
0000
0000
0000
1000
0000
0000
0000
0000
0001
0000
0000
0000
0000
0010
0000
0000
,  // measure 57
0000
0000
0000
0100
0000
0000
0000
0000
1000
0000
0000
0000
0000
0001
0000
0000
0000
0000
0000
1000
0000
0000
0000
0000
0010
0000
0000
0000
0000
0000
0000
0000
0100
0000
0000
0000
0000
0000
0000
0000
0010
0000
0000
0000
0000
0000
0000
0000
0100
0000
0000
0000
0000
0000
0000
0000
0001
0000
0000
0000
0000
0000
0000
0000
1000
0000
0000
0000
0000
0000
0000
0000
0001
0000
0000
0000
0000
0010
0000
0000
0000
0000
0000
0100
0000
0000
0000
0000
1000
0000
0000
0000
0000
0001
0000
0000
0000
0000
0000
0100
0000
0000
0000
0000
0001
0000
0000
0000
0000
0010
0000
0000
0000
0000
0000
0100
0000
0000
0000
0000
1000
0000
0000
0000
0000
0000
0000
0000
0001
0000
0000
0000
0000
0000
0000
0000
0100
0000
0000
0000
0000
0000
0000
0000
0010
0000
0000
0000
0000
0000
0000
0000
0100
0000
0000
0000
0000
0000
0000
0000
0001
0000
0000
0000
0000
0000
0000
0000
1000
0000
0000
0000
0000
0100
0000
0000
0000
0000
0000
1000
0000
0000
0000
0000
0001
0000
0000
0000
0000
0010
0000
0000
,  // measure 58
0000
0000
0000
0100
0000
0000
0000
0000
1000
0000
0000
0000
0000
0001
0000
0000
0000
0000
0000
0100
0000
0000
0000
0000
0010
0000
0000
0000
0000
0000
0000
0000
1000
0000
0000
0000
0000
0000
0000
0000
0001
0000
0000
0000
0000
0000
0000
0000
0010
0000
0000
0000
0000
0000
0000
0000
0100
0000
0000
0000
0000
0000
0000
0000
1000
0000
0000
0000
0000
0000
0000
0000
0010
0000
0000
0000
0000
0100
0000
0000
0000
0000
0000
0010
0000
0000
0000
0000
1000
0000
0000
0000
0000
0001
0000
0000
0000
0000
0000
0010
0000
0000
0000
0000
0100
0000
0000
0000
0000
1000
0000
0000
0000
0000
0000
0001
0000
0000
0000
0000
0100
0000
0000
0000
0000
0001
0000
0000
0000
0000
0000
0010
0000
0000
0000
0000
0001
0000
0000
0000
0000
0010
0000
0000
0000
0000
0000
0100
0000
0000
0000
0000
1000
0000
0000
0000
0000
0001
0000
0000
0000
0000
0000
0100
0000
0000
0000
0000
0010
0000
0000
0000
0000
0100
0000
0000
0000
0000
0000
0001
0000
0000
0000
0000
1000
0000
0000
0000
0000
0100
0000
0000
,  // measure 59
0000
0000
0000
0010
0000
0000
0000
0000
0001
0000
0000
0000
0000
1000
0000
0000
0000
0000
0000
0001
0000
0000
0000
0000
1000
0000
0000
0000
0100
0000
0000
0000
0010
0000
0000
0000
0001
0000
0000
0000
0010
0000
0000
0000
0100
0000
0000
0000
1000
0000
0000
0000
0100
0000
0000
0000
0010
0000
0000
0000
0001
0000
0000
0000
0010
0000
0000
0000
0100
0000
0000
0000
1000
0000
0000
0000
0100
0000
0000
0000
0010
0000
0000
0000
0001
0000
0000
0000
0010
0000
0000
0000
0100
0000
0000
0000
1000
0000
0000
0000
0100
0000
0000
0000
0010
0000
0000
0000
0001
0000
0000
0000
0010
0000
0000
0000
0100
0000
0000
0000
1000
0000
0000
0000
0100
0000
0000
0000
0010
0000
0000
0000
0001
0000
0000
0000
0010
0000
0000
0000
0100
0000
0000
0000
1000
0000
0000
0000
0100
0000
0000
0000
0010
0000
0000
0000
0001
0000
0000
0000
0010
0000
0000
0000
0100
0000
0000
0000
1000
0000
0000
0000
0100
0000
0000
0000
0010
0000
0000
0000
0001
0000
0000
0000
0010
0000
0000
0000
0100
0000
0000
0000
,  // measure 60
1000
0100
0010
0001
0010
0100
1000
0000
0000
0001
0000
0000
0100
0000
0000
0010
0000
0000
0010
0000
0000
0100
0000
0000
0001
0000
0000
0010
0000
0000
0001
0000
0000
1000
0000
0000
0100
0000
0000
1000
0000
0000
0010
0000
0000
1000
0000
0000
,  // measure 61
0100
0001
0001
0010
0010
0100
1000
0100
1000
0100
0001
0001
1000
0010
1000
0001
,  // measure 62
0010
0100
1000
1000
0100
0010
0001
0100
0001
0010
0010
0100
0001
0001
0010
1000
,  // measure 63
1000
0100
0001
0001
0001
0010
0010
0100
0010
0100
1000
0100
0100
1000
0010
1000
,  // measure 64
1000
0001
0010
0001
0100
0001
0010
0001
0010
0100
0010
0100
0001
0100
1000
1000
,  // measure 65
1000
1000
0010
1000
0100
0010
0100
0001
1000
0001
0100
0100
0001
0001
0010
1000
,  // measure 66
0010
1000
0010
0100
0001
0001
0010
0100
0100
1000
1000
0100
0001
1000
0010
0010
,  // measure 67
0001
1000
0100
0010
0001
0001
0001
0001
0100
0100
0010
1000
1000
1000
0010
0010
,  // measure 68
0100
1000
1001
0000
0010
0000
0100
0000
0001
0000
0010
0000
0100
0000
1000
0000
,  // measure 69
1000
2000
0010
0001
0010
3002
0100
1000
,  // measure 70
0100
0013
0001
0100
0010
1000
0001
0020
,  // measure 71
0100
0032
1000
0010
1000
0203
1000
0010
,  // measure 72
0301
0110
0001
1000
0010
1000
0001
0100
,  // measure 73
0100
0200
1000
0010
0001
0320
1000
0100
,  // measure 74
1000
0031
0010
1000
0001
0010
0100
1000
,  // measure 75
0001
0200
0010
0010
0310
2000
0001
0001
,  // measure 76
3001
0000
0000
0000
;
