#VERSION:0.83;
#TITLE:the Claw & the Dragon;
#SUBTITLE:;
#ARTIST:Re Mongkoh;
#TITLETRANSLIT:;
#SUBTITLETRANSLIT:;
#ARTISTTRANSLIT:;
#GENRE:;
#ORIGIN:;
#CREDIT:;
#BANNER:the Claw & the Dragon-bn.png;
#BACKGROUND:the Claw & the Dragon-bg.png;
#PREVIEWVID:;
#JACKET:the Claw & the Dragon-jacket.png;
#CDIMAGE:;
#DISCIMAGE:;
#LYRICSPATH:;
#CDTITLE:;
#MUSIC:the Claw & the Dragon.ogg;
#OFFSET:0.854000;
#SAMPLESTART:7.146000;
#SAMPLELENGTH:20.000000;
#SELECTABLE:YES;
#DISPLAYBPM:142.000000:160.000000;
#BPMS:0.000=150.000,
75.500=145.500,
76.000=150.000,
95.667=145.000,
96.000=150.000,
100.000=146.300,
101.000=146.500,
102.000=155.000,
103.000=149.000,
104.000=143.000,
105.000=152.000,
106.000=153.000,
108.000=149.000,
109.000=152.000,
111.500=143.000,
113.000=156.000,
114.000=148.000,
116.000=150.000,
117.000=151.000,
118.000=153.000,
120.000=148.000,
123.000=150.000,
124.000=154.000,
125.000=155.000,
126.000=148.000,
129.000=146.000,
131.000=150.000,
132.000=155.000,
133.000=156.000,
134.000=152.000,
135.000=146.000,
136.500=142.000,
137.000=152.000,
138.000=146.000,
139.000=148.000,
140.000=150.000,
140.500=160.000,
141.000=155.000,
141.500=160.000,
142.000=155.000,
144.000=145.000,
146.000=147.000,
147.000=150.000,
151.000=152.000,
152.000=149.000,
153.000=150.000,
154.000=149.000,
155.500=151.000,
156.000=153.000,
157.000=151.000,
158.000=150.000,
159.000=151.000,
162.000=150.000,
163.000=154.000,
164.000=151.000,
166.000=150.000,
168.000=153.000,
172.000=147.800,
173.000=147.200,
179.000=150.200,
184.000=151.200,
185.000=152.200,
187.500=146.200,
188.000=150.200,
191.500=148.000,
192.000=151.000,
194.500=147.000,
195.000=150.000,
198.000=149.000,
199.000=152.000,
200.000=150.000,
201.500=145.000,
202.000=148.000,
203.000=150.000,
204.000=153.000,
205.000=150.000;
#STOPS:;
#DELAYS:;
#WARPS:;
#TIMESIGNATURES:0.000=4=4;
#TICKCOUNTS:0.000=4;
#COMBOS:0.000=1;
#SPEEDS:0.000=1.000=0.000=0;
#SCROLLS:0.000=1.000;
#FAKES:;
#LABELS:0.000=Song Start;
#BGCHANGES:;
#KEYSOUNDS:;
#ATTACKS:
;

//---------------dance-single - ----------------
#NOTEDATA:;
#CHARTNAME:;
#STEPSTYPE:dance-single;
#DESCRIPTION:;
#CHARTSTYLE:;
#DIFFICULTY:Hard;
#METER:14;
#RADARVALUES:0.714756,0.814681,0.329164,0.043889,0.680272,456.000000,426.000000,30.000000,4.000000,0.000000,0.000000,0.000000,0.000000,0.000000,0.714756,0.814681,0.329164,0.043889,0.680272,456.000000,426.000000,30.000000,4.000000,0.000000,0.000000,0.000000,0.000000,0.000000;
#CREDIT:;
#DISPLAYBPM:150.000000;
#NOTES:
// measure 0
0000
0000
0000
0000
,  // measure 1
0000
0000
0000
0000
,  // measure 2
0000
0000
0000
0000
,  // measure 3
0000
0000
0000
0000
,  // measure 4
0000
0000
0000
0000
,  // measure 5
1010
0000
0100
0101
0000
0010
1000
0001
,  // measure 6
1000
0000
0100
0000
1000
0000
0010
0000
0100
0001
0100
0000
0010
0000
1000
0000
,  // measure 7
0100
0000
0010
0000
0001
0000
1000
0000
0001
0010
0001
0000
0100
0000
0010
0000
,  // measure 8
1000
0001
0000
0000
1000
0010
0000
0000
0100
0001
0000
0010
0000
0100
1000
0000
,  // measure 9
1100
0000
0000
0000
0011
0000
0000
0000
0100
0000
0001
0000
1000
0001
1000
0000
,  // measure 10
0010
0000
0100
0000
0010
0000
1000
0000
0001
0010
0001
0000
0100
0000
0010
0000
,  // measure 11
1000
0000
0100
0000
1000
0000
0001
0000
0010
0100
0010
0000
0001
0000
1000
0000
,  // measure 12
0001
0100
0000
0000
0010
1000
0000
0000
0100
0010
0000
0001
0000
1000
0100
0000
,  // measure 13
1001
0000
0100
0100
1001
0000
0100
0100
,  // measure 14
1001
0000
1010
0000
0001
0001
0011
0000
,  // measure 15
1100
0000
0001
1000
0001
0000
0100
0000
0001
0010
0001
0000
0100
0000
1000
0000
,  // measure 16
0100
0001
0100
0000
0010
1000
0010
0000
1000
0000
0100
0000
0001
0000
0000
0000
,  // measure 17
0011
0000
0001
1000
0001
0000
0100
0000
0010
0000
1000
0000
0100
0010
0001
0000
,  // measure 18
0100
0000
0110
0000
0110
0000
0010
0000
1010
0000
1000
0001
0000
1000
0100
0000
,  // measure 19
1001
0000
0000
0000
0101
0000
0000
0010
0000
0010
0000
0010
1000
0000
0000
0000
,  // measure 20
0001
1000
0000
0000
0100
0000
0000
0010
0001
0000
0000
0100
0010
1000
0000
0000
,  // measure 21
0001
0000
0000
1000
0100
0010
0000
0010
0001
1000
0000
0001
0100
0000
0000
0000
,  // measure 22
0010
0000
1000
0000
0010
0100
0000
0001
0000
0001
0000
1000
0100
0000
0000
0000
,  // measure 23
0010
0000
0000
0000
0000
0000
0001
0000
0000
0100
0000
0000
0010
0000
1000
0000
0001
0000
1000
0000
0100
0000
0010
0000
,  // measure 24
0001
0000
0100
0001
1000
0000
0000
0000
0010
1000
0100
0000
0010
0000
0000
0000
,  // measure 25
0001
0000
0100
0000
0001
1000
0000
0000
0010
0000
0000
0100
0000
0000
0001
0000
,  // measure 26
1000
0000
0100
0000
1000
0001
0000
0010
0000
0010
0000
0100
1000
0001
0100
0000
,  // measure 27
0010
0000
1000
0000
0100
0000
0001
0000
0100
0000
1000
0010
0000
0100
0001
0000
,  // measure 28
0010
0100
0010
0001
0100
0010
1000
0001
,  // measure 29
0010
0000
0100
0000
1000
0010
0000
0100
0000
0100
0001
0000
1000
0001
0000
0010
,  // measure 30
0100
0000
1000
0000
0010
0000
0100
0000
0001
1000
0001
1000
0001
0000
0010
0000
,  // measure 31
0100
0000
1000
0000
0001
0100
0000
0010
0000
0010
0000
0010
1000
0000
0001
0000
,  // measure 32
0010
0000
0100
0000
1000
0000
0001
0100
0000
0010
1000
0000
0001
0000
1000
0000
,  // measure 33
1100
0000
0000
0000
0010
0001
0000
0100
0000
0010
1000
0000
0001
1000
0000
0100
,  // measure 34
0010
0000
0001
0000
0100
0000
0010
1000
0001
1000
0100
0000
0010
0000
0001
0000
,  // measure 35
1000
0001
0000
0000
0100
0010
0000
0000
1000
0100
0000
0010
0001
0000
0100
0010
,  // measure 36
0100
0000
0001
0000
1000
0001
0000
0010
0000
0100
1000
0100
1000
0000
0001
0000
,  // measure 37
0100
0002
0000
0000
1003
0100
0000
0010
0000
0001
1000
0000
0010
0200
0000
0000
,  // measure 38
0301
0000
0100
0000
0010
0000
1000
0000
0100
0010
0100
1000
0010
0100
0001
0000
,  // measure 39
1001
0000
0000
0000
0100
0000
0101
0000
1000
0010
1000
0000
0001
0010
0001
0000
,  // measure 40
0100
0000
0001
1000
0001
0000
0010
0000
0100
1000
0100
0000
0010
0000
0001
0000
,  // measure 41
1000
0000
0010
0100
0001
0000
1000
0000
0001
0010
0100
0000
1000
0001
1000
0000
,  // measure 42
0001
0010
0000
0000
0001
0100
0000
0000
0010
0000
1000
0001
0000
1000
0100
0010
,  // measure 43
0001
0000
1000
0001
0100
0000
0000
0000
0010
1000
0001
0000
0010
0100
1000
0000
,  // measure 44
0001
0000
0100
0000
0001
0000
0010
0000
0100
0000
1000
0000
0010
0100
0001
0000
,  // measure 45
1000
0000
0100
0010
0100
0000
1000
0000
0001
0100
0010
0000
0100
0001
1000
0000
,  // measure 46
0001
0010
0000
0000
0100
1000
0000
0000
0010
0100
0000
0001
0000
1000
0100
0000
,  // measure 47
1001
0000
0100
0100
1001
0000
0100
0100
,  // measure 48
1001
0000
0011
0000
1000
1000
1010
0000
,  // measure 49
0101
0000
0010
1000
0001
0000
0100
0000
0001
0000
0010
0000
0100
1000
0001
0000
,  // measure 50
1000
0100
1000
0000
0001
0100
0001
0000
0010
0000
0100
0000
1000
0000
0000
0000
,  // measure 51
1010
0000
0100
0001
0010
0000
0100
0000
1000
0001
1000
0000
0010
0100
0001
0000
,  // measure 52
0010
0000
0110
0000
0110
0000
0100
0000
1100
0000
0001
1000
0010
0100
0001
0000
,  // measure 53
0022
0000
0000
0000
,  // measure 54
0000
0000
0000
0000
,  // measure 55
0033
0000
0000
0000
;

//---------------dance-single - ----------------
#NOTEDATA:;
#CHARTNAME:;
#STEPSTYPE:dance-single;
#DESCRIPTION:;
#CHARTSTYLE:;
#DIFFICULTY:Medium;
#METER:11;
#RADARVALUES:0.537634,0.543121,0.329164,0.065833,0.115207,343.000000,313.000000,30.000000,6.000000,0.000000,0.000000,0.000000,0.000000,0.000000,0.537634,0.543121,0.329164,0.065833,0.115207,343.000000,313.000000,30.000000,6.000000,0.000000,0.000000,0.000000,0.000000,0.000000;
#CREDIT:;
#DISPLAYBPM:150.000000;
#NOTES:
0000
0000
0000
0000
,
0000
0000
0000
0000
,
0000
0000
0000
0000
,
0000
0000
0000
0000
,
0000
0000
0000
0000
,
1010
0000
0000
0101
0000
1000
0001
0100
,
0010
0000
0100
0000
0001
0010
0001
0100
,
0010
1000
0001
0000
1000
0100
0000
0010
,
0001
0000
0100
0000
0001
0000
0010
0000
0001
0000
0000
0100
0000
0000
1000
0000
,
1100
0000
0011
0000
0100
0001
1000
0001
,
0000
0010
0100
1000
0000
0001
0100
0010
,
0000
1000
0100
1000
0001
0100
0000
0010
,
1000
0000
0001
0000
1000
0000
0100
0000
0010
0000
0000
0010
0000
0000
0010
0000
,
1001
0000
0100
0010
1001
0000
0100
0010
,
1001
0000
0110
0000
1000
0001
0110
0000
,
0101
0000
0010
1000
0001
1000
0000
0100
,
0010
0001
0010
0100
1000
0001
0100
0000
,
1010
0000
0001
1000
0000
0100
0010
0001
,
0000
0110
0110
0000
1001
0000
0100
0001
,
1001
0000
0000
0000
0010
0000
0000
1000
0000
0000
0001
0000
0100
0000
0000
0000
,
0001
1000
0000
0000
0020
0000
0000
0000
1030
0000
0100
0000
0001
0000
0000
0000
,
0010
0000
0000
0000
0100
0000
1000
0000
0010
0100
0000
0000
0002
0000
0000
0000
,
1003
0010
1000
0001
0010
0100
1000
0000
,
0001
0000
0000
0000
0000
0000
0100
0000
0000
0010
0000
0000
1000
0000
0001
0000
1000
0000
0001
0000
1000
0000
0001
0000
,
1000
0000
0000
0000
0100
0010
0000
0000
0001
1000
0000
0000
0010
0000
0000
0100
,
0001
0000
0000
0000
1010
0000
0000
0000
1000
0000
0000
0100
0000
0000
0010
0000
,
0001
0000
0100
0000
0001
0000
0000
1000
0000
0000
0010
0000
1000
0000
0001
0000
,
0010
0100
1000
0000
0001
0100
0001
0010
,
0100
1000
0010
1000
0001
0000
0100
0100
,
0010
0000
0100
0000
0001
0000
0000
1000
0000
0000
0001
0000
0100
0000
0000
0000
,
0010
1000
0001
1000
0100
0010
0001
1000
,
0001
0010
0001
0000
1000
0100
1000
0010
,
0100
0001
0010
0100
1000
0001
0100
0100
,
0010
0000
1000
0000
0001
0000
0000
0010
0000
0000
0100
0000
1000
0000
0000
0000
,
0001
0010
0001
0100
0010
1000
0001
0000
,
1000
0010
1000
0000
0100
0010
0001
0000
,
1000
0001
0010
0000
0001
0100
1000
0000
,
0010
2000
0000
0000
0001
0000
0000
0000
3100
0000
0000
0000
1000
0002
0000
0000
,
0013
0001
0010
0100
1000
0010
1000
0001
,
0011
0000
0000
1100
0000
1000
0001
0100
,
0001
0010
0001
0100
0010
1000
0001
1000
,
0100
0010
0001
1000
0001
0100
0010
1000
,
0100
0000
0001
0000
0100
0000
1000
0000
0010
0000
0000
0100
0000
0000
0001
0000
,
0101
0000
1010
0000
0100
0010
1000
0001
,
0010
0100
0010
0001
0100
0010
1000
0001
,
1000
0100
0010
0001
0100
0001
1000
0010
,
1000
0000
0100
0000
0001
0000
0100
0000
1000
0000
0000
0001
0000
0000
1000
0000
,
1001
0000
0100
0010
1001
0000
0100
0010
,
1001
0000
0110
0000
1000
0001
0110
0000
,
0101
0000
0010
1000
0100
0010
0000
0001
,
1000
0001
1000
0100
0010
0001
0100
0000
,
0001
1000
0001
0010
0100
1000
0010
0100
,
0000
0000
0110
0000
0110
0000
0000
0000
1001
0000
0000
1000
0000
0000
0100
0000
,
0022
0000
0000
0000
,
0000
0000
0000
0000
,
0033
0000
0000
0000
;

//---------------dance-single - ----------------
#NOTEDATA:;
#CHARTNAME:;
#STEPSTYPE:dance-single;
#DESCRIPTION:;
#CHARTSTYLE:;
#DIFFICULTY:Easy;
#METER:8;
#RADARVALUES:0.316624,0.452600,0.263331,0.329164,0.000000,202.000000,178.000000,24.000000,30.000000,0.000000,0.000000,0.000000,0.000000,0.000000,0.316624,0.452600,0.263331,0.329164,0.000000,202.000000,178.000000,24.000000,30.000000,0.000000,0.000000,0.000000,0.000000,0.000000;
#CREDIT:;
#DISPLAYBPM:150.000000;
#NOTES:
0000
0000
0000
0000
,
0000
0000
0000
0000
,
0000
0000
0000
0000
,
0000
0000
0000
0000
,
0000
0000
0000
0000
,
2000
0000
0000
0002
0000
0000
0000
0000
,
0000
0000
0000
0000
3003
0000
0001
0100
,
0001
1000
0100
0000
0000
0010
0000
0010
,
0001
0000
0000
1000
0001
0000
0100
0000
,
0020
2000
0000
0000
,
0000
0000
0000
0000
3030
0001
1000
0200
,
0000
0020
0000
0000
0000
0000
0300
0000
,
0001
1000
0001
0031
,
1001
0100
1001
0100
,
1001
0110
1000
0110
,
1001
0000
0010
0000
0000
1000
0000
1000
,
0001
0000
0010
0000
0001
1000
0100
0000
,
0220
0000
0000
0000
0000
0000
0000
0300
,
0000
0001
0001
0000
0001
0000
0130
0000
,
1001
0100
1000
0100
,
1000
0001
0200
0000
0010
0000
0001
0000
,
0010
0000
1000
0000
0301
0100
0010
0000
,
1000
0001
2000
0000
0000
0000
0000
0000
,
3100
0000
0000
1000
0001
1000
0001
1000
,
0000
0101
0000
0000
1100
0000
0010
0000
,
0000
0001
1000
0000
0020
0000
0230
0000
,
0302
1000
0010
0103
,
0010
0000
2020
0000
0000
0030
0000
0001
,
3001
1000
0100
0000
0000
0000
1000
0001
,
0000
0022
0000
0030
,
1000
0000
0100
0000
1000
1000
1003
0000
,
0010
0000
0202
0000
0000
0000
0300
1000
,
1000
0000
0100
0000
1003
0000
0001
0100
,
0010
0000
0110
0000
1000
0100
0001
0000
,
0010
0001
0100
0000
1000
0000
0001
0000
,
1000
0010
0100
0001
,
0010
0001
0100
0000
1000
0010
0001
0000
,
0102
0010
1003
2100
,
0001
0100
0001
3010
,
0200
0000
0000
0002
0000
0000
0000
0000
,
0000
0000
0000
0000
0303
0000
1000
0001
,
1000
0010
0100
0000
0000
0001
0000
0001
,
1000
0010
1000
0100
,
0020
0002
0000
0000
,
0000
0000
0000
0000
0033
0001
1000
0020
,
0000
0200
0000
0000
0000
0000
0030
0000
,
0001
1000
0001
0301
,
1001
0100
1001
0100
,
1001
0110
1000
0110
,
1001
0000
0010
0000
0000
1000
0000
1000
,
0001
0000
0010
0000
0001
0100
1000
0000
,
2010
0000
0001
0000
0000
0100
0000
0100
,
0000
0001
0001
0000
0001
0000
3010
0000
,
0220
0000
0000
0000
,
0000
0000
0000
0000
,
0330
0000
0000
0000
;

//---------------dance-single - ----------------
#NOTEDATA:;
#CHARTNAME:;
#STEPSTYPE:dance-single;
#DESCRIPTION:;
#CHARTSTYLE:;
#DIFFICULTY:Beginner;
#METER:3;
#RADARVALUES:0.141070,0.290761,0.131666,0.000000,0.000000,90.000000,78.000000,12.000000,0.000000,0.000000,0.000000,0.000000,0.000000,0.000000,0.141070,0.290761,0.131666,0.000000,0.000000,90.000000,78.000000,12.000000,0.000000,0.000000,0.000000,0.000000,0.000000,0.000000;
#CREDIT:;
#DISPLAYBPM:150.000000;
#NOTES:
0000
0000
0000
0000
,
0000
0000
0000
0000
,
0000
0000
0000
0000
,
0000
0000
0000
0000
,
0000
0000
0000
0000
,
1000
0000
0001
0000
,
0000
0000
0000
0100
,
0100
0000
0000
0000
,
0001
0000
1000
0000
,
0010
0010
0000
0000
,
0000
0000
0000
1000
,
1000
0000
0000
0000
,
0010
0010
0010
0000
,
1001
0000
0110
0000
,
1001
0000
0110
0000
,
1001
0000
0000
0000
,
0001
0001
0001
0000
,
0100
0000
0000
0000
,
0000
0010
0010
0000
,
0110
0000
0000
0000
,
0001
0001
0000
0000
,
0000
0000
1000
0000
,
0000
0000
0000
0000
,
0000
0000
0010
0010
,
0000
0100
0100
0000
,
0000
0000
0001
0000
,
0010
0000
0000
0000
,
0000
0100
0000
0000
,
1000
1000
0000
0001
,
0000
1000
1000
1000
,
0000
0000
0000
0000
,
0010
0010
0000
0000
,
0100
0100
0000
0001
,
0000
1000
1000
1000
,
0000
0000
0000
0000
,
0001
0000
0000
0100
,
0000
0000
0000
0000
,
0010
0000
0000
1000
,
0000
0000
0000
0000
,
0100
0000
0010
0000
,
0000
0000
0000
0001
,
0001
0000
0000
0000
,
1000
0000
0001
0000
,
0100
0100
0000
0000
,
0000
0000
0000
0010
,
0010
0000
0000
0000
,
1000
1000
1000
0000
,
1001
0000
0110
0000
,
1001
0000
0110
0000
,
1001
0000
0000
0000
,
0001
0001
0001
0000
,
0100
0000
0000
0000
,
0000
0010
0010
0000
,
0110
0000
0000
0000
;
