#TITLE:stomp to my beat;
#SUBTITLE:;
#ARTIST:JS16;
#TITLETRANSLIT:;
#SUBTITLETRANSLIT:;
#ARTISTTRANSLIT:;
#GENRE:;
#CREDIT:;
#BANNER:stomp to my beat-bn.png;
#BACKGROUND:stomp to my beat-bg.png;
#LYRICSPATH:;
#CDTITLE:;
#MUSIC:stomp to my beat.ogg;
#OFFSET:1.288000;
#SAMPLESTART:7.673000;
#SAMPLELENGTH:20.000000;
#LASTBEATHINT:0.624932;
#SELECTABLE:YES;
#DISPLAYBPM:134.000000;
#BPMS:0.000000=133.914001
;
#STOPS:
;
#BGCHANGES:21.500=stomp to my beat.mp4=1.000=1=0=0=StretchNoLoop==CrossFade==,
99999=-nosongbg-=1.000=0=0=0 // don't automatically add -songbackground-
;
#KEYSOUNDS:;
#ATTACKS:;

//---------------dance-single - ----------------
#NOTES:
     dance-single:
     :
     Hard:
     15:
     0.711410,0.821149,0.529773,0.233100,0.651621,470.000000,420.000000,50.000000,22.000000,0.000000,0.000000,0.711410,0.821149,0.529773,0.233100,0.651621,470.000000,420.000000,50.000000,22.000000,0.000000,0.000000:
0000
0000
0000
0000
,
0000
0000
0000
0000
,
0000
0000
0000
0000
,
1000
0001
1000
0001
0100
0010
0100
0010
1000
0001
1000
0001
0100
0010
0100
0010
,
1000
0001
0100
0010
1000
0001
0100
0010
1000
0000
1001
0000
0110
0000
0000
0000
,
1001
0000
0010
1000
0010
0100
0001
0010
0100
1000
0001
0000
0101
0000
0000
0000
,
1100
0000
0001
0010
1000
0000
1000
0000
0001
0100
0010
1000
0100
0000
0000
0000
,
0110
0000
0001
0000
0001
0100
0010
0000
1000
0001
0000
0100
0010
0000
0000
0000
,
1000
0000
0002
0000
0013
0000
0002
0000
1003
0010
0000
0010
0000
0010
0100
0000
,
1001
0000
0010
1000
0001
1000
0001
0010
0100
1000
0010
0000
1010
0000
0000
0000
,
0101
0000
0010
1000
0100
0000
0100
0000
0010
0001
1000
0001
0100
0000
0000
0000
,
1010
0000
0010
0000
1000
0001
1000
0000
0100
0010
0000
0010
0001
0000
0000
0000
,
0100
0000
0020
0000
1030
0000
0020
0000
0130
0001
0000
0001
0000
0001
1000
0000
,
2200
0000
0000
0000
3300
0000
0001
0000
0001
0100
0000
0010
1000
0000
0001
0000
,
0022
0000
0000
0000
0033
0000
0100
0000
1000
0010
0000
0010
0100
0000
0001
0000
,
0202
0000
0000
0000
0303
0000
1000
0000
0001
1000
0000
0001
0100
0000
0100
0000
,
0010
1000
0000
1000
0100
0000
0100
0000
0010
0001
0000
0001
0100
0000
0010
0000
,
1010
0000
0000
0100
0001
0000
0000
0001
0010
0000
0000
0010
0100
0000
0000
0100
,
1000
0000
0000
0001
1000
0000
0000
0001
0100
0000
0000
0010
0100
0000
0000
0001
,
0010
0010
0010
0010
0010
0010
0010
0010
,
0011
0010
1010
0010
0011
0010
1010
0010
,
1001
0000
0100
0010
1000
0000
0100
0010
,
0001
0000
0000
0000
1000
0010
1000
0010
0100
0000
0000
0000
0001
0010
0001
0010
,
0100
1000
0010
1000
0001
0000
0001
0000
0010
0100
1000
0100
0010
0000
0010
0000
,
0001
1000
0010
0100
0001
1000
0010
0100
0001
0000
0011
0000
1100
0000
0000
0000
,
1001
0000
0001
0010
0001
0100
0010
1000
0100
0010
0001
0000
0101
0000
0000
0000
,
1010
0000
0100
0001
1000
0000
1000
0000
0100
0010
0100
1000
0001
0000
0000
0000
,
0110
0000
1000
0000
1000
0100
0010
0000
0001
0100
0000
0001
0010
0000
0000
0000
,
0100
0000
2000
0000
3010
0000
2000
0000
3001
0100
0000
0100
0000
0100
0010
0000
,
1001
0000
0010
1000
0001
1000
0100
0010
0001
0100
0001
0000
1010
0000
0000
0000
,
1100
0000
0100
0010
0001
0000
0001
0000
0010
0001
1000
0100
1000
0000
0000
0000
,
0110
0000
0001
0000
0010
0001
0100
0000
0010
1000
0000
1000
0001
0000
0000
0000
,
0010
0000
0002
0000
0103
0000
0002
0000
1003
0010
0000
0010
0000
0010
0100
0000
,
0101
1010
1100
0011
,
1000
0100
0010
0001
0000
0001
0100
0000
0010
1000
0010
0100
0010
1000
0001
0000
,
1001
1010
0101
1100
,
0001
0010
0100
1000
0000
1000
0001
0000
0100
0010
1000
0001
0100
0000
0100
0000
,
0110
0000
0000
0000
0010
1000
0010
0100
0001
0000
0000
0000
0010
0001
0010
0100
,
1000
0000
0010
0000
0010
0100
0001
1000
0100
0000
0010
0000
0010
0100
1000
0001
,
0100
0100
0100
0100
0010
0010
0010
0010
,
1000
1000
0001
0001
1000
1000
0001
0001
,
0022
0000
0000
0000
0033
0000
0100
0000
1000
0010
0000
1000
0001
0000
0001
0000
,
2020
0000
0000
0000
3030
0000
0100
0000
0100
0001
0000
1000
0010
0000
0010
0000
,
0202
0000
0000
0000
0303
0000
1000
0000
0100
0010
0000
0100
1000
0000
0001
0000
,
0100
0010
0000
0010
1000
0000
0001
0000
0010
0100
0000
0100
1000
0000
0001
0000
,
1001
0100
0010
1000
1100
0010
0001
0100
,
1010
0001
1000
0100
0110
0010
0001
0100
,
0010
0010
0010
0010
0010
0010
0010
0010
,
1010
0010
0011
0010
1010
0010
0011
0010
,
2002
0000
0000
0000
,
3003
0000
0000
0000
;

//---------------dance-single - ----------------
#NOTES:
     dance-single:
     :
     Medium:
     10:
     0.507069,0.476796,0.508582,0.211909,0.000000,335.000000,287.000000,48.000000,20.000000,0.000000,0.000000,0.507069,0.476796,0.508582,0.211909,0.000000,335.000000,287.000000,48.000000,20.000000,0.000000,0.000000:
0000
0000
0000
0000
,
0000
0000
0000
0000
,
0000
0000
0000
0000
,
1000
0001
1000
0001
0100
0010
0100
0010
,
1000
0001
0100
0010
1000
0001
0001
0000
,
1001
1000
0010
1000
0010
0100
0001
0000
,
0110
0100
0001
1000
0001
0010
0100
0000
,
1100
1000
0010
0100
0001
0010
0100
0000
,
0100
1000
0001
1000
0010
0100
0001
0000
,
0101
0100
0001
0010
0100
1000
0001
0000
,
0011
0001
1000
0001
1000
0010
0100
0000
,
1010
0010
1000
0001
1000
0100
0010
0000
,
0001
1000
0010
1000
0001
0010
0100
0000
,
0220
0000
0330
0000
1000
0001
1000
0010
,
2020
0000
3030
0000
0100
0010
0100
0001
,
0022
0000
0033
0000
0100
0010
0001
1000
,
0001
0001
0001
0100
0010
0010
0010
0000
,
1010
0101
0011
1100
,
0110
0011
1001
0101
,
0010
1000
0010
1000
0010
1000
0010
1000
,
0010
1000
0010
1000
0010
1000
0010
1000
,
2002
0000
0000
0000
,
3003
0000
0100
0010
0001
0000
1000
0001
,
0100
0000
0001
0010
0001
0000
1000
0010
,
0100
0100
0100
0100
0010
1000
1000
0000
,
0110
0010
0100
0010
1000
0001
0100
0000
,
1010
0010
1000
0001
1000
0100
0010
0000
,
0011
0010
0100
0010
0001
1000
0100
0000
,
1000
0010
0100
0010
1000
0100
0001
0000
,
1001
0010
1000
0010
1000
0100
0001
0000
,
0101
0010
0100
0001
0010
0100
1000
0000
,
1100
0001
0100
0001
1000
0001
0010
0000
,
0100
1000
0001
1000
0010
0100
0001
0000
,
0011
1100
0101
1010
,
0010
1000
0010
0100
0010
1000
0001
0001
,
1001
1010
0101
1100
,
0100
0010
0100
1000
0010
0100
0001
0001
,
0011
0000
1000
0001
1010
0000
0100
0010
,
0110
0000
0010
1000
0101
0000
0001
1000
,
0002
0023
0230
2300
,
3010
0100
0010
0100
0010
0100
0010
0100
,
0220
0000
0330
0000
1000
0010
0100
0001
,
0202
0000
0303
0000
0001
0010
0100
1000
,
2200
0000
3300
0000
0010
1000
0001
1000
,
0100
0100
0100
0010
0001
0001
0001
0000
,
1001
0100
0010
0000
1010
1000
0001
0000
,
0011
0010
0100
0000
1100
1000
0001
0000
,
0101
0011
0110
1100
,
0010
1000
0010
1000
0001
0100
0001
0100
,
2002
0000
0000
0000
,
3003
0000
0000
0000
;

//---------------dance-single - ----------------
#NOTES:
     dance-single:
     :
     Easy:
     8:
     0.343596,0.397330,0.423819,0.286078,0.000000,227.000000,187.000000,40.000000,27.000000,0.000000,0.000000,0.343596,0.397330,0.423819,0.286078,0.000000,227.000000,187.000000,40.000000,27.000000,0.000000,0.000000:
0000
0000
0000
0000
,
0000
0000
0000
0000
,
0000
0000
0000
0000
,
1000
0010
1000
0010
,
1000
0000
0001
0000
0010
0100
0010
0000
,
1001
0000
0100
0000
0001
1000
0001
0000
,
0011
0000
0100
0000
1000
0010
1000
0000
,
1010
0000
0100
0000
0001
1000
0001
0000
,
0000
1000
0001
1000
0100
0000
0000
0000
,
0110
0000
0100
0000
0010
1000
0010
0000
,
0101
0000
0001
0000
1000
0100
1000
0000
,
1100
0000
0010
0000
0100
0001
0100
0000
,
0000
0001
1000
0001
0100
0000
0000
0000
,
2002
0003
0010
3010
,
2020
0030
0001
3001
,
0202
0003
0010
0310
,
1000
0100
1000
0000
0001
0100
0001
0000
,
0010
0010
0001
0001
,
0100
0100
1000
1000
,
0010
0001
0100
1000
,
1001
0110
1001
0110
,
2002
0000
0000
0000
,
3003
0000
0100
0000
,
0010
1000
0010
1000
,
0001
0000
0100
0000
0001
1000
0001
0000
,
0101
0000
0001
0000
0010
0100
1000
0000
,
1010
0000
0100
0000
0010
1000
0001
0000
,
1001
0000
0100
0000
0010
1000
0001
0000
,
0000
0100
0010
0100
0001
0000
0000
0000
,
2100
0100
0001
3100
,
0012
0010
1000
0013
,
0120
0100
0100
0130
,
0010
0001
1000
0001
0100
0000
0000
0000
,
0101
1100
0101
1100
,
0010
0000
0010
0000
1000
0001
1000
0000
,
1010
0011
1010
0011
,
0100
0000
0100
0000
0001
1000
0001
0000
,
1010
0100
0011
0100
,
1100
0010
0101
0010
,
1000
1000
0001
0001
,
0100
0100
0010
0010
,
2020
0030
0100
3100
,
2200
3000
0010
0310
,
0022
0030
1000
1003
,
0001
0010
0001
0000
1000
0010
1000
0000
,
2200
3300
0022
0033
,
0202
0303
2020
3030
,
0001
0001
1000
1000
,
0010
0010
0100
0100
,
2002
0000
0000
0000
,
3003
0000
0000
0000
;

//---------------dance-single - ----------------
#NOTES:
     dance-single:
     :
     Beginner:
     4:
     0.190718,0.291375,0.423819,0.084764,0.000000,126.000000,86.000000,40.000000,8.000000,0.000000,0.000000,0.190718,0.291375,0.423819,0.084764,0.000000,126.000000,86.000000,40.000000,8.000000,0.000000,0.000000:
0000
0000
0000
0000
,
0000
0000
0000
0000
,
0000
0000
0000
0000
,
1000
0000
1000
0000
,
1000
1000
1000
0000
,
1001
0000
0010
0000
,
0110
0000
0001
0000
,
1001
0000
0100
0000
,
0010
0010
0010
0000
,
0110
0000
0100
0000
,
1001
0000
1000
0000
,
0110
0000
0001
0000
,
0100
0100
0100
0000
,
0110
0000
0001
0000
,
0110
0000
1000
0000
,
0110
0000
0010
0000
,
0100
0000
0001
0000
,
1001
0000
1001
0000
,
1001
0000
0110
0000
,
0020
0000
0030
0000
,
0200
0000
0300
0000
,
2002
0000
0000
0000
,
3003
0000
0000
0000
,
0001
0000
0001
0000
,
0001
0001
0001
0000
,
1001
0000
0000
0000
,
0110
0000
0000
0000
,
1001
0000
0000
0000
,
0100
0100
0100
0000
,
0110
0000
0000
0000
,
1001
0000
0000
0000
,
0110
0000
0000
0000
,
0001
0001
0001
0000
,
1001
1001
1001
1001
,
0000
0000
0000
0000
,
0110
0110
0110
0110
,
0000
0000
0000
0000
,
1001
0000
0110
0000
,
1001
0000
0110
0000
,
1000
0000
0010
0000
,
0100
0000
0001
0000
,
1001
0000
0100
0000
,
1001
0000
0010
0000
,
1001
0000
1000
0000
,
0001
0000
1000
0000
,
0110
0000
0110
0000
,
0110
0000
0110
0000
,
0200
0000
0300
0000
,
0020
0000
0030
0000
,
2002
0000
0000
0000
,
3003
0000
0000
0000
;

//---------------dance-single - ----------------
#NOTES:
     dance-single:
     :
     Challenge:
     17:
     0.959646,0.900615,1.313838,0.127146,0.895317,634.000000,510.000000,124.000000,12.000000,0.000000,0.000000,0.959646,0.900615,1.313838,0.127146,0.895317,634.000000,510.000000,124.000000,12.000000,0.000000,0.000000:
// measure 0
0000
0000
0000
0000
,  // measure 1
0000
0000
0000
0000
,  // measure 2
0000
0000
0000
0000
,  // measure 3
1000
0001
0100
0010
1000
0001
0100
0010
1000
0001
0100
0010
1000
0001
0100
0010
,  // measure 4
1000
0001
0100
0010
1000
0001
0100
0010
1000
0000
1001
0000
0110
0000
0000
0000
,  // measure 5
1001
0000
0010
1000
0010
0100
0001
0010
0100
1000
0001
0000
0101
0000
0000
0000
,  // measure 6
1010
0000
1000
0100
0010
0000
0011
0000
0010
0100
1000
0001
0100
0010
1000
0000
,  // measure 7
0101
0000
0010
0000
1000
0100
0010
0000
0001
0100
0010
1000
0001
0000
0000
0000
,  // measure 8
0010
0000
0110
0000
1001
0000
0110
0000
1001
0100
0000
0010
0000
1000
0001
0000
,  // measure 9
0011
0000
0100
0010
0001
0100
0010
1000
0001
1000
0100
0000
1100
0000
0000
0000
,  // measure 10
0110
0000
0010
0001
0100
0000
1010
0000
0001
1000
0100
0010
0100
1000
0001
0000
,  // measure 11
0011
0000
0100
0000
0010
0100
1000
0000
0001
0100
0010
0100
0001
0000
0000
0000
,  // measure 12
1000
0000
1100
0000
0101
0000
1100
0000
0101
0010
0000
1000
0000
0001
0100
0000
,  // measure 13
2010
0000
3001
0000
0000
0000
0010
0000
0001
0001
0000
1000
0001
0000
0100
0000
,  // measure 14
0210
0000
0301
0000
0000
0000
0100
0000
0010
0010
0000
1000
0010
0100
0001
0000
,  // measure 15
0102
0000
0013
0000
0000
0000
0100
0000
1000
1000
0000
0010
1000
0000
0001
0000
,  // measure 16
0100
0010
0100
0001
1000
0000
1010
0000
0100
0001
0010
0100
1000
0001
1001
0000
,  // measure 17
0110
0001
0000
0001
0011
0100
0000
0100
1100
0010
0000
0100
0110
0001
0000
1000
,  // measure 18
1100
0100
0000
1000
1010
0001
0000
0100
0110
0010
0000
0100
1001
0001
0000
0010
,  // measure 19
1100
0110
0011
0101
0011
0110
1001
0110
,  // measure 20
1010
1001
1100
0110
0011
1001
0110
1010
,  // measure 21
1001
0000
0000
0000
0100
0001
0100
0001
0010
0100
0010
0100
1000
0001
1000
0001
,  // measure 22
1000
0010
1000
0010
0100
0001
0100
0001
1000
0100
1000
0100
0010
0001
0010
0001
,  // measure 23
1000
0001
0100
0010
1000
0001
0100
0010
1000
0001
0100
0010
1000
0001
0100
0010
,  // measure 24
1000
0000
0000
1000
0000
0000
1000
0000
0000
1000
0000
0000
1000
0000
0000
1000
0000
0000
1000
0000
0000
1000
0000
0000
1000
0000
0000
0000
0000
0000
1100
0000
0000
0000
0000
0000
0011
0000
0000
0000
0000
0000
1000
0000
0001
0000
1000
0000
,  // measure 25
1001
0000
0100
0010
1000
0100
0010
0001
0100
0001
1000
0000
0101
0000
0000
0010
,  // measure 26
1010
0000
0100
0001
1000
0000
1100
0000
0010
0001
0100
0001
0010
0100
1000
0000
,  // measure 27
0110
0000
0010
0000
0001
0100
1000
0000
0010
1000
0100
0010
0001
0000
0100
0010
,  // measure 28
1000
0000
1100
0000
0110
0000
0011
0000
1001
0100
0010
1000
0010
0100
0001
1000
,  // measure 29
0101
0000
0010
1000
0010
0100
0010
1000
0100
0010
0001
0000
1100
0000
0000
0001
,  // measure 30
0011
0000
0010
0001
0100
0000
1010
0000
0001
1000
0010
1000
0100
0010
0001
0000
,  // measure 31
0110
0000
1000
0000
0010
1000
0001
0000
0100
0010
0100
0001
1000
0000
0010
0100
,  // measure 32
0001
0000
0101
0000
1010
0000
0101
0000
1010
0100
0001
0010
0100
1000
0001
0100
,  // measure 33
0110
1000
1010
0001
0011
0100
1100
0010
,  // measure 34
1000
0100
0010
0001
0100
0010
0100
0001
0010
0100
1000
0010
1000
0001
1000
0010
,  // measure 35
1010
0100
0110
0001
1001
0100
0101
0010
,  // measure 36
1000
0001
1000
0010
0100
0001
0010
0100
0010
0100
1000
0010
0100
0001
1000
0001
,  // measure 37
0011
0000
0000
0000
1000
0001
0010
0100
1100
0000
0000
0000
0010
1000
0001
0100
,  // measure 38
0110
0000
0010
0010
0010
1000
0001
0100
1010
0000
0001
0001
0001
0010
0100
1000
,  // measure 39
1001
0110
1010
0101
0011
1100
1001
0110
,  // measure 40
0101
0011
0101
1010
1100
0110
0011
1001
,  // measure 41
2100
0000
3010
0000
0100
0000
0001
0000
0010
0100
0010
0100
1000
0000
0001
0000
,  // measure 42
1002
0000
0013
0000
0001
0000
1000
0000
0010
0100
0010
1000
0001
1000
0100
0000
,  // measure 43
0021
0000
0130
0000
1000
0000
0001
0000
0010
0001
0010
0100
1000
0001
0100
0000
,  // measure 44
0001
0010
0100
1000
0010
0000
0110
0000
0010
1000
0010
0100
0001
1000
1100
0000
,  // measure 45
0012
0103
0010
1000
1200
0310
0001
1000
,  // measure 46
0201
0310
1000
0001
1020
1030
0100
0001
,  // measure 47
0011
1001
0110
1010
1100
0011
1001
0101
,  // measure 48
0011
1001
1100
0110
0011
0101
1100
0101
,  // measure 49
2002
0000
0000
0000
,  // measure 50
3003
0000
0000
0000
;
