#TITLE:spiral galaxy;
#ARTIST:D.J. SETUP;
#BANNER:spiral galaxy-bn.png;
#BACKGROUND:spiral galaxy-bg.png;
#JACKET:spiral galaxy-jacket.png;
#MUSIC:spiral galaxy.ogg;
#SAMPLESTART:99.75;
#SAMPLELENGTH:20;
#DISPLAYBPM:154;
#BPMS:0=154;
#BGCHANGES:;

//---------------dance-single - ----------------
#NOTES:
     dance-single:
     :
     Beginner:
     4:
     :
0000
0000
0000
0000
,
0000
0000
0000
0000
,
0000
0000
0000
0000
,
0000
0000
0000
0000
,
0001
0000
0000
0000
,
0010
0000
0000
0000
,
0100
0000
0000
0000
,
1000
0000
0000
0000
,
0001
0000
0001
0000
,
0001
0000
0000
0000
,
1000
0000
1000
0000
,
1000
0000
0000
0000
,
1001
0000
0000
0000
,
0010
0000
0000
0000
,
0100
0000
0000
0000
,
1001
0000
0000
0000
,
0001
0000
0010
0000
,
0001
0000
1000
0000
,
0010
0000
1000
0000
,
0100
0000
0001
0000
,
0010
0000
0010
0000
,
0001
0000
0100
0000
,
1000
0000
0001
0000
,
1000
0000
0000
0000
,
1001
0000
0000
0000
,
0000
0100
0000
0100
,
0000
0010
0000
0010
,
0000
1000
0000
0001
,
0000
0010
0000
0001
,
0000
0100
0000
0010
,
0000
1000
0000
0000
,
1001
0000
0000
0000
,
0001
0000
0100
0000
,
1000
0000
0001
0001
,
0001
0000
0010
0000
,
0001
0000
0100
0100
,
0100
0000
0010
0000
,
1000
0000
0001
0001
,
0001
0000
0010
0000
,
1000
0000
0100
0000
,
0110
0000
0001
0000
,
1000
0000
0010
0010
,
0010
0000
0100
0000
,
0001
0000
1000
0000
,
1001
0000
0000
0000
,
0110
0000
0000
0000
,
1000
0000
0001
0000
,
0100
0000
0000
0000
,
0110
0000
0000
0000
,
2000
0000
3000
0000
,
0001
0000
0000
0000
,
0010
0000
0000
0000
,
0001
0000
0000
0000
,
0200
0000
0300
0000
,
0010
0000
0000
0000
,
1000
1000
1000
0000
,
0001
0000
0010
0000
,
0002
0000
0003
0000
,
1000
0000
0110
0000
,
0001
0000
0000
0000
,
1001
0000
0000
0000
,
0020
0000
0030
0000
,
1000
0000
0000
0000
,
0001
0000
1000
0000
,
0010
0000
1000
0000
,
0100
0100
0100
0000
,
1000
0000
0001
0000
,
0010
0010
0010
0000
,
0001
0000
0100
0000
,
1000
1000
1000
0000
,
0001
0000
1000
0000
,
0010
0010
0010
0000
,
1000
1000
1000
0000
,
0100
0100
0100
0000
,
0010
0010
0010
0000
,
0001
0001
0001
0000
,
0100
0000
0100
0000
,
0010
0000
0010
0000
,
1000
0000
0001
0000
,
1000
0000
0100
0000
,
0001
0000
0000
0000
;

//---------------dance-single - ----------------
#NOTES:
     dance-single:
     :
     Easy:
     7:
     :
0000
0000
0000
0000
,
0000
0000
0000
0000
,
0000
0000
0000
0000
,
0000
0000
0000
0000
,
0001
0000
0010
0000
,
1000
0000
0100
0000
,
1000
0000
0010
0000
,
0001
0000
0100
0000
,
0001
0010
1000
0000
,
0100
1000
0001
0000
,
0010
0001
0100
0000
,
0010
0100
0001
0000
,
1000
0100
0001
0000
,
0010
0001
0100
0000
,
0001
0010
1000
0000
,
2002
0000
0000
3003
,
0110
0000
0001
0100
,
1000
0010
1000
0001
,
0100
0000
0010
1000
,
0001
0010
0100
0010
,
0001
0100
1000
0000
,
0010
1000
0100
0000
,
0010
0001
0100
0000
,
0001
0010
1000
0000
,
1001
0010
1000
0100
,
1000
0010
0100
0001
,
0010
0001
0100
0010
,
0100
1000
0100
0001
,
0010
0100
0010
0001
,
0100
1000
0001
0010
,
0001
0100
0010
1000
,
2002
0000
0000
3003
,
0110
0001
0010
1000
,
0100
0010
0100
1000
,
0010
1000
0100
0001
,
0010
0001
0100
1000
,
0110
0000
1000
0001
,
0010
0000
0001
0100
,
1000
0000
0010
0000
,
1000
0100
0010
0001
,
1001
0010
1000
0100
,
1000
0010
0001
0100
,
0001
0010
0001
0100
,
0010
0010
1000
0001
,
0110
0010
1000
0100
,
0110
0001
0100
1000
,
1001
0010
0110
0100
,
2002
0000
0000
3003
,
0110
0000
1000
0000
,
0002
0000
0000
0003
,
0100
0010
0000
0000
0000
0000
0000
0000
,
2002
0000
0000
3003
,
0010
1000
0100
0001
,
0020
0000
0000
0030
,
0001
1000
0000
0000
0000
0000
0010
0000
,
1000
0100
1000
0001
,
1001
0000
0010
0000
,
0200
0001
0001
0301
,
1000
0100
0000
0000
0110
0000
0000
0000
,
0001
0010
0001
0100
,
1000
0010
1000
0001
,
0200
0000
0000
0300
,
0001
0010
0000
0000
0000
0000
0000
0000
,
0100
0100
1000
0001
,
0010
0001
0100
0010
,
1000
0100
1000
0001
,
0010
0001
0010
1000
,
0001
1000
0010
0100
,
0001
0010
1000
0100
,
1000
0010
0100
0001
,
0010
0001
0100
1000
,
0001
0010
1000
0001
,
0110
0000
1000
0000
0010
0100
0010
0000
,
1000
0000
0001
0000
0100
0010
0100
0000
,
0001
0000
0010
0000
1000
0001
1000
0000
,
0001
0000
0010
0000
1000
0100
1000
0000
,
1001
0000
0010
0000
1000
0001
1000
0000
,
0110
0000
0001
0000
0010
0100
0010
0000
,
1001
0000
0001
0000
0100
0010
0100
0000
,
1001
0000
0110
0000
0001
1000
0001
2000
,
0002
0000
0000
0000
,
0000
0000
0000
3003
;

//---------------dance-single - ----------------
#NOTES:
     dance-single:
     :
     Medium:
     11:
     :
0000
0000
0000
0000
,
0000
0000
0000
0000
,
0000
0000
0000
0000
,
0000
0000
0000
0000
,
0001
0100
0000
0000
0010
0000
0000
0000
,
1000
0100
0000
0000
0010
0000
0000
0000
,
0001
1000
0000
0000
0010
0000
0000
0000
,
0100
0001
0000
0000
1000
0000
0000
0000
,
0001
0100
0010
0000
1000
0000
0100
0000
,
0010
0001
0100
0000
0001
0000
1000
0000
,
0010
1000
0100
0000
0001
0000
0010
0000
,
0100
0010
0001
0000
0100
0000
1000
0000
,
0001
0010
0001
0000
0100
0000
1000
0000
,
0010
0100
0010
0000
1000
0000
0001
0000
,
0010
0001
0100
0000
1000
0000
0010
0000
,
2002
0000
0000
3003
,
0110
0000
0001
0010
0001
0100
0010
1000
,
0001
0000
0010
0001
0100
0000
0010
1000
,
0001
0000
1000
0100
0010
0001
0100
0001
,
1000
0000
0010
1000
0001
0000
0010
0100
,
1000
0000
0001
0100
0010
0000
1000
0001
,
1000
0000
0100
0010
0001
0100
0010
1000
,
0100
0000
1000
0001
1000
0000
0010
0100
,
0001
1000
0001
0000
0010
0100
1000
0000
,
0001
0100
0010
0100
0000
0001
0010
1000
,
0000
0100
1000
0001
0000
0010
0000
0100
,
1000
0010
0100
0001
0000
0010
0001
1000
,
0000
0001
0010
1000
0000
0100
0010
0001
,
0100
0000
0010
1000
0000
0001
0010
0001
,
0100
0000
0010
0000
1000
0100
1000
0000
,
0001
0010
0100
0000
1000
0010
0001
0000
,
2002
0000
0000
3003
,
0110
0000
0000
0000
1000
0000
0000
0000
0010
0000
0000
0100
0000
0000
0001
0000
,
0000
0010
0000
0000
0001
0100
0001
1000
,
0010
0000
1000
0000
0100
0010
0001
0100
,
0000
0000
0010
0000
0000
0010
0000
0000
1000
0000
0000
0001
0000
0000
0100
0000
,
0010
0000
1000
0000
0100
1000
0010
0001
,
0100
0000
0010
0000
1000
0100
1000
0001
,
0010
0000
0001
0100
0001
0000
0010
0100
,
0000
0000
1000
0000
0000
0001
0000
0000
1000
0000
0000
0010
0000
0000
0100
0000
,
0001
0010
0001
0100
0010
1000
0001
1000
,
0100
0010
0001
0000
0100
0010
1000
0001
,
0010
0001
0100
0000
0010
1000
0001
0000
,
1000
0000
0100
0000
0000
0100
0000
0000
0010
0000
0000
0010
0000
0000
0001
0000
,
0100
0000
0001
0010
1000
0000
0100
0010
,
0100
0000
1000
0001
1000
0000
0010
0000
,
0100
0001
0010
0000
0001
0100
1000
0000
,
0001
0001
1000
1000
,
1001
0000
0010
1000
0001
0000
0010
0001
,
0100
0000
0010
0000
1000
0100
0001
0000
,
1000
0001
0000
0000
0000
0010
0100
0000
,
0110
0000
0001
0000
0010
0100
1000
0000
,
0001
0100
0001
0000
1000
0100
1000
0000
,
0002
0010
1000
0103
,
1000
0001
0000
0000
0100
0010
0100
0000
,
0202
0000
0000
0303
,
1001
0000
1000
0100
1000
0000
0010
0100
,
0002
0010
0100
1003
,
0010
0100
0000
0000
2020
0000
3030
0000
,
0001
0100
0010
0000
1000
0100
0001
0000
,
0010
0001
0100
0010
1000
0100
0001
0000
,
0010
0000
0001
0000
0100
0010
1000
0000
,
0001
1000
0000
0010
0000
1000
0100
0001
,
0010
0000
0100
0000
1000
0010
0001
0000
,
0100
0000
0001
0000
0010
0100
1000
0000
,
0001
0000
0010
0000
0001
0100
1000
0000
,
0010
0000
1000
0000
0100
1000
0001
0000
,
0010
0000
0100
0000
1000
0010
0100
0000
,
0001
0000
0000
0010
0000
0000
0001
0000
1000
0000
0100
0000
0010
0000
0000
0000
,
0001
0000
0000
1000
0000
0000
0001
0000
0100
0000
0010
0000
1000
0000
0000
0000
,
0100
1000
0010
0000
1000
0001
0100
0000
,
0010
0000
1000
0000
0100
0010
0100
0000
,
1000
0001
0010
0001
0100
0010
1000
0000
,
0001
0000
0000
0100
0000
0000
0010
0000
0100
0000
0001
0000
1000
0000
0000
0000
,
0010
0000
0000
1000
0000
0000
0100
0000
0010
0000
0001
0000
0100
0000
0000
0000
,
0001
0000
0000
0010
0000
0000
0001
0000
0100
0000
0010
0000
1000
0000
0001
0000
,
0010
0100
1000
0000
0001
0100
0010
0000
,
1001
0000
0010
1000
0100
0010
0001
0000
,
1000
0010
1000
0001
0010
0100
1000
0000
,
0001
0000
0000
0100
0000
0000
0010
0000
1000
0000
0100
0000
1000
0000
2000
0000
,
0002
0000
0000
0000
,
0000
0000
0000
3003
;

//---------------dance-single - ----------------
#NOTES:
     dance-single:
     :
     Hard:
     14:
     :
0000
0000
0000
0000
,
0000
0000
0000
0000
,
0000
0000
0000
0000
,
0000
0000
0000
0000
,
0001
0100
0010
0000
1000
0000
0001
0000
,
1000
0100
0010
0000
0001
0000
1000
0000
,
0001
0010
1000
0000
0100
0000
0010
0000
,
0100
0010
0001
0000
0100
0000
1000
0000
,
0010
0000
1000
0000
0001
0000
0000
0010
0000
0000
0100
0000
1000
0000
0000
0000
,
0001
0000
0010
0000
0100
0000
0000
1000
0000
0000
0010
0000
0001
0000
0000
0000
,
0100
0000
0010
0000
1000
0000
0000
0001
0000
0000
0010
0000
0100
0000
0000
0000
,
0010
0000
0001
0000
0100
0000
0000
1000
0000
0000
0001
0000
0100
0000
0000
0000
,
1001
0000
0010
0000
1000
0000
0000
0100
0000
0000
1000
0000
0001
0000
0000
0000
,
0010
0000
0001
0000
0100
0000
0000
0010
0000
0000
1000
0000
0100
0000
0000
0000
,
0001
0000
0010
0000
1000
0000
0000
0001
0000
0000
1000
0000
0100
0000
0000
0000
,
2002
0000
0000
3003
,
0010
0000
1000
0000
0001
1000
0000
0010
0000
0000
0100
0000
0000
0000
0001
0000
,
0010
0000
0100
0000
0010
0001
0000
1000
0000
0000
0010
0000
0000
0000
0100
0000
,
0001
0000
0010
0000
0001
1000
0000
0100
0000
0000
1000
0000
0000
0000
0010
0000
,
0001
0000
0100
0000
0010
1000
0000
0100
0000
0000
1000
0001
1000
0000
0010
0000
,
0100
0000
1000
0000
0001
0010
0000
0001
0000
0000
0100
0000
0000
0000
0010
0000
,
1000
0000
0100
0000
1000
0010
0000
0001
0000
0000
0100
0000
0000
0000
0010
0000
,
0100
0000
0001
0000
0010
0100
0000
1000
0000
0000
0001
0000
0000
0000
0010
0000
,
0001
0000
0100
0000
1000
0001
0000
1000
0000
0000
0010
0100
0010
0000
1000
0000
,
0001
0100
0010
1000
0100
0010
0001
1000
,
0001
0100
0010
0100
0001
0010
0001
1000
,
0100
0010
0100
1000
0010
0100
0010
0100
,
0001
0010
1000
0010
0001
0100
0010
0100
,
0001
0010
1000
0001
1000
0010
0100
0001
,
0010
0100
0010
0001
0100
0010
1000
0001
,
1000
0100
0010
0001
0100
0010
1000
0001
,
2002
0000
0000
3003
,
0010
0000
1000
0000
0100
0000
0010
0000
0001
0000
0000
0100
0000
0010
1000
0000
,
0001
0100
0010
1000
0100
0010
0001
1000
,
0010
0000
1000
0000
0001
0000
1000
0000
0100
0000
0010
0000
0000
0001
0000
1000
,
0001
0000
0100
0000
0000
0010
0000
0000
1000
0000
0000
0100
0000
0000
0001
0000
,
0010
0001
0100
0010
1000
0100
0001
1000
,
0010
0100
0000
0001
0010
0100
1000
0001
,
0100
0000
0010
0000
0100
0000
1000
0000
0100
0000
0001
0000
0010
0100
0010
0000
,
0001
0000
1000
0000
0000
0010
0000
0000
1000
0000
0000
0100
0000
0000
0001
0000
,
0010
0000
0001
0000
0100
0000
0010
0000
1000
0000
0100
1000
0000
1000
0001
0000
,
0010
0001
0000
0100
0010
1000
0001
1000
,
0001
0000
0010
0000
1000
0000
0010
0000
0100
0000
0010
0001
0000
0001
1000
0000
,
0010
0000
1000
0000
0000
0001
0000
0000
0100
0000
0000
0010
0000
1000
0000
0001
,
1000
0100
0010
0001
0100
1000
0100
0010
,
1000
0001
0010
0100
1000
0010
0001
1000
,
0010
0100
0010
1000
0100
0010
0001
0100
,
0001
0000
1000
0000
0010
0000
0000
1000
0000
0000
0100
0000
1000
0000
0001
0000
,
1001
0000
0000
0000
0010
0000
0000
0001
0000
0000
0100
0000
1000
0000
0001
0000
,
0100
0000
0000
0000
0010
0000
0000
1000
0000
0000
0001
0000
1000
0000
0010
0000
,
0100
0000
0001
0000
0010
0000
0000
0001
0000
0000
0100
0000
1000
0000
0010
0000
,
0110
0000
0000
0000
0001
0000
0000
0010
0000
0000
0001
0000
0100
0000
1000
0000
,
0001
0000
1000
0000
0010
0000
0000
1000
0000
0000
0100
0000
1000
0000
0001
0000
,
0011
0000
0000
0000
0100
0000
0000
1000
0000
0000
0010
0000
1000
0000
0001
0000
,
0100
0000
0010
0000
0000
0000
0000
0000
0000
0000
1000
0100
1000
0000
0001
0000
,
0010
0000
0001
0000
0100
0000
0000
0010
0000
0000
1000
0000
0001
0000
0000
0000
,
1001
0000
0000
0000
0010
1000
0000
0010
0000
0000
0100
0000
0001
0000
1000
0000
,
0010
0000
1000
0000
0100
0000
0000
0010
0000
0000
0001
1000
0001
0000
0100
0000
,
0010
1000
0100
0000
0110
0001
1000
0000
,
0010
0000
1000
0000
0100
0010
0000
0001
0000
1000
0001
0000
0100
0000
0010
0000
,
1000
0100
0001
0000
0010
0001
0100
0010
,
1000
0000
0100
0000
1000
0001
0000
0010
0000
0000
0001
0100
0001
0000
1000
0000
,
0010
0000
0100
0000
0000
0000
0001
0000
0000
0000
1000
0010
1000
0000
0001
0000
,
0100
0000
0000
0100
0000
0000
0100
0000
0010
0000
1000
0000
0001
1000
0000
0001
,
1000
0000
0000
0010
0000
0000
1000
0000
0001
0000
0101
0000
0101
0000
0000
0000
,
0010
0000
1000
0100
0000
1000
0100
0000
0010
0000
0010
0000
0001
1000
0000
0000
,
0001
0000
0000
0100
0000
0000
0010
0000
1000
0000
1000
0000
1000
0001
0000
0000
,
0010
0000
0001
0100
0000
0001
0100
0000
0010
0000
0010
0000
1000
0001
0000
0000
,
1000
0000
0010
0000
0100
0000
0001
0000
0010
0000
0100
0000
1000
0001
0000
0000
,
0100
0000
0001
0000
0010
0000
0001
0000
1000
0000
0001
0000
0100
0010
0000
0000
,
1000
0000
0000
0100
0000
0000
0001
0000
1000
0000
0010
0000
1000
0001
0000
0000
,
0100
0000
0000
0010
0000
0000
0100
0000
0001
0000
0010
0000
0001
1000
0000
0000
,
1010
0000
0100
0000
0001
0000
0010
0000
1000
0000
0100
0000
1000
0001
0000
0000
,
0010
0000
0001
0000
0010
0000
0100
0000
1000
0000
0010
0000
1000
0001
0000
0000
,
0100
0000
0001
0000
0010
0000
0100
0000
0010
0000
0001
0000
1000
0100
0000
0000
,
1000
0000
0010
0000
1000
0000
0001
0000
0010
0000
0100
0000
1000
0001
0000
0000
,
0011
0000
0100
1000
0000
0100
1000
0000
0010
0000
0100
0000
0100
0001
0000
0000
,
1010
0000
0100
0001
0000
0100
0001
0000
0010
0000
0100
0000
0100
1000
0000
0000
,
1100
0000
0001
1000
0000
0001
1000
0000
0010
0000
0100
0000
0001
1000
0000
0000
,
0001
0000
0010
0100
0000
0100
1000
0000
0001
0000
0100
0000
0010
1000
0001
2000
,
0002
0000
0000
0000
,
0000
0000
0000
3003
;
