#TITLE:sanctus;
#SUBTITLE:;
#ARTIST:Osamu Kubota;
#TITLETRANSLIT:;
#SUBTITLETRANSLIT:;
#ARTISTTRANSLIT:;
#GENRE:;
#CREDIT:;
#BANNER:sanctus-bn.png;
#BACKGROUND:sanctus-bg.png;
#LYRICSPATH:;
#CDTITLE:;
#MUSIC:sanctus.ogg;
#OFFSET:1.312000;
#SAMPLESTART:35.063000;
#SAMPLELENGTH:20.000000;
#LASTBEATHINT:0.810667;
#SELECTABLE:YES;
#DISPLAYBPM:160.000000;
#BPMS:0.000000=160.000000
;
#STOPS:
;
#BGCHANGES:;
#KEYSOUNDS:;
#ATTACKS:;

//---------------dance-single - ----------------
#NOTES:
     dance-single:
     :
     Hard:
     15:
     0.815676,1.015617,0.574163,0.106326,0.637959,537.000000,483.000000,54.000000,10.000000,0.000000,0.000000,0.815676,1.015617,0.574163,0.106326,0.637959,537.000000,483.000000,54.000000,10.000000,0.000000,0.000000:
0000
0000
0000
0000
,
0000
0000
0000
0000
,
0000
0000
0000
0000
,
0000
0000
0000
0000
,
0000
0000
0000
0000
0000
0000
0000
0000
1010
0000
0000
0100
0001
0000
0011
0000
,
0000
1100
0000
0101
0000
1000
0010
0100
,
0001
0000
0011
0000
0100
1100
0000
1010
,
0000
0101
0000
0010
1000
0001
0100
0000
,
0110
0000
0010
1010
0000
1100
0000
0011
,
0000
0100
0001
0010
0001
1000
0001
0010
,
0100
1100
0000
0110
0000
0011
0100
1000
,
0001
0000
1000
0000
0010
0000
0000
0000
1001
0000
0000
0100
0010
0000
1010
0000
,
0000
1001
0000
0011
0000
0100
1000
0001
,
0010
0000
0110
0100
1000
0001
0000
0011
,
0000
0101
0100
0010
1000
0001
0100
0000
,
0010
0010
0000
1000
0000
0100
0000
1000
,
0001
0000
0000
0000
1000
0010
1000
0010
1000
0010
1000
0010
2000
0000
0000
0000
,
0000
0000
0000
0000
0000
0000
3100
0010
0100
1000
0010
1000
,
0001
0000
0000
0010
0001
0010
0100
1000
0001
0100
0000
0000
,
0001
0010
0100
0010
0001
1000
0010
0000
0000
0100
0001
0010
,
0001
0000
0000
0000
1000
0000
0000
0000
0100
0000
0000
0000
0010
0000
0000
0000
0000
0000
0000
0000
0000
0000
0000
0000
0001
0000
0000
0000
0000
0000
0010
0000
0000
0100
0000
0000
0010
0000
0000
0000
0000
0000
0001
0000
0000
0000
0000
0000
,
1000
0010
1000
0010
2000
0000
0000
0000
3000
0000
0100
0010
0100
1000
0001
0000
,
0010
0000
0000
0001
0000
0000
0100
0000
0010
1000
0100
0010
,
0001
0000
0000
0000
0100
0000
0000
0000
0001
0000
0000
0000
1000
0000
0000
0000
0000
0000
0000
0000
0000
0000
0000
0000
0001
0000
0000
0010
0000
0000
0100
0000
0000
0010
0000
0000
0001
0000
0000
0000
0000
0000
1000
0000
0000
0001
0000
0000
,
0100
0000
0010
0100
1001
0100
0000
0010
,
1000
0000
0001
0100
0001
0000
0010
0000
0000
0000
0100
0000
1000
0000
0010
0000
,
1000
0000
0001
0000
0100
0000
0010
0000
0100
0000
0001
1000
0100
0000
0010
0000
,
0010
0000
0001
0000
0110
0000
1000
0000
0001
0000
0100
0010
1000
0000
0100
0010
,
0001
1000
0010
0000
0100
0001
0010
0100
,
1000
0001
0200
0010
0310
0100
0100
0001
,
1010
0000
0100
0000
0001
0000
0000
0010
0100
0000
1000
0010
1000
0000
0001
0000
,
0000
0000
0100
0000
0001
0000
0010
0000
0001
0000
0100
0000
0010
0000
1000
0100
,
2000
0001
3001
1100
0101
0010
1001
0100
,
0000
0000
0010
0000
1000
0000
0100
1000
0001
0000
0010
0000
0100
0000
1000
0000
,
1010
0101
0000
0011
0000
0000
0000
0000
,
0000
0000
0000
0000
0000
0000
0000
0000
0020
0000
0000
0000
0031
0000
0100
0010
,
1000
0001
1000
0100
0010
0001
0100
0000
0020
0000
0000
0000
1030
0000
0010
0100
,
0010
1000
0001
0010
0001
1000
0100
0000
2000
0000
0000
0000
3010
0000
0100
0001
,
0010
0100
0010
0001
1000
0001
0100
0010
2000
0000
0000
0000
3001
0000
0100
0000
,
0010
1000
0000
0110
0000
1000
0010
0100
0001
0000
0000
0010
0001
0100
0000
0010
,
0000
1000
0010
1000
0001
0010
0000
0100
1000
0010
0000
0100
0001
1000
0001
0000
,
0010
0001
0010
0100
1000
0001
0100
0000
0010
1000
0010
1000
0000
0000
0100
0010
,
0000
0001
1000
0001
0000
0000
0100
0010
0100
0001
1000
0100
0000
0010
0001
0100
,
0000
0001
1000
0001
1000
0001
1000
0001
0100
0000
0010
0000
1000
0000
0001
0000
,
0010
0000
0100
0000
0010
0000
0001
0000
0100
0000
0001
0000
1000
0000
0010
0100
,
0010
0100
0001
1000
0100
0010
0001
0000
0100
0000
0010
0000
1000
0000
0100
0000
,
1000
0001
0010
0001
0010
0100
1000
0000
0001
0000
0010
0000
0001
0000
0100
0000
,
0010
1000
0001
0010
0100
0010
0001
0000
1000
0000
0100
0000
1000
0000
0010
0000
,
0100
0001
0010
0001
1000
0010
0100
0000
0001
0000
0010
0000
0001
0000
0100
0000
,
0010
1000
0100
1000
0001
1000
0100
0010
0001
0000
0100
0000
0001
0000
1000
0010
,
0100
0010
1000
0001
0010
0100
1000
0000
0001
0100
0001
0100
0010
1000
0010
1000
,
0001
0010
0001
0010
0100
1000
0100
1000
0010
0000
0100
0000
0110
0000
1001
0000
,
0000
0010
1000
0100
1100
0011
0000
0100
,
0001
0000
0010
0000
0101
0000
1010
0000
0100
0000
0000
0000
0001
0000
0010
0100
,
1000
0001
0001
0100
0110
1010
0000
0100
,
0001
0000
0010
0000
0001
0000
0100
0000
0010
1000
0100
0000
0010
0000
0001
0000
,
0100
0000
0001
0000
0000
0000
1000
0000
0020
0000
0000
0000
0130
0010
1000
0001
,
0100
0010
1001
0110
0000
0010
1000
0100
,
1100
0101
0000
0010
0001
0011
0100
1010
,
0001
0100
0020
0000
1030
1001
0101
0010
,
1000
1100
0010
0100
0110
0010
1000
1010
,
0001
0100
0101
1010
0001
1100
0000
0000
;

//---------------dance-single - ----------------
#NOTES:
     dance-single:
     :
     Medium:
     11:
     0.519481,0.524189,0.191388,0.212653,0.074428,342.000000,324.000000,18.000000,20.000000,0.000000,0.000000,0.519481,0.524189,0.191388,0.212653,0.074428,342.000000,324.000000,18.000000,20.000000,0.000000,0.000000:
0000
0000
0000
0000
,
0000
0000
0000
0000
,
0000
0000
0000
0000
,
0000
0000
0000
0000
,
0000
0000
0000
0000
1010
0000
1000
0001
,
0000
1000
0000
0100
0000
0010
0001
0000
,
0100
0000
0101
0000
0010
0100
0000
0010
,
0000
1000
0000
0001
0010
0000
0100
0000
,
1100
0000
0010
1000
0010
0100
0001
1000
,
0000
0100
0010
0000
0001
0000
0011
0000
,
0000
1000
0001
0100
0001
1000
0000
0010
,
0100
0000
0001
0000
1001
0000
0010
1000
,
0100
0010
0001
0100
0000
0001
1000
0000
,
0010
0000
0110
0000
1000
0010
0000
0100
,
0001
1000
0000
0001
0010
0000
0100
0000
,
1000
0001
0000
1000
0000
0010
0000
0100
,
0001
0010
0001
0100
0010
1000
0002
0000
,
0000
0000
0000
0000
0000
0000
1003
0000
0100
1000
0000
0001
,
0100
0000
0000
0010
0000
1000
0010
0000
0100
0001
0000
0000
,
0010
0000
0001
0100
0000
0001
1000
0000
0000
0100
0000
0010
,
0100
0000
0000
0000
1000
0000
0001
0000
0000
0000
0000
0000
0020
0000
0000
0000
0000
0000
0031
0000
0000
2000
0000
0000
,
0000
3001
0200
0000
0300
0010
1000
0010
,
0100
0000
0000
0001
0000
0000
1000
0000
0000
0001
0000
0010
,
0001
0000
0000
0000
0100
0000
0010
0000
0000
0000
0000
0000
1000
0000
0000
0100
0000
0000
0010
0000
0000
0001
0000
0000
,
0100
0000
0010
1000
0001
0001
0000
0000
,
0010
0100
1000
1000
0000
0000
0010
0100
,
0000
0100
0001
0000
0020
0000
0230
0000
,
1300
0001
0100
0100
0010
0000
1000
0100
,
1000
1000
0001
0000
0010
0001
0010
0100
,
1000
0000
0001
0100
0001
0100
0001
0010
,
0001
1000
0100
0000
0010
0010
0001
1000
,
0000
0001
0100
0010
0100
0001
1000
0000
,
0020
0000
0230
0000
0301
0100
0000
1010
,
0000
0000
0010
1000
0000
0101
0000
0000
,
1000
1001
0000
0110
0000
0000
0000
0000
,
0000
0000
0000
0000
0000
0000
0000
0000
2000
0000
0000
0000
3000
0000
0001
0100
,
0002
0000
0000
0000
0003
0000
0000
0000
0020
0000
0000
0000
0030
0000
0100
1000
,
0200
0000
0000
0000
0300
0000
0000
0000
0020
0000
0000
0000
0030
0000
0001
1000
,
0002
0000
0103
0200
0000
0000
0000
0000
,
0310
1000
0010
0100
0001
0000
0001
0010
,
0001
0000
0100
0000
0010
0000
1000
0000
0100
0000
0000
1000
0000
0000
0002
0000
,
0000
0000
0003
0000
0010
0001
0010
0100
,
1000
0001
0100
0000
0010
1000
0010
0100
,
0001
1000
0001
1000
0100
0000
0010
0001
,
0000
0011
0000
1100
0000
0000
0000
0010
,
1000
0001
0100
0000
0110
0000
0010
1000
,
0100
0010
0001
1000
0000
0001
0100
0001
,
0000
1000
0001
0000
1010
0000
0100
0001
,
0100
0010
1000
0001
0100
0000
0010
1000
,
0001
1000
0100
0010
0001
0000
0100
0001
,
1000
0010
1000
0100
1000
0000
1001
0000
,
0010
0100
0010
0100
0001
1000
0001
0010
,
0000
0100
1000
0010
1000
0001
0000
0100
,
0010
0100
0001
1000
0100
0000
2000
0000
,
3001
0001
0010
0001
0010
0100
0000
1000
,
0001
0100
0001
1000
0000
0010
1000
0100
,
1000
0001
0000
0100
0120
0000
1030
0001
,
1000
0100
0010
0010
0000
0001
0100
0001
,
1000
0100
0000
0010
0001
0100
0010
1000
,
0001
0000
2000
0000
3002
0100
0103
0010
,
1000
0001
0010
0000
0100
1000
0001
0100
,
0010
0000
1010
0100
0000
0101
0000
0000
;

//---------------dance-single - ----------------
#NOTES:
     dance-single:
     :
     Easy:
     8:
     0.337207,0.393142,0.127592,0.170122,0.000000,222.000000,210.000000,12.000000,16.000000,0.000000,0.000000,0.337207,0.393142,0.127592,0.170122,0.000000,222.000000,210.000000,12.000000,16.000000,0.000000,0.000000:
0000
0000
0000
0000
,
0000
0000
0000
0000
,
0000
0000
0000
0000
,
0000
0000
0000
0000
,
0000
0000
0000
0000
1000
0000
0000
0001
,
0000
0100
0000
0010
0000
0000
1000
0000
,
0001
0000
0010
0000
0000
0100
0000
0010
,
0000
0001
0000
0000
1000
0000
0001
0000
,
0100
0000
0000
0001
0000
1000
0000
0001
,
0000
0010
0100
1000
,
0000
0100
0000
1000
0000
0001
0000
0000
,
0100
0000
0010
0000
0100
0000
0000
0001
,
0000
0010
0000
0100
0000
0000
1000
0000
,
0001
0000
1000
0000
0000
0010
0000
1000
,
0000
0100
0000
0000
1000
0000
0001
0000
,
0100
0010
0000
0100
0000
0010
0000
0100
,
0001
1000
0001
0200
,
0000
0000
0310
1000
,
0001
1000
0100
0010
,
0001
0100
0001
0010
,
0100
0000
1000
0000
0002
0000
0000
2003
,
0000
0000
3020
0000
0000
0000
0130
0010
,
0100
0001
1000
0001
,
0010
0100
1000
0001
,
1000
0000
0010
1000
0000
0100
0000
0000
,
1000
0001
0000
0100
0000
0000
0001
0010
,
0000
0100
0000
0000
1100
0000
0101
0000
,
0010
1000
0000
0001
0000
0000
1000
0100
,
0000
0010
0000
0000
0001
0100
0000
0001
,
0000
0000
0220
0000
0300
0000
1030
0010
,
0000
1000
0000
0000
0100
0010
0000
0001
,
0000
0000
1000
0001
0000
0100
0000
0000
,
1010
0000
0011
0000
0100
1000
0000
0001
,
0000
0000
1000
0010
0000
0100
0000
0000
,
0010
1000
0000
1001
0000
0000
0000
0000
,
0000
0000
0000
0000
0002
0000
0003
1000
,
0200
0000
0300
0000
0020
0000
0030
0001
,
2000
0000
3000
0000
0020
0000
0030
0100
,
0001
0000
1000
0200
0000
0000
0300
0000
,
1000
0001
1000
0000
0010
0000
1000
0000
,
0100
0000
0010
0000
0001
0000
1000
0020
,
0000
0000
0030
0000
0100
0001
0000
0010
,
0000
0100
0000
1000
0001
0100
0000
0010
,
0000
1000
0001
1000
0001
0000
0000
0010
,
0000
0100
0000
1000
0000
0000
0000
0020
,
0000
0130
0000
0000
0010
0000
0000
1000
,
0000
0001
0000
1000
0000
0000
0000
0100
,
0000
0010
0000
0000
0001
0000
0000
0010
,
0000
0001
0000
0100
0000
0000
0000
0010
,
0000
1000
0000
0000
0100
0000
0000
1000
,
0000
0001
0000
1000
0000
0000
0010
0000
,
0100
0000
0001
0000
0010
0100
0000
1000
,
0000
0000
0001
1000
0000
0010
0000
0000
,
0100
0001
0000
0100
0000
0000
0101
0000
,
1010
0000
1000
0100
0000
0010
0000
0000
,
0001
1000
0000
0001
0000
0000
0010
0100
,
0000
1000
0000
0000
2002
0000
3000
0000
,
0013
0001
0000
1000
0000
0000
0001
0100
,
0000
0010
0000
0000
0100
0010
0000
1000
,
0000
0000
1100
0000
0011
0000
0010
0100
,
0000
1000
0000
0000
0010
1000
0000
0001
,
0000
0000
0100
0010
0000
0110
0000
0000
;

//---------------dance-single - ----------------
#NOTES:
     dance-single:
     :
     Beginner:
     3:
     0.148857,0.228868,0.000000,0.000000,0.000000,98.000000,98.000000,0.000000,0.000000,0.000000,0.000000,0.148857,0.228868,0.000000,0.000000,0.000000,98.000000,98.000000,0.000000,0.000000,0.000000,0.000000:
// measure 0
0000
0000
0000
0000
,  // measure 1
0000
0000
0000
0000
,  // measure 2
0000
0000
0000
0000
,  // measure 3
0000
0000
0000
0000
,  // measure 4
0000
0000
1000
0000
,  // measure 5
0000
0000
0000
0001
,  // measure 6
0001
0001
0000
0000
,  // measure 7
0000
0000
0010
0010
,  // measure 8
0010
0000
0000
0000
,  // measure 9
0000
0100
0100
0100
,  // measure 10
0000
0000
0000
0000
,  // measure 11
1000
1000
1000
0000
,  // measure 12
0000
0000
0000
0010
,  // measure 13
0010
0010
0000
0000
,  // measure 14
0000
0000
0100
0100
,  // measure 15
0100
0000
0001
0000
,  // measure 16
1000
1000
1000
1000
,  // measure 17
0000
0000
0010
0000
,  // measure 18
0000
0100
0000
0000
,  // measure 19
0001
0000
0000
0010
,  // measure 20
0000
0000
0100
0000
,  // measure 21
0000
1000
0000
0000
,  // measure 22
0001
0000
0000
1000
,  // measure 23
0000
0000
0010
0000
,  // measure 24
0000
0100
0000
0000
,  // measure 25
0010
0000
0000
0100
,  // measure 26
0000
0000
0001
0000
,  // measure 27
1000
0000
0000
0001
,  // measure 28
0000
0000
0010
0000
,  // measure 29
0000
0100
0000
1000
,  // measure 30
0000
0000
0010
0000
,  // measure 31
0000
1000
0000
0000
,  // measure 32
0001
0000
0010
0000
,  // measure 33
0000
0100
0000
0000
,  // measure 34
1000
0000
0000
0000
,  // measure 35
0000
0000
0001
0000
,  // measure 36
0001
0000
1000
0000
,  // measure 37
1000
0000
0001
0000
,  // measure 38
0100
0000
0010
0000
,  // measure 39
1000
0000
0100
0000
,  // measure 40
1000
0000
0001
0001
,  // measure 41
0001
0000
0010
0000
,  // measure 42
0001
0000
0100
0100
,  // measure 43
0100
0000
0010
0000
,  // measure 44
1000
0000
0001
0000
,  // measure 45
1000
0000
0100
0000
,  // measure 46
0010
0000
0001
0000
,  // measure 47
1000
0000
0001
0000
,  // measure 48
0100
0000
0010
0000
,  // measure 49
1000
0000
0100
0000
,  // measure 50
0010
0000
0001
0001
,  // measure 51
0001
0000
1000
0000
,  // measure 52
0000
0010
0000
0000
,  // measure 53
1000
0000
0000
0100
,  // measure 54
0000
0010
0000
0000
,  // measure 55
0001
0000
0000
1000
,  // measure 56
0000
0000
0010
0000
,  // measure 57
0100
0000
0000
0001
,  // measure 58
0000
0000
0010
0000
,  // measure 59
0000
0100
0000
1000
,  // measure 60
0000
0000
0000
0001
,  // measure 61
0000
0000
0100
0000
;
