#TITLE:rottel-da-sun;
#ARTIST:sampling masters MEGA;
#BANNER:rottel-da-sun-bn.png;
#BACKGROUND:rottel-da-sun-bg.png;
#JACKET:rottel-da-sun-jacket.png;
#MUSIC:rottel-da-sun.ogg;
#SAMPLESTART:0.008;
#SAMPLELENGTH:20;
#DISPLAYBPM:200;
#BPMS:0=199.82;
#BGCHANGES:;

//---------------dance-single - ----------------
#NOTES:
     dance-single:
     :
     Beginner:
     4:
     :
0000
0000
0000
0000
,
0000
0000
0000
0000
,
0000
0000
0000
0000
,
0000
0000
0000
0000
,
0000
0000
0100
0000
,
0000
0000
0100
0100
,
0000
0000
0100
0000
,
0100
0000
1000
0000
,
0001
0001
0001
0001
,
0000
0000
0000
0000
,
1000
1000
1000
1000
,
0000
0000
0000
0000
,
0010
0010
0010
0010
,
0000
0000
0000
0000
,
1001
0000
1001
0000
,
0100
0100
0100
0000
,
0002
0000
0003
0000
,
2000
0000
3000
0000
,
0020
0000
0030
0000
,
1000
1000
1000
0000
,
0200
0000
0300
0000
,
2000
0000
3000
0000
,
0002
0000
0003
0000
,
0010
0010
0010
0000
,
0001
0000
0001
0000
,
1000
0000
0010
0010
,
0010
0000
1000
0000
,
0001
0000
0100
0100
,
0100
0000
0010
0000
,
0100
0000
0001
0001
,
0001
0000
1000
0000
,
0001
0001
0001
0000
,
0010
0010
0000
0000
,
0001
0001
0000
0000
,
0100
0100
0000
0000
,
1000
1000
1000
0000
,
0010
0010
0000
0000
,
1000
1000
0000
0000
,
0001
0001
0000
0000
,
1001
0000
0000
0000
,
0010
0000
0000
0000
,
1000
0000
0000
0001
,
0001
0000
0000
0000
,
0010
0010
0000
0100
,
0200
0000
0300
0000
,
2000
0000
3000
0000
,
0002
0000
0003
0000
,
0020
0000
0030
0000
,
0002
0000
0003
0000
,
0200
0000
0300
0000
,
0020
0000
0030
0000
,
1000
1000
1000
0000
,
2000
0000
3000
0000
,
0200
0000
0300
0000
,
0020
0000
0030
0000
,
0001
0001
0001
0000
,
0010
0010
0010
0000
,
0001
0000
1000
0000
,
0010
0010
0010
0000
,
1000
0000
0001
0000
,
0100
0100
0100
0000
,
0001
0000
1000
0000
,
0100
0100
0100
0000
,
1000
0000
0001
0000
,
1001
0000
0000
0000
,
1001
0000
0000
0000
,
1001
0000
0000
0000
,
0000
0000
0000
0000
,
1001
0000
0000
0000
,
1001
0000
0000
0000
,
1001
0000
0000
0000
,
0000
0000
0000
0000
,
0100
0000
1000
0000
;

//---------------dance-single - ----------------
#NOTES:
     dance-single:
     :
     Easy:
     7:
     :
0000
0000
0000
0000
,
0000
0000
0000
0000
,
0000
0000
0000
0000
,
0000
0000
0000
0000
,
0000
0000
0100
0100
,
0100
0100
0100
0100
,
0100
0100
0100
0100
,
0100
0010
1000
0000
,
0001
0010
1000
1000
,
0100
1000
0001
0000
,
0001
0010
1000
1000
,
0100
1000
0001
0000
,
0001
0010
1000
1000
,
0100
1000
0001
0000
,
0010
0010
0100
0100
,
1000
0001
1000
0001
,
0010
0001
0101
1000
,
0010
1000
0100
0001
,
1000
0010
1100
0001
,
0010
0010
0010
0010
,
0001
0100
1010
0001
,
1000
0100
0010
0001
,
0100
0001
0011
1000
,
0001
0001
0001
0001
,
0010
0001
0100
1001
,
0010
1000
1001
1001
,
0010
0001
0100
1001
,
0001
1001
1001
0000
,
1000
0100
0001
0110
,
1000
0100
0110
0110
,
1000
0100
0001
0110
,
1000
0110
0110
0000
,
1001
0010
0000
1000
,
1100
0001
0000
0010
,
0011
0100
0000
0010
,
1000
1000
1000
1000
,
1001
0010
0000
0100
,
0101
0001
0000
0010
,
0011
1000
0000
0100
,
2200
0000
3300
0000
,
0001
0010
1000
0100
,
1000
0010
1000
0001
,
0010
0001
0010
0100
,
0010
0001
0100
1000
,
0001
0010
1000
0001
,
1000
0001
1000
0100
,
0010
0001
0010
0100
,
0010
0001
0100
1000
,
0001
1000
1010
0100
,
1000
0010
0001
0100
,
0001
1000
0101
0100
,
1001
0110
2002
3003
,
0010
1000
1100
0001
,
1000
0001
0010
0100
,
1000
0001
0011
0100
,
0010
0010
0010
0010
,
1100
0101
1100
0101
,
0001
0100
1000
0000
,
1010
0011
1010
0011
,
1000
0010
0001
0000
,
0101
1010
0101
1010
,
1000
0100
0010
0000
,
0011
1100
0011
1100
,
0010
0001
0100
0000
,
2020
3030
0001
0100
,
0202
0303
0010
1000
,
0220
0330
0001
1000
,
0010
0010
0010
0010
,
2200
3300
0001
0100
,
0022
0033
1000
0001
,
2002
3003
0010
0100
,
0010
0010
0010
0010
,
0100
0010
1000
0000
;

//---------------dance-single - ----------------
#NOTES:
     dance-single:
     :
     Medium:
     10:
     :
0000
0000
0000
0000
,
0000
0000
0000
0000
,
0000
0000
0000
0000
,
0000
0000
0000
0000
,
0000
0000
0100
0100
,
0100
0100
0100
0100
,
0100
0100
0100
0100
,
0100
0001
0010
0100
1000
0001
0000
0000
,
0100
0010
1000
0010
0100
0000
1001
0000
,
0001
0010
0001
0010
0100
1000
0000
0000
,
0001
0100
0010
0100
0001
0000
1001
0000
,
0001
0010
0001
0010
0100
1000
0000
0000
,
0010
1000
0001
1000
0010
0000
1001
0000
,
0001
0010
0001
0010
0100
1000
0000
0000
,
0001
0100
1000
0000
0001
0100
1000
0000
,
0001
0100
1000
0100
0001
0000
1001
0000
,
0010
1000
0000
0200
0300
1000
0001
1000
,
0100
0000
0000
0010
0000
0000
0002
0000
0003
0000
1000
0000
0001
0000
0000
0000
,
0010
0001
0000
2000
3000
0010
1000
0100
,
1000
0000
0000
0001
0000
0000
0020
0000
0030
0000
0001
0000
0100
0000
0000
0000
,
0010
0100
0000
0002
0003
0010
0001
1000
,
0100
0000
0000
1000
0000
0000
0020
0000
0030
0000
0100
0000
0001
0000
0000
0000
,
0010
0001
0000
2000
3000
0010
1000
0100
,
0001
0001
0001
0001
,
0020
0001
0030
0100
1000
0000
0000
0000
,
0010
1000
0010
1000
0100
0000
0110
0000
,
0002
1000
0003
0010
0100
0000
0000
0000
,
1000
0001
1000
0001
0100
0000
0110
0000
,
0020
1000
0030
0100
0001
0000
0000
0000
,
0010
0001
0010
0100
1000
0000
0110
0000
,
2000
0100
3000
0010
0001
0000
0000
0000
,
0100
0001
0010
0001
0100
0000
0110
0000
,
1001
0000
0010
1000
0000
0100
0001
0000
,
0011
0000
0010
0001
0000
0100
1000
0000
,
1010
0000
0001
1000
0000
0100
0010
0000
,
0011
0000
0101
0000
1001
0000
1000
0100
,
1100
0000
0001
1000
0000
0010
0100
0000
,
0101
0000
0010
1000
0000
0100
0001
0000
,
0011
0000
1000
0010
0000
0100
0001
0000
,
2200
0000
0000
0000
3300
1000
0001
0100
,
0010
1000
0100
0000
1100
0000
0011
0000
,
0100
0001
0010
0000
0001
0100
1000
0000
,
0010
1000
0001
0000
1010
0000
0101
0000
,
0010
0001
0010
0100
1000
0001
1000
0000
,
0010
1000
0010
0100
0000
0000
0000
0000
,
0001
0010
0001
1000
0000
0010
0100
0000
,
0001
1000
0001
0100
0000
0000
0000
0000
,
0010
1000
0000
0100
0000
1000
0001
1000
,
0010
0100
0000
0002
0003
0010
0001
1000
,
0001
0000
0000
1000
0000
0000
0200
0000
0300
0000
0010
0000
0001
0000
0000
0000
,
0100
0010
0000
2000
3000
0100
1000
0001
,
0010
0000
0000
0001
0000
0000
2000
0000
3000
0000
0100
0000
0010
0000
0000
0000
,
0001
0100
0000
2000
3000
0010
1000
0001
,
1000
0000
0000
0100
0000
0000
0002
0000
0003
0000
0010
0000
0001
0000
0000
0000
,
0100
0001
0000
0020
0030
0001
1000
0100
,
1000
1000
1000
1000
,
0020
0000
1030
0100
1000
0100
1000
0000
,
0001
0101
0000
0001
0101
0000
0000
0000
,
2000
0000
3100
0010
0100
0010
0100
0000
,
1000
1100
0000
1000
1100
0000
0000
0000
,
0002
0000
0103
0010
0100
0010
0100
0000
,
0010
1010
0000
0010
1010
0000
0000
0000
,
0200
0000
1300
0001
1000
0001
1000
0000
,
0100
1100
0000
0100
1100
0000
0000
0000
,
2002
0000
3003
0010
0100
0000
0110
0000
,
2002
0000
3003
0010
0100
0000
0001
1000
,
2002
0000
3003
1000
0100
0000
0110
0000
,
0011
1100
0011
1100
,
2002
0000
3003
0001
0010
0000
0110
0000
,
2002
0000
3003
1000
0100
0000
0010
0001
,
2002
0000
3003
0010
0100
0000
0110
0000
,
0101
1010
0101
1010
,
0100
0001
0010
0100
1000
0001
0000
0000
;

//---------------dance-single - ----------------
#NOTES:
     dance-single:
     :
     Hard:
     13:
     :
0000
0000
0000
0000
,
0000
0000
0000
0000
,
0000
0000
0000
0000
,
0000
0000
0000
0000
,
0000
0000
0000
0000
0100
0001
0100
0001
,
0100
0001
0100
0001
0100
0001
0100
0001
,
0100
0001
0100
0001
0100
0001
0100
0001
,
0100
0001
0010
0100
1000
0001
0200
0000
,
0310
1000
0100
1000
0010
0100
0001
0000
,
0010
0001
0010
0100
1000
0010
1000
0001
,
0100
1000
0100
0001
0100
0010
1000
0000
,
0001
0010
0001
1000
0010
0010
0010
0100
,
0001
1000
0001
1000
0100
0010
0001
0000
,
0100
0010
0100
0001
1000
0001
0010
0100
,
1000
0001
0100
0010
1000
0001
0100
0010
,
1000
0001
0100
0010
1000
1000
1000
0000
,
0001
0000
0000
0100
0000
0000
0000
0000
0000
0020
2000
0000
3030
0000
0000
0100
0000
0000
1000
0000
0000
0001
0000
0000
,
0010
0000
0000
0000
0000
0000
0000
0000
0000
0001
0000
0000
0000
0000
0000
0000
0000
0000
2000
0000
0200
0000
0000
0000
3300
0000
0000
0000
0000
0000
1000
0000
0000
0000
0000
0000
1000
0000
0000
0000
0000
0000
0000
0000
0000
0000
0000
0000
,
0010
0000
0000
1000
0000
0000
0000
0000
0000
0002
0200
0000
0303
0000
0000
0010
0000
0000
1000
0000
0000
0001
0000
0000
,
0010
0000
0001
0000
0010
0000
0100
0000
1000
0000
0010
0000
1000
0001
1000
0001
,
1000
0000
0000
0010
0000
0000
0000
0000
0000
2000
0002
0000
3003
0000
0000
0100
0000
0000
0010
0000
0000
0100
0000
0000
,
0001
0000
0000
0000
0000
0000
0000
0000
0000
0010
0000
0000
0000
0000
0000
0000
0000
0000
0002
0000
2000
0000
0000
0000
3003
0000
0000
0000
0000
0000
0100
0000
0000
0000
0000
0000
0100
0000
0000
0000
0000
0000
1000
0000
0000
0000
0000
0000
,
0001
0000
0000
1000
0000
0000
0000
0000
0000
0020
0200
0000
0330
0000
0000
0001
0000
0000
0100
0000
0000
1000
0000
0000
,
1001
0110
1001
0110
,
0001
0100
1000
0100
0001
0100
0110
0000
,
0001
0100
1000
0100
0110
0000
0110
0000
,
0001
0100
1000
0100
0001
0100
0110
0000
,
0001
0000
0100
0000
0110
0000
0000
0000
0110
0000
0000
0000
0010
0000
1000
0001
,
1000
0100
0001
0100
1000
0100
0110
0000
,
1000
0100
0001
0100
0110
0000
0110
0000
,
1000
0100
0001
0100
1000
0100
0110
0000
,
1000
0100
0110
0000
0110
0000
0001
0000
,
1001
0100
0001
0001
0000
0010
0100
0000
,
1100
0010
1000
1000
0000
0001
0100
0000
,
0101
0010
1000
1000
0000
0001
0100
0000
,
1001
0000
0000
1000
0001
0000
0000
1000
0001
0000
0000
1000
0001
0000
0100
0000
,
0110
0001
1000
1000
0000
0100
0010
0000
,
0011
0001
0100
0100
0000
1000
0010
0000
,
0110
0001
0010
0010
0000
0001
1000
0000
,
2100
0000
0002
0000
3003
1000
0001
0100
,
0010
1000
0100
0001
0010
0001
0100
1000
,
0100
0001
0100
1000
0010
1000
0010
0001
,
0100
0001
0100
0010
1000
0001
1000
0010
,
1000
0010
0001
1000
0100
0010
0001
0100
,
0010
0001
0100
0010
1000
0001
1000
0100
,
0001
1000
0010
0001
0010
0100
1000
0100
,
0001
0100
0010
1000
0001
1000
0010
0100
,
0001
0100
1000
1000
0000
0010
0100
0010
,
1000
0000
0000
0001
0000
0000
0000
0000
0000
0020
0002
0000
0033
0000
0000
0100
0000
0000
1000
0000
0000
0001
0000
0000
,
0010
0000
0000
0000
0000
0000
0000
0000
0000
0001
0000
0000
0000
0000
0000
0000
0000
0000
0200
0000
0002
0000
0000
0000
0303
0000
0000
0000
0000
0000
1000
0000
0000
0000
0000
0000
1000
0000
0000
0000
0000
0000
0000
0000
0000
0000
0000
0000
,
0010
0000
0000
1000
0000
0000
0000
0000
0000
0002
2000
0000
3003
0000
0000
0010
0000
0000
1000
0000
0000
0100
0000
0000
,
1000
0000
0100
0000
0001
0000
0100
0000
2000
0000
0010
0000
3010
0000
0100
0001
,
0100
0000
0000
0010
0000
0000
0000
0000
0000
2000
0020
0000
3030
0000
0000
1000
0000
0000
0100
0000
0000
0001
0000
0000
,
0010
0000
0000
0000
0000
0000
0000
0000
0000
0100
0000
0000
0000
0000
0000
0000
0000
0000
2000
0000
0002
0000
0000
0000
3003
0000
0000
0000
0000
0000
0100
0000
0000
0000
0000
0000
0100
0000
0000
0000
0000
0000
0000
0000
0000
0000
0000
0000
,
0001
0000
0000
0010
0000
0000
0000
0000
0000
0200
2000
0000
3300
0000
0000
0010
0000
0000
1000
0000
0000
0001
0000
0000
,
0011
1100
0011
1100
,
0020
0000
1030
0010
0001
0010
1000
0010
,
0100
1010
0000
0100
0011
0001
1000
0000
,
0200
0000
0301
0100
1000
0100
0001
0100
,
1000
0011
0000
1000
0101
0010
0100
0000
,
0002
0000
0013
1000
0100
0001
0010
0100
,
0010
1100
0000
0010
0101
1000
0001
0000
,
2000
0000
3010
0100
0010
1000
0001
0100
,
0001
0000
1010
0000
0000
0000
0001
0000
1100
0000
0000
0000
0010
0100
0010
0100
,
0020
1000
0030
0010
0100
0000
1001
0000
,
0002
0010
0003
0001
1000
0000
1000
0100
,
2000
0001
3000
1000
0010
0000
0110
0000
,
0001
0100
0001
0100
0001
0100
0001
0100
,
0002
0010
0003
0001
1000
0000
1010
0000
,
0200
1000
0300
0100
0010
0000
0001
0100
,
0002
0010
0003
0001
1000
0000
0101
0000
,
1000
0010
1000
0010
1000
0010
1000
0010
,
0100
0001
0010
0100
1000
0001
0000
0000
;
