#VERSION:0.83;
#TITLE:pretty trying;
#SUBTITLE:;
#ARTIST:pw.a;
#TITLETRANSLIT:;
#SUBTITLETRANSLIT:;
#ARTISTTRANSLIT:;
#GENRE:;
#ORIGIN:;
#CREDIT:;
#BANNER:pretty trying-bn.png;
#BACKGROUND:pretty trying-bg.png;
#PREVIEWVID:;
#JACKET:pretty trying-jacket.png;
#CDIMAGE:;
#DISCIMAGE:;
#LYRICSPATH:;
#CDTITLE:;
#MUSIC:pretty trying.ogg;
#OFFSET:0.000000;
#SAMPLESTART:44.651001;
#SAMPLELENGTH:20.000000;
#SELECTABLE:YES;
#DISPLAYBPM:172.000000;
#BPMS:0.000=172.000;
#STOPS:;
#DELAYS:;
#WARPS:;
#TIMESIGNATURES:0.000=4=4;
#TICKCOUNTS:0.000=4;
#COMBOS:0.000=1;
#SPEEDS:0.000=1.000=0.000=0;
#SCROLLS:0.000=1.000;
#FAKES:;
#LABELS:0.000=Song Start;
#BGCHANGES:;
#KEYSOUNDS:;
#ATTACKS:
;

//---------------dance-single - ----------------
#NOTEDATA:;
#CHARTNAME:;
#STEPSTYPE:dance-single;
#DESCRIPTION:;
#CHARTSTYLE:;
#DIFFICULTY:Hard;
#METER:13;
#RADARVALUES:0.667276,0.672949,0.309106,0.240416,0.081570,544.000000,508.000000,36.000000,28.000000,0.000000,0.000000,0.000000,0.000000,0.000000,0.667276,0.672949,0.309106,0.240416,0.081570,544.000000,508.000000,36.000000,28.000000,0.000000,0.000000,0.000000,0.000000,0.000000;
#CREDIT:;
#DISPLAYBPM:172.000000;
#NOTES:
0000
0000
0000
0000
,
0000
0000
0000
0000
,
0000
0000
0000
0000
,
0000
0000
0000
0000
,
0001
0000
0100
0000
0010
0000
1000
0100
1000
0000
0001
0000
0000
0000
0200
0000
,
0000
0310
1000
0002
0000
0010
0013
0000
,
0001
0000
1000
0000
0010
0000
0100
0001
0100
0000
0010
0000
0000
0000
2000
0000
,
0000
0000
3100
0000
1000
0000
0002
0000
0000
0000
0003
0100
0010
0000
1000
0000
,
0001
0000
0011
0000
1010
0100
0010
1000
,
0001
0000
1000
0010
1000
0100
0001
0000
,
0010
0001
0100
0001
1000
0010
0100
0002
,
0000
1000
1003
0001
0200
0010
0310
0000
,
0100
0000
0101
0000
1100
0001
1000
0010
,
0100
0000
0001
1000
0001
0010
0100
2000
,
0000
0001
3001
0000
1000
0001
0020
0000
,
0031
0000
1000
0000
0000
0000
0110
0000
0000
0000
1001
0000
0010
0100
0010
0100
,
0010
0000
1010
0000
0101
1000
0001
0010
,
0100
0000
1000
0001
1000
0100
0010
0000
,
0001
0100
0001
0010
0100
1000
0001
0100
,
0000
0010
1000
0001
1000
0100
0010
0000
,
0001
1000
0020
0000
2030
0100
3100
0010
,
0001
0000
0011
0000
1100
0001
0100
0010
,
1000
0100
1000
0010
0100
0001
1000
0010
,
1000
0100
1000
0010
0100
0001
0010
0000
,
0011
0001
0000
0101
0100
0000
1010
1000
,
0000
1100
0100
0000
1001
0000
0110
0000
,
0101
0001
0000
0011
0010
0000
1100
1000
,
0000
0000
1010
0000
0000
0000
0001
1000
0001
0000
0100
0000
0010
0000
0000
0000
,
0110
0010
0000
1010
1000
0000
1001
0001
,
0000
0000
0101
0000
0100
0000
0000
0000
0010
1000
0010
1000
0010
0000
0000
0000
,
0200
0000
0301
0010
0001
0100
0001
1000
,
0020
0000
0000
2030
0000
0000
3002
0000
,
1003
0010
0001
0010
1000
0010
0001
0010
,
1000
0010
0100
0000
0001
0000
0010
0001
,
0000
0100
1000
0000
0010
1000
0000
0100
,
0001
0000
1000
0001
0000
0100
0010
0000
,
1000
0100
0001
0100
1000
0100
0001
0100
,
1000
0100
0010
0000
0001
0000
0100
0010
,
0000
0000
1000
0000
0001
0000
0000
0000
1000
0100
1000
0100
1000
0000
0001
0000
,
0100
0010
0100
0002
0000
1000
2003
0000
,
3001
0000
1001
0000
1000
0010
1000
0010
,
0100
0001
0010
0001
0010
0100
1000
0000
,
0001
0000
0110
0000
1000
0100
1000
0100
,
0010
0001
1000
0001
1000
0010
0100
0000
,
0001
0010
1000
0010
0001
0010
1000
0010
,
0001
0010
0100
0000
1000
0000
0001
0100
,
0000
1000
0010
0000
1000
0100
0000
0001
,
0010
0000
0100
1100
0000
0101
0000
0000
,
1000
0010
1000
0001
0010
0001
1000
0100
,
0001
0100
1000
0000
1010
0000
0101
0000
,
0001
0100
0001
1000
0100
1000
0001
0010
,
1000
0010
0001
0000
0011
0000
1100
0000
,
1000
0000
0002
0000
0000
0000
0103
0000
0010
0000
1000
0001
1000
0000
0000
0000
,
0100
0000
0010
0000
0001
1000
0001
0000
0200
0000
0000
0000
0310
0000
0000
0000
,
0100
0001
0010
0001
1000
0100
1000
0010
,
0100
0010
1000
0001
0010
0100
1000
0001
,
0100
1000
0100
0001
0100
1000
0100
0001
,
0100
0010
1000
0000
0001
0000
1000
0010
,
0000
0001
0100
0000
0001
0010
0000
1000
,
0100
0000
1000
0001
0000
0100
0010
0000
,
1000
0100
0001
0100
1000
0010
0001
0010
,
1000
0100
0010
0000
0001
0000
1000
0001
,
0000
0000
0010
0000
0100
0000
0000
0000
1000
0001
1000
0001
1000
0000
0100
0000
,
0010
0001
0100
0020
0000
1000
2030
0000
,
3100
0000
1001
0000
0010
0100
0010
0100
,
0001
1000
0100
0010
0100
0010
0001
0000
,
1000
0000
0110
0000
0100
0001
0100
0001
,
0010
0100
1000
0010
1000
0001
0100
0000
,
0001
0010
1000
0010
0001
0100
1000
0100
,
0001
1000
0100
0000
0010
0000
0001
0100
,
0000
1000
0010
0000
0001
0010
0000
1000
,
0100
0000
0010
0011
0000
1010
0000
0000
,
0001
0000
1000
0000
0010
0000
1000
0100
1000
0000
0001
0000
0100
0000
0010
0000
,
1000
0100
0010
0002
0000
0100
0103
0000
,
0010
0000
1000
0000
0100
0000
1000
0001
1000
0000
0020
0000
0000
0000
0230
0000
,
0000
0000
0301
0000
0010
0000
2000
0000
0100
0000
0000
0000
3100
0000
1000
0001
,
1000
0010
0100
0010
1000
0100
0010
0100
,
1000
0001
0100
0010
0000
1000
0001
0020
,
0001
0000
0000
0000
0100
0000
0000
0000
1000
0000
0000
0000
0031
1000
0001
1000
,
0002
0000
0100
0103
0000
1000
0001
1000
,
0100
0010
0001
1000
0000
0001
0100
0010
,
0100
0010
1000
0001
0000
1000
2000
0002
,
0000
0000
3003
0000
;

//---------------dance-single - ----------------
#NOTEDATA:;
#CHARTNAME:;
#STEPSTYPE:dance-single;
#DESCRIPTION:;
#CHARTSTYLE:;
#DIFFICULTY:Medium;
#METER:10;
#RADARVALUES:0.523763,0.531276,0.377796,0.429314,0.000000,427.000000,383.000000,44.000000,50.000000,0.000000,0.000000,0.000000,0.000000,0.000000,0.523763,0.531276,0.377796,0.429314,0.000000,427.000000,383.000000,44.000000,50.000000,0.000000,0.000000,0.000000,0.000000,0.000000;
#CREDIT:;
#DISPLAYBPM:172.000000;
#NOTES:
0000
0000
0000
0000
,
0000
0000
0000
0000
,
0000
0000
0000
0000
,
0000
0000
0000
0000
,
0001
0100
0010
0000
1000
0001
0000
1000
,
0000
0100
0010
0002
0000
0000
0003
0000
,
0100
0001
1000
0000
0010
0100
0000
0010
,
0000
1000
0001
0200
0000
0000
0310
0000
,
0100
0101
2200
3300
,
0001
0000
1000
0001
0100
0010
1000
0000
,
0000
0100
0010
0001
1000
0000
0001
0100
,
0000
0010
1000
0010
0200
0000
0302
0000
,
1003
1010
0022
0033
,
0100
0000
1000
0001
1000
0010
0000
0200
,
0000
0301
2000
0000
0000
0000
3010
1000
,
0001
0100
0000
0110
0000
1001
0000
0000
,
0000
0001
2000
0002
0000
0000
3003
0000
,
0010
0000
0001
1000
0001
0100
0010
0000
,
0000
1000
0100
1000
0001
0000
0100
0010
,
0000
1000
0001
1000
0200
0000
0320
0000
,
0030
0001
2000
0000
3002
0000
0103
0010
,
0100
0000
1010
0000
0101
0000
1000
0100
,
0000
0010
0002
0000
0103
0010
1000
0000
,
0001
1000
0001
0020
0000
0000
0130
0000
,
1000
0100
0000
0100
0001
0000
1000
0010
,
0000
0010
0001
0000
0011
0000
1100
0000
,
0001
0010
0000
0001
0100
0000
0001
1000
,
0000
1001
0000
0100
0010
0000
0110
0000
,
1000
0010
0000
0010
0001
0000
1000
0100
,
0000
0100
0001
0000
0011
0000
0101
0000
,
2000
0000
0000
3001
0000
0100
0010
0100
,
0020
0000
0000
2030
0000
0000
3002
0000
,
1003
0010
0200
0000
0301
0010
0200
0000
,
1300
0001
0200
0000
0300
0000
0010
1000
,
0000
0010
1000
0000
0001
0100
0000
0001
,
0100
0000
0001
2000
0000
3002
0000
0000
,
1003
0100
0020
0000
0031
0100
0020
0000
,
1030
0001
0020
0000
0030
0000
0100
1000
,
0000
0100
1000
0000
0001
0010
0000
0001
,
0010
0000
0001
1000
0000
0010
0100
0000
,
0110
0000
1001
0000
1000
0001
1000
0001
,
1000
0000
0010
0100
0000
0001
0000
0000
,
0011
0000
1100
0000
0001
1000
0001
1000
,
0001
0000
0100
0010
0000
0100
0000
0000
,
0101
1100
0101
1100
,
0010
1000
0002
0000
0003
0000
0100
0010
,
0000
0100
0010
0000
1000
0001
0000
1000
,
0001
0000
0000
0011
0000
1010
0000
0000
,
0100
0001
0000
0100
0010
0000
1000
0001
,
0000
1000
0100
0000
1100
0000
0011
0000
,
0100
0010
0000
1000
0010
0000
0100
0001
,
0000
1000
0100
0000
0110
0000
1001
0000
,
0000
0200
0000
0320
0000
0130
0001
0000
,
1000
0001
1000
0010
0200
0000
0300
0000
,
0001
0010
0001
2000
0000
3020
0000
0130
,
0001
1000
0001
1000
0001
1000
0001
0000
,
0010
1000
0200
0000
0310
0001
0200
0000
,
0301
1000
0200
0000
0300
0000
1000
0001
,
0000
0100
0010
0000
1000
0100
0000
0010
,
0001
0000
0100
0010
0000
1000
0000
0000
,
0100
1000
0020
0000
0130
0001
0020
0000
,
0031
1000
0020
0000
0030
0000
0100
0001
,
0000
0100
0001
0000
0010
0100
0000
0100
,
1000
0000
0001
2000
0000
3010
0100
0000
,
0101
0000
1010
0000
0100
0001
0100
0001
,
0100
0000
0010
1000
0000
1000
0000
0000
,
1100
0000
0011
0000
0100
0010
0100
0010
,
0100
0000
0001
0010
0000
0100
1000
0000
,
1010
0011
1010
0011
,
0100
0010
2000
0000
3000
0000
0001
0010
,
0000
0100
1000
0000
0010
0100
0000
0001
,
1000
0000
0000
0110
0000
1001
0000
0000
,
0100
0001
0010
0000
0001
1000
0100
0000
,
1000
0010
0100
0002
0000
0000
0003
0000
,
0010
0001
0100
0000
0010
1000
0000
0200
,
0000
1300
0001
2000
0000
0000
3010
0000
,
0101
1010
1100
0011
,
1000
0001
0010
0100
0000
1000
0001
2000
,
0000
0000
0010
0000
0001
0000
3100
0010
,
0100
0000
0000
1001
0000
0000
1000
0001
,
0100
0000
0010
1000
0000
1000
0001
0000
,
0011
0000
0001
1000
0000
0010
2000
0002
,
0000
0000
3003
0000
;

//---------------dance-single - ----------------
#NOTEDATA:;
#CHARTNAME:;
#STEPSTYPE:dance-single;
#DESCRIPTION:;
#CHARTSTYLE:;
#DIFFICULTY:Easy;
#METER:7;
#RADARVALUES:0.350810,0.354184,0.120208,0.446486,0.000000,286.000000,272.000000,14.000000,52.000000,0.000000,0.000000,0.000000,0.000000,0.000000,0.350810,0.354184,0.120208,0.446486,0.000000,286.000000,272.000000,14.000000,52.000000,0.000000,0.000000,0.000000,0.000000,0.000000;
#CREDIT:;
#DISPLAYBPM:172.000000;
#NOTES:
0000
0000
0000
0000
,
0000
0000
0000
0000
,
0000
0000
0000
0000
,
0000
0000
0000
0000
,
0001
0010
1000
0001
,
0100
0010
1000
0000
,
0100
0010
0001
0100
,
0010
1000
0001
0000
,
0000
2000
0002
3003
,
0010
0001
0100
1000
,
0000
0010
0100
0010
,
1000
0100
1000
0001
,
0000
0200
0020
0330
,
0100
0001
1000
0000
,
0010
0010
1000
0001
,
0100
0000
0000
0110
0000
1001
0000
0000
,
0000
0002
2000
3003
,
0100
0001
0010
1000
,
0000
0100
0010
0100
,
1000
0010
1000
0001
,
0000
0020
0200
0330
,
1000
0010
1000
0100
,
0001
0010
0001
0100
,
1000
1000
0001
0001
,
0010
0000
0000
0001
0000
0000
0100
0000
,
0000
1000
0000
0000
1010
0000
1010
0000
,
1000
0000
0000
0001
0000
0000
0100
0000
,
0000
0010
0000
0000
0100
0000
0001
0000
,
1000
0000
0000
0010
0000
0000
0001
0000
,
0000
0100
0000
0000
0101
0000
0101
0000
,
0020
0000
0000
2030
0000
0000
3002
0000
,
0203
0000
0000
0310
,
2000
3002
2003
3002
,
0013
0001
0100
0010
,
1000
0100
1000
0010
,
1000
0001
0100
0010
,
2000
3200
2300
3200
,
0310
0001
0100
0010
,
1000
0001
1000
0100
,
0010
0001
0100
0010
,
0000
1001
0100
0001
,
0010
0001
0100
1000
,
0000
0110
1000
0010
,
1000
0100
0010
0001
,
2000
3020
2030
3020
,
0130
0001
0010
0100
,
1000
0010
1000
0001
,
0100
0000
0000
0110
0000
1001
0000
0000
,
0020
0000
0000
2030
0000
0000
3200
0000
,
0000
0320
0000
0000
0032
0000
2003
0000
,
3002
0000
0000
0203
0000
0000
0320
0000
,
0000
2030
0000
0000
3200
0000
0320
0000
,
0030
0002
0000
0000
0000
0000
0000
0003
,
1000
0001
0200
0300
,
0010
1000
0010
0100
,
0001
0010
1000
0001
,
0200
0320
0230
0320
,
1030
0001
1000
0100
,
0010
0001
1000
0001
,
0100
0010
1000
0100
,
0020
0032
0023
0032
,
1003
0001
0100
0010
,
0100
0001
0010
0100
,
1000
0010
1000
0001
,
0000
1001
0010
1000
,
0010
0100
0001
0010
,
0000
0110
0001
0100
,
1000
0010
1000
0010
,
0200
0302
0203
0302
,
0013
0100
1000
0010
,
1000
0001
1000
0100
,
0010
0000
0000
0110
0000
1001
0000
0000
,
0001
0100
1000
0010
,
1000
0001
1000
0000
,
0100
0010
0001
0100
,
0001
1000
0100
0000
,
0010
0001
0010
0100
,
1000
0010
0100
0001
,
0010
0001
0100
1000
,
0001
0000
0000
1000
0000
0000
0010
0000
,
1000
0000
0000
0100
0000
0000
0010
0000
,
0001
0000
0000
0100
0000
0010
2000
0002
,
0000
0000
3003
0000
;

//---------------dance-single - ----------------
#NOTEDATA:;
#CHARTNAME:;
#STEPSTYPE:dance-single;
#DESCRIPTION:;
#CHARTSTYLE:;
#DIFFICULTY:Beginner;
#METER:4;
#RADARVALUES:0.214657,0.281630,0.085863,0.068690,0.000000,175.000000,165.000000,10.000000,8.000000,0.000000,0.000000,0.000000,0.000000,0.000000,0.214657,0.281630,0.085863,0.068690,0.000000,175.000000,165.000000,10.000000,8.000000,0.000000,0.000000,0.000000,0.000000,0.000000;
#CREDIT:;
#DISPLAYBPM:172.000000;
#NOTES:
// measure 0
0000
0000
0000
0000
,  // measure 1
0000
0000
0000
0000
,  // measure 2
0000
0000
0000
0000
,  // measure 3
0000
0000
0000
0000
,  // measure 4
0001
0001
0001
0000
,  // measure 5
1000
0000
0010
0000
,  // measure 6
0100
0100
0100
0000
,  // measure 7
0001
0000
0010
0000
,  // measure 8
0000
0001
0001
0000
,  // measure 9
1000
0000
0100
0000
,  // measure 10
0000
1000
1000
0000
,  // measure 11
0010
0000
0100
0000
,  // measure 12
0000
0010
0010
0000
,  // measure 13
0100
0000
0001
0000
,  // measure 14
2000
0000
3000
0000
,  // measure 15
1001
0000
0110
0000
,  // measure 16
0000
0100
0100
0000
,  // measure 17
0001
0000
1000
0000
,  // measure 18
0000
0001
0001
0000
,  // measure 19
0010
0000
0100
0000
,  // measure 20
0000
1000
1000
0000
,  // measure 21
0010
0000
1000
0000
,  // measure 22
0002
0000
0003
0000
,  // measure 23
0100
0100
0100
0000
,  // measure 24
0001
0000
0000
1000
,  // measure 25
0000
0000
1001
0000
,  // measure 26
0010
0000
0100
0000
,  // measure 27
0001
0000
0000
0000
,  // measure 28
0100
0000
0000
0010
,  // measure 29
0000
0000
0110
0000
,  // measure 30
0010
0000
1000
0000
,  // measure 31
0100
0000
0000
0000
,  // measure 32
1000
1000
1000
1000
,  // measure 33
1000
0000
0000
0000
,  // measure 34
0001
0001
0001
0000
,  // measure 35
1000
0000
0010
0000
,  // measure 36
0100
0100
0100
0100
,  // measure 37
0100
0000
0000
0000
,  // measure 38
0010
0010
0010
0000
,  // measure 39
0100
0000
0001
0000
,  // measure 40
0000
1000
1000
0000
,  // measure 41
0001
0000
0100
0000
,  // measure 42
0000
0001
0001
0000
,  // measure 43
0010
0000
0100
0000
,  // measure 44
0010
0010
0010
0010
,  // measure 45
0010
0000
0000
0000
,  // measure 46
0001
0001
0001
0000
,  // measure 47
1001
0000
0110
0000
,  // measure 48
1000
0000
0001
0000
,  // measure 49
1000
0000
0010
0000
,  // measure 50
0100
0000
0001
0000
,  // measure 51
0010
0000
0100
0000
,  // measure 52
2000
0000
3000
0000
,  // measure 53
0001
0000
0100
0000
,  // measure 54
0010
0000
0010
0000
,  // measure 55
1000
0000
0001
0000
,  // measure 56
1000
1000
1000
1000
,  // measure 57
1000
0000
0000
0000
,  // measure 58
0100
0100
0100
0000
,  // measure 59
1000
0000
0010
0000
,  // measure 60
0100
0100
0100
0100
,  // measure 61
0100
0000
0000
0000
,  // measure 62
0010
0010
0010
0000
,  // measure 63
1000
0000
0001
0000
,  // measure 64
0000
0010
0010
0000
,  // measure 65
0001
0000
0100
0000
,  // measure 66
0000
0010
0010
0000
,  // measure 67
1000
0000
1000
0000
,  // measure 68
0001
0001
0001
0001
,  // measure 69
0001
0000
0000
0000
,  // measure 70
1000
1000
1000
0000
,  // measure 71
1001
0000
0110
0000
,  // measure 72
0001
0001
0001
0000
,  // measure 73
0100
0000
0010
0000
,  // measure 74
1000
1000
1000
0000
,  // measure 75
0001
0000
0100
0000
,  // measure 76
0010
0010
0010
0010
,  // measure 77
0010
0000
0000
0000
,  // measure 78
0200
0000
0300
0000
,  // measure 79
2002
0000
3003
0000
,  // measure 80
0220
0000
0330
0000
,  // measure 81
0010
0000
1000
0000
,  // measure 82
0001
0000
0000
0000
;
