#TITLE:polygon;
#SUBTITLE:;
#ARTIST:Sota Fujimori;
#TITLETRANSLIT:;
#SUBTITLETRANSLIT:;
#ARTISTTRANSLIT:;
#GENRE:;
#CREDIT:;
#BANNER:polygon-bn.png;
#BACKGROUND:polygon-bg.png;
#LYRICSPATH:;
#CDTITLE:;
#MUSIC:polygon.ogg;
#OFFSET:0.000000;
#SAMPLESTART:2.759000;
#SAMPLELENGTH:20.000000;
#SELECTABLE:YES;
#DISPLAYBPM:174.000000;
#BPMS:0.000000=174.000000
;
#STOPS:
;
#BGCHANGES:;
#KEYSOUNDS:;
#ATTACKS:;

//---------------dance-single - ----------------
#NOTES:
     dance-single:
     :
     Challenge:
     13:
     0.726583,0.751852,0.454426,0.192257,0.467535,582.000000,530.000000,52.000000,22.000000,0.000000,0.000000,0.726583,0.751852,0.454426,0.192257,0.467535,582.000000,530.000000,52.000000,22.000000,0.000000,0.000000:
0000
0000
0000
0000
,
0000
0000
0000
0000
,
1100
0000
0000
0011
0000
0000
0101
0000
0000
1010
0000
0000
0100
0000
0010
0000
,
1000
0000
0000
1001
0000
0000
0110
0000
0000
0001
0000
1000
0100
0000
0000
0000
,
0011
0000
0000
1100
0000
0000
0101
0000
0000
1010
0000
0000
0001
0000
0010
0000
,
0100
0000
0000
1001
0000
0000
0110
0000
0000
0000
1000
0000
0010
0000
0001
0000
,
0101
0000
0000
0110
0000
0000
1010
0000
0000
1100
0000
0000
0001
0000
1000
0000
,
0010
0000
0000
1001
0000
0000
0011
0000
0000
0000
0100
0000
1001
0000
0000
0000
,
1010
0000
0000
1100
0000
0000
0011
0000
0000
0100
0000
0100
0010
0000
1000
0000
,
1100
0000
0000
0110
0000
0000
0011
0000
0000
0000
1000
0000
0100
0000
0001
0000
,
0020
0000
0230
0000
1300
0010
0001
0010
,
1000
0010
0001
0100
0000
0000
0001
0010
,
0200
0000
2300
0000
3001
0100
1000
0100
,
0001
0000
0100
0000
1000
0000
0010
0000
0000
0000
0000
0000
1000
0001
1000
0000
,
0200
0000
0320
0000
0031
0010
1000
0010
,
0001
0010
1000
0100
0000
0010
0001
0000
,
2000
0000
3002
0000
1003
0100
0001
0100
,
1000
0100
0001
0010
0000
0100
0010
0100
,
0110
0000
1000
0010
0001
0000
1000
0100
,
0001
0000
0000
0010
0000
0000
0001
0000
0100
0000
0010
0000
1000
0000
0001
0000
,
0010
0000
0001
0100
1000
0000
0001
0010
,
1000
0000
0000
0100
0000
0000
0010
0000
0001
0000
0000
1000
0001
0000
0100
0000
,
0010
0000
1000
0001
0010
0000
0001
0100
,
1000
0000
0010
0100
0010
0001
0100
0000
,
0001
0000
0000
0010
0000
0000
0100
0000
1000
0000
0010
0000
1000
0000
0001
0000
,
0101
0000
0000
1100
0000
0000
0101
0000
0000
0000
0010
0000
1000
0000
0001
0000
,
1001
0000
0000
0000
0010
0000
1000
0000
0100
0000
0000
0010
0000
0000
0001
0000
,
0000
1000
0000
0000
0010
0000
0000
1000
0000
0000
0100
0000
0000
0001
0000
0000
,
0010
0000
0000
0001
1000
0000
0010
0000
1000
0000
0100
0000
0000
0000
0010
0000
,
0000
0001
0000
0000
0100
0000
0010
0000
0000
1000
0001
0000
1000
0000
0100
0000
,
0010
0000
0000
0001
0100
0000
0010
0000
1000
0000
0001
0000
0100
0000
0010
0000
,
0000
1000
0000
0001
1000
0000
0100
0000
0000
0000
0010
0000
0001
0000
0100
0000
,
1000
0000
0000
0001
1000
0000
0010
0000
0100
0000
0001
0000
0010
0000
0100
0000
,
2000
0000
0000
3002
0000
0000
0203
0000
0000
0000
0310
0000
0110
0000
0000
0000
,
1010
0000
0001
0010
1000
0100
0000
1000
,
0001
0000
0000
0010
0001
0000
0000
1000
0010
0000
1000
0000
0100
0000
0010
0000
,
0001
0000
0000
0100
0010
0000
1000
0000
0000
0100
0010
0000
0000
0000
0001
0000
,
1000
0000
0000
0000
0001
0000
0000
0100
0000
0001
0010
0000
0100
1000
0100
1000
,
0100
0000
0000
0000
1000
0000
0000
0001
0000
0000
0010
0000
0001
0000
0100
0000
,
0010
0000
0000
0000
1000
0000
0000
0100
0000
1000
0001
0000
0100
0000
0010
0000
,
1000
0000
0000
0000
0001
0000
0000
1000
0100
0000
0000
0000
0001
0000
0010
0000
,
1100
0000
0000
0110
0000
0000
0011
0000
0000
0000
1000
0001
1000
0000
0000
0000
,
0001
0100
0001
0100
0000
0000
0000
0010
0000
0000
1000
0000
0000
0000
0000
0000
,
0100
1000
0100
1000
0000
0000
0000
0001
0000
0000
0100
0000
0000
0010
0000
0000
,
0100
0001
0010
0001
0100
0010
1000
0000
,
0001
0010
0001
0100
1000
0010
0001
0000
,
1000
0100
1000
0100
0000
0000
0000
0010
0000
0000
0001
0000
0000
0000
0000
0000
,
0100
0001
0100
0001
0000
0000
0000
0010
0000
0000
0100
0000
0000
1000
0000
0000
,
1001
0000
0000
0101
0000
0000
0100
0000
0110
0000
0000
1010
0000
0000
0001
0000
,
1000
0100
1000
0000
0001
0000
0100
0000
0010
0000
0010
0000
1001
0000
0000
0000
,
0100
0001
0010
0001
2000
0000
0000
3001
,
0000
1000
0010
1000
0002
0000
0000
0103
,
0000
0010
1000
0010
1000
0010
1000
0010
,
1000
0100
1000
0100
0010
0001
0010
0001
,
0100
0010
1000
0001
0020
0000
0000
0130
,
0000
1000
0010
1000
0002
0000
0000
0103
,
0000
0010
1000
0100
1000
0010
1000
0001
,
0100
0001
0010
0001
0010
0001
0100
0000
,
0010
1000
0000
0010
1000
0000
0100
0000
0002
0000
0000
0000
0013
0000
0001
0000
,
0100
0000
0000
0010
0000
0010
1000
0000
0100
0000
0001
0000
0100
0000
1000
0000
,
0001
0010
0000
0001
0010
0000
0100
0000
2000
0000
0000
0000
3001
0000
0000
0000
,
0100
0000
0000
0001
0000
1000
0001
0000
0020
0000
0000
0000
0130
0000
0000
0000
,
1000
0001
0000
1000
0001
0000
0010
0000
0200
0000
0000
0000
1300
0000
0001
0000
,
0100
0000
0000
0010
0000
0010
1000
0000
0100
0000
0001
0000
0100
0000
1000
0000
,
0001
0100
0000
0001
0100
0000
0010
0000
2000
0000
0000
0000
3001
0000
0000
0000
,
0010
0000
0000
0001
0000
1000
0001
0000
0100
0000
1000
0000
0100
0000
0001
0000
,
0011
0000
0000
0000
1100
0000
0000
0000
0101
0000
0000
0000
1000
0001
1000
0000
,
0100
0000
0000
0010
0000
0010
0001
0000
1000
0000
0100
0000
1000
0000
0001
0000
,
1001
0000
0000
0000
1010
0000
0000
0000
0011
0000
0000
0000
0100
1000
0100
0000
,
0010
0000
0000
0001
1000
0000
0010
0000
0100
0000
0001
0000
1000
0000
0000
0000
,
1100
0000
0000
0000
0110
0000
0000
0000
0011
0000
0000
0000
0100
0001
0100
0000
,
0010
0000
0000
1000
0000
0100
0010
0000
0001
0000
0100
0000
0001
0000
1000
0000
,
1010
0000
0000
0000
1100
0000
0000
0000
1001
0000
0000
0000
0100
0010
0100
0000
,
0001
0000
0000
0010
0001
0000
1000
0000
0020
0000
0000
0000
0000
0130
0010
0000
,
1000
0000
0000
0010
0000
0000
1000
0000
0100
0000
0010
0000
0000
0001
0000
0000
,
1000
0000
0000
0001
0100
0000
0010
0000
0000
0000
1000
0000
0000
0001
0000
0000
,
0010
0000
0000
0100
0000
1000
0001
0000
0000
0000
0100
0000
0000
0010
0000
0000
,
0100
0000
0001
0000
0100
0000
0010
0000
0000
0000
1000
0000
0000
0001
0000
0000
,
0010
0001
0100
0010
0000
1000
0000
0100
,
1000
0010
1000
0010
1000
0000
0001
0000
0000
0000
0100
0000
0000
0010
0000
0000
,
0100
0000
0001
0000
0010
0000
0001
0000
1000
0000
0100
0000
0010
0001
0000
0001
,
0100
0000
0000
0010
0000
1000
0001
0000
0020
0000
0000
0000
0130
0000
0000
0100
;

//---------------dance-single - ----------------
#NOTES:
     dance-single:
     :
     Hard:
     11:
     0.550555,0.572839,0.314603,0.244691,0.183518,441.000000,405.000000,36.000000,28.000000,0.000000,0.000000,0.550555,0.572839,0.314603,0.244691,0.183518,441.000000,405.000000,36.000000,28.000000,0.000000,0.000000:
0000
0000
0000
0000
,
0000
0000
0000
0000
,
1000
0000
0000
0100
0000
0000
1000
0000
0000
0001
0000
0000
0100
0000
0010
0000
,
1000
0000
0000
1000
0000
0000
1000
0000
0000
0000
0000
0000
0000
0000
0000
0000
,
0001
0000
0000
1000
0000
0000
0010
0000
0000
1000
0000
0000
0100
0000
0010
0000
,
0001
0000
0000
0001
0000
0000
0001
0000
0000
0000
0100
0000
0010
0000
0100
0000
,
0010
0000
0000
1000
0000
0000
0100
0000
0000
0010
0000
0000
0001
0000
1000
0000
,
0010
0000
0000
0010
0000
0000
0010
0000
0000
0000
0000
0000
1001
0000
0000
0000
,
0100
0000
0000
0001
0000
0000
1000
0000
0000
0100
0000
0000
0010
0000
0001
0000
,
0100
0000
0000
0100
0000
0000
0100
0000
0000
0000
0001
0000
1000
0000
0001
0000
,
0020
0000
0230
0000
1300
0001
1000
0001
,
0100
0010
1000
0001
0000
0000
0000
0000
,
0020
0000
0032
0000
1003
0010
1000
0010
,
0100
0001
1000
0010
0000
0000
0000
0000
,
2000
0000
3200
0000
0310
0001
0010
0001
,
1000
0100
0010
0001
0000
0000
0000
0000
,
0200
0000
0320
0000
1030
0010
1000
0010
,
0100
0001
1000
0010
0000
0100
0001
0000
,
1001
0000
0010
1000
0100
0000
0010
0001
,
0100
0000
0010
0000
1000
0000
0001
1000
,
0100
0000
0010
0000
0001
0000
0100
1000
,
0001
0000
1000
0000
0001
0000
1000
0010
,
0100
0000
0001
0010
0001
0000
1000
0010
,
1000
0000
0100
0010
0001
0000
1000
0000
,
0001
0000
0010
0000
0001
0100
0010
1000
,
0001
0000
0000
0001
0000
0000
0001
0000
0000
0000
0100
0000
0010
0000
0000
0000
,
1010
0000
0000
0000
0101
0000
0000
0000
1000
0000
0000
0001
0000
0000
0010
0000
,
0000
0100
0000
0000
1000
0000
0000
0001
0000
0000
0000
0000
0000
0000
0100
0000
,
0010
0000
0110
0000
0001
1000
0000
0010
,
0000
0010
0000
0000
1000
0000
0100
0000
0000
0000
0010
0000
0001
0000
0010
0000
,
0100
0000
1100
0000
0001
1000
0000
0010
,
0000
0010
0000
0000
0100
0000
0001
0000
0000
0000
0000
0000
0000
0000
1000
0000
,
0001
0000
0011
0000
1000
0100
0000
0010
,
0002
0000
0000
2003
0000
0000
3200
0000
0000
0000
0300
0000
0110
0000
0000
0000
,
0001
0000
0010
0000
1000
0001
0000
0100
,
0010
0000
1000
0000
0100
0001
0000
1000
,
0100
0000
0000
0000
0010
0000
0000
0010
0000
0000
0001
0000
0000
0000
1000
0000
,
0001
0000
0000
0000
0100
0000
0000
0010
0000
0000
0010
0000
0000
0000
1000
0000
,
0001
0000
0000
0000
1000
0000
0000
0100
0000
0000
0010
0000
0000
0000
0001
0000
,
0100
0000
0000
0000
0001
0000
0000
0010
0000
0000
1000
0000
0000
0000
0100
0000
,
0010
0000
0001
1000
0001
0000
0100
0010
,
1000
0000
0000
0001
0000
0000
1000
0000
0000
0000
0010
0000
0200
0000
0000
0000
,
0301
0000
0010
0000
0001
0000
0000
1000
0000
0000
0100
0000
0000
0000
0000
0000
,
0010
0000
0001
0000
0100
0000
0000
0010
0000
0000
1000
0000
0000
0001
0000
0000
,
1000
0000
0101
0000
0001
0100
1000
0000
,
1010
0000
0101
0000
1000
0010
0100
0001
,
0010
0000
0001
0000
0100
0000
0000
0010
0000
0000
1000
0000
0000
0000
0000
0000
,
0001
0000
0000
0010
0000
0000
0001
0000
0000
0000
0100
0000
0000
1000
0000
0000
,
0001
0000
0000
0001
0000
0000
0001
0000
1000
0000
0000
1000
0000
0000
1000
0000
,
0010
0100
0010
0100
0010
0100
0010
0000
,
1000
0000
0100
0000
0002
0000
0000
0013
,
0000
0001
1000
0000
0020
0000
0000
0130
,
0000
0001
1000
0000
0100
0000
1000
0000
,
0100
0000
0010
0000
0001
1000
0001
0000
,
0010
1000
0100
0000
2000
0000
0000
3001
,
0000
0010
0001
0000
0200
0000
0000
0310
,
0000
1000
0001
0000
0100
0000
0010
0000
,
1000
0100
0001
0000
0010
0001
0100
0000
,
0101
1100
0202
0300
,
0013
0000
0000
0001
0000
0000
1000
0000
0001
0000
0100
0000
0010
0000
0000
0000
,
1010
1100
2020
0030
,
3001
0000
0000
1000
0000
0000
0001
0000
0200
0000
0000
0000
0300
0000
0000
0000
,
0110
1001
0220
0030
,
0301
0000
0000
0100
0000
0000
0010
0000
1000
0000
0001
0000
1000
0000
0000
0000
,
1100
0011
2200
3000
,
1300
0000
0000
0001
0000
0000
1000
0000
0001
0000
0100
0000
0010
0000
0000
0000
,
1010
0000
0101
0000
0011
0000
1000
0100
,
0001
0000
0000
0010
0000
0000
0001
0000
1000
0000
0010
0000
0100
0000
0000
0000
,
0110
0000
1010
0000
1100
0000
0010
0001
,
0100
0000
0000
0010
0000
0000
1000
0000
0002
0000
0000
0000
0003
0000
0000
0000
,
1001
0000
0101
0000
0011
0000
0100
1000
,
0001
0000
0000
0100
0000
0000
0010
0000
1000
0000
0100
0000
1000
0000
0000
0000
,
1010
0000
1001
0000
0110
0000
0001
0100
,
1000
0000
0000
0010
0000
0000
1000
0000
0002
0000
0000
0000
0000
0000
0103
0000
,
0010
0000
1000
0000
0100
0010
0000
0001
,
0100
0000
0010
1000
0000
0001
0000
1000
,
0100
0000
0010
0001
0000
0110
0000
1000
,
0100
0000
1000
0001
0000
0010
0000
0001
,
0000
0100
0010
1000
0000
0001
0000
0010
,
0000
0001
0100
1000
0000
0010
0000
0100
,
0001
0010
0001
0000
1000
0010
1000
0000
,
0100
0000
0000
1000
0000
0000
0001
0000
0200
0000
0000
0000
0310
0000
0000
0010
;

//---------------dance-single - ----------------
#NOTES:
     dance-single:
     :
     Medium:
     9:
     0.466911,0.501234,0.192257,0.384515,0.087390,374.000000,352.000000,22.000000,44.000000,0.000000,0.000000,0.466911,0.501234,0.192257,0.384515,0.087390,374.000000,352.000000,22.000000,44.000000,0.000000,0.000000:
0000
0000
0000
0000
,
0000
0000
0000
0000
,
1000
0000
0010
0000
1000
0100
0001
0000
,
0010
0000
0000
0010
0000
0000
0010
0000
0000
0000
0000
0000
0000
0000
0000
0000
,
0001
0000
0100
0000
0001
0010
1000
0000
,
0100
0000
0000
0100
0000
0000
0100
0000
0000
0000
1000
0000
0001
0000
0000
0000
,
1000
0000
0010
0000
0100
0001
0010
0000
,
0001
0000
0000
0001
0000
0000
0001
0000
0000
0000
0000
0000
1001
0000
0000
0000
,
0010
0000
1000
0000
0100
0010
0001
0000
,
1000
0000
0000
1000
0000
0000
1000
0000
0000
0000
0010
0000
0100
0000
0010
0000
,
0200
0302
2003
3020
,
1030
0100
0010
0001
0000
0000
0000
0000
,
2000
3002
0023
0230
,
1300
0010
0100
0001
0000
0000
0000
0000
,
0020
0032
2003
3200
,
1300
0001
0100
0010
0000
0000
0000
0000
,
0200
0302
2003
3020
,
0130
0010
1000
0001
0000
0010
0100
0000
,
0110
0000
0000
1000
0001
0000
0000
0010
,
0001
0000
0100
0000
1000
0000
0000
0010
,
0100
0000
0001
0000
1000
0000
0001
0010
,
0100
0000
0000
1000
0001
0000
0000
1000
,
0010
0000
0000
0100
0001
0000
0010
0100
,
0010
0000
0001
0000
1000
0001
0100
0000
,
0010
0000
1000
0000
0100
0000
1000
0001
,
0010
0000
0000
0010
0000
0000
0010
0000
0000
0000
0001
0000
1000
0000
0000
0000
,
0101
0000
0000
0000
1100
0000
0000
0000
0010
0000
0000
0010
0000
0000
1000
0000
,
0000
0001
0000
0000
1000
0000
0000
0100
0000
0000
0000
0000
0000
0000
0000
0000
,
0011
0000
1100
0000
0001
1000
0000
0010
,
0000
1000
0000
0000
0100
0000
0010
0000
0000
0000
0001
0000
1000
0000
0000
0000
,
0110
0000
1001
0000
0010
0100
0000
0010
,
0000
1000
0000
0000
0001
0000
0100
0000
0000
0000
0000
0000
0000
0000
0000
0000
,
1010
0000
0011
0000
1000
0100
0000
0010
,
0001
0000
0000
0001
0000
0000
0001
0000
0000
0000
1000
0000
0001
0000
0000
0000
,
0100
0000
0001
0000
1000
0100
0000
0010
,
0001
0000
0001
0000
1000
0001
0000
0100
,
0010
1000
0100
0001
,
0010
0000
0000
0000
0001
0000
0000
1000
0000
0000
0010
0000
0000
0000
1000
0000
,
0100
0000
1000
0000
0001
0100
0000
0010
,
0100
0000
0001
0000
1000
0010
0000
0100
,
0001
0000
0010
0000
0001
0000
1000
0010
,
0100
0000
0000
0100
0000
0000
0100
0000
0000
0000
0001
0000
1000
0000
0000
0000
,
0010
0000
1000
0000
0100
0010
0001
0000
,
1000
0000
0001
0000
1000
0010
0100
0000
,
0001
0000
0010
0000
0001
0100
1000
0000
,
0010
0000
1000
0000
0001
1000
0100
0000
,
0010
0001
0100
0000
0001
0000
1000
0000
,
0001
0010
1000
0000
0100
0000
0010
0000
,
0001
0000
0000
0001
0000
0000
0000
0000
1000
0000
0000
1000
0000
0000
0000
0000
,
0001
0000
0100
0000
1000
0001
1000
0000
,
0010
1000
0200
0300
,
0010
0001
0200
0300
,
0001
0001
1000
1000
,
0001
1000
0001
0100
,
0010
0010
2000
3000
,
0100
0100
0020
0030
,
0001
0001
1000
1000
,
0001
0100
0010
0100
,
0002
2003
3200
0300
,
0000
0000
0010
0001
1000
0000
0001
0100
,
0020
2030
3002
0003
,
0000
0000
1000
0100
0020
0000
0030
0000
,
0002
0203
0320
0030
,
0000
0000
1000
0100
0010
0000
0001
1000
,
0020
2030
3200
0300
,
0000
0000
1000
0100
0010
0001
0100
0000
,
0110
1010
0202
0000
,
0300
0000
1003
0001
0010
0100
1000
0000
,
1100
0110
0022
0000
,
0030
0000
0103
0010
2000
0000
3000
0000
,
1001
1010
2200
0000
,
0300
0000
3001
1000
0001
0100
0010
0000
,
0101
1001
2020
0000
,
3000
0000
1030
0100
0020
0000
0000
0031
,
0100
0000
0010
0000
1000
0001
0000
0010
,
0001
0000
0100
0010
0000
1000
0000
0100
,
1000
0000
0000
1000
0000
0000
1000
0000
0000
0000
0001
0000
0000
0000
0010
0000
,
0001
0000
0000
0000
0100
0000
0010
0000
0000
0000
1000
0000
0000
0001
0000
0000
,
0000
0010
0000
0000
0001
0000
0100
0000
0000
0000
0010
0000
0000
0000
1000
0000
,
0000
0000
0100
0000
0010
0000
0001
0000
0000
0000
1000
0000
0000
0010
0000
0000
,
1000
0000
0001
0100
0001
0000
0010
0100
,
1000
0000
0000
0000
0001
0000
1000
0000
0020
0000
0000
0000
0130
0000
0000
0001
;

//---------------dance-single - ----------------
#NOTES:
     dance-single:
     :
     Easy:
     6:
     0.337074,0.394127,0.209735,0.367037,0.000000,270.000000,246.000000,24.000000,42.000000,0.000000,0.000000,0.337074,0.394127,0.209735,0.367037,0.000000,270.000000,246.000000,24.000000,42.000000,0.000000,0.000000:
0000
0000
0000
0000
,
0000
0000
0000
0000
,
0010
0010
0001
0100
,
1000
1000
1000
0000
,
0100
0100
1000
0001
,
0010
0010
0010
0110
,
0001
0001
0010
1000
,
0100
0100
0100
1001
,
1000
1000
0010
0100
,
0001
0001
0001
0000
,
0020
0230
2300
3020
,
2030
3002
0003
0000
,
2000
3200
0320
0032
,
0203
0320
0030
0000
,
2000
3002
2003
3020
,
0230
0302
0003
0000
,
2000
3200
0320
0032
,
0203
0320
1030
0001
,
0010
0001
0100
0000
,
0001
0010
1000
0000
,
0100
0010
0100
0000
,
1000
0010
0001
0000
,
1000
0010
1000
0001
,
0010
0010
0010
0000
,
0100
0000
1000
0000
,
0001
0001
0001
0100
,
1001
0110
1000
0100
,
1000
0001
0100
0000
,
0010
0010
1000
0000
,
0001
1000
0100
0110
,
1001
1000
0100
0000
,
0010
0010
0001
0000
,
1000
0001
1000
0010
,
0100
0100
0100
1001
,
0010
1000
0100
0000
,
1000
0010
0001
0000
,
0100
0010
1000
0000
,
0001
0010
1000
0000
,
0100
1000
0001
1000
,
0010
0100
0100
0000
,
0001
0010
1000
0001
,
0100
0100
0010
0110
,
2000
0000
3001
0000
,
0020
0000
0130
0000
,
1000
0010
1000
0001
,
0010
0001
0100
1000
,
0002
0000
0013
0000
,
0200
0000
1300
0000
,
1001
0000
0110
0000
,
1000
0100
0110
1001
,
0010
0000
0010
0000
,
1000
0000
1000
0000
,
0001
0000
0010
0000
,
0001
0000
0100
0000
,
0001
0000
0001
0000
,
0100
0000
0100
0000
,
0010
0000
1000
0000
,
0100
0000
1000
0000
,
0001
0010
0002
0000
,
0003
0100
0010
1000
,
0100
0010
0200
0000
,
0300
1000
0001
0000
,
1000
0100
2000
0000
,
3000
0010
0100
0001
,
0010
0100
0020
0000
,
0030
0001
1000
0010
,
1010
1010
2020
0000
,
0030
0001
0100
3001
,
0101
0101
0202
0000
,
0300
0010
1003
0000
,
1100
1100
2200
0000
,
3000
0001
1000
0310
,
0011
0011
0022
0000
,
0030
0100
0020
0033
,
0001
0100
1000
0000
,
0010
1000
0100
0000
,
1000
0001
1000
0000
,
0010
0010
0010
0000
,
1000
0100
0001
0000
,
0010
0001
0100
0000
,
0001
0001
1000
1000
,
0001
1000
0200
0310
,
0001
0000
0000
0000
;

//---------------dance-single - ----------------
#NOTES:
     dance-single:
     :
     Beginner:
     3:
     0.154805,0.214979,0.000000,0.000000,0.000000,124.000000,124.000000,0.000000,0.000000,0.000000,0.000000,0.154805,0.214979,0.000000,0.000000,0.000000,124.000000,124.000000,0.000000,0.000000,0.000000,0.000000:
// measure 0
0000
0000
0000
0000
,  // measure 1
0000
0000
0000
0000
,  // measure 2
0010
0000
0010
0000
,  // measure 3
0010
0000
0000
0000
,  // measure 4
1000
0000
1000
0000
,  // measure 5
1000
0000
0000
0000
,  // measure 6
0001
0000
0001
0000
,  // measure 7
0001
0000
0000
0000
,  // measure 8
0100
0000
0100
0000
,  // measure 9
0100
0000
0000
0000
,  // measure 10
0001
0000
1000
0000
,  // measure 11
0001
0000
0000
0000
,  // measure 12
0100
0000
0010
0000
,  // measure 13
0100
0000
0000
0000
,  // measure 14
0001
0000
0010
0000
,  // measure 15
0001
0000
0000
0000
,  // measure 16
1000
0000
0100
0000
,  // measure 17
1000
0000
0000
0000
,  // measure 18
0010
0000
0000
0000
,  // measure 19
0100
0000
0000
0000
,  // measure 20
0001
0000
0000
0000
,  // measure 21
1000
0000
0000
0000
,  // measure 22
0001
0000
0000
0000
,  // measure 23
0010
0000
0000
0000
,  // measure 24
0100
0000
0000
0000
,  // measure 25
1000
0000
0001
0000
,  // measure 26
0100
0100
0100
0000
,  // measure 27
0010
0000
1000
0000
,  // measure 28
0001
0001
0001
0000
,  // measure 29
1000
0000
0100
0000
,  // measure 30
1000
1000
1000
0000
,  // measure 31
0001
0000
1000
0000
,  // measure 32
0010
0010
0010
0000
,  // measure 33
0100
0000
0001
0000
,  // measure 34
0010
0000
0010
0000
,  // measure 35
0010
0000
0000
0000
,  // measure 36
0001
0000
0001
0000
,  // measure 37
0001
0000
0000
0000
,  // measure 38
0100
0000
0100
0000
,  // measure 39
0100
0000
0000
0000
,  // measure 40
1000
0000
1000
0000
,  // measure 41
1000
0000
0000
0000
,  // measure 42
0001
0000
1000
0000
,  // measure 43
0001
0000
1000
0000
,  // measure 44
0010
0000
0000
0000
,  // measure 45
0100
0000
0000
0000
,  // measure 46
0001
0000
0010
0000
,  // measure 47
0001
0000
0100
0000
,  // measure 48
1000
0000
1000
0000
,  // measure 49
1000
0000
0001
0000
,  // measure 50
0000
0000
0010
0000
,  // measure 51
0000
0000
0001
0000
,  // measure 52
0000
0000
0100
0000
,  // measure 53
0000
0000
0000
0000
,  // measure 54
0000
0000
1000
0000
,  // measure 55
0000
0000
0010
0000
,  // measure 56
0000
0000
0100
0000
,  // measure 57
0000
0000
0000
0000
,  // measure 58
0001
0000
0001
0000
,  // measure 59
0000
0000
0100
0000
,  // measure 60
0010
0000
0010
0000
,  // measure 61
0000
0000
1000
0000
,  // measure 62
0100
0000
0100
0000
,  // measure 63
0000
0000
0001
0000
,  // measure 64
1000
0000
1000
0000
,  // measure 65
0000
0000
0100
0000
,  // measure 66
1000
1000
1000
0000
,  // measure 67
0000
0000
0010
0000
,  // measure 68
0100
0100
0100
0000
,  // measure 69
0000
0000
0001
0000
,  // measure 70
0010
0010
0010
0000
,  // measure 71
0000
0000
0100
0000
,  // measure 72
0001
0001
0001
0000
,  // measure 73
0000
0000
1000
0000
,  // measure 74
0001
0000
0000
0000
,  // measure 75
0100
0000
0000
0000
,  // measure 76
0010
0000
0000
0000
,  // measure 77
1000
0000
0000
0000
,  // measure 78
0010
0000
0000
0000
,  // measure 79
0100
0000
0000
0000
,  // measure 80
0010
0000
1000
0000
,  // measure 81
0001
0000
0100
0000
,  // measure 82
0010
0000
0000
0000
;
