#TITLE:patsenner;
#ARTIST:dj nagureo;
#BANNER:patsenner-bn.png;
#BACKGROUND:patsenner-bg.png;
#JACKET:patsenner-jacket.png;
#MUSIC:patsenner.ogg;
#SAMPLESTART:13.303;
#SAMPLELENGTH:20;
#DISPLAYBPM:108;
#BPMS:0=108.055;
#BGCHANGES:0=patsenner.mp4=1=0=0=0,
;

//---------------dance-single - ----------------
#NOTES:
     dance-single:
     :
     Beginner:
     2:
     :
0000
0000
0000
0000
,
0000
0000
0000
0000
,
0000
0000
0000
0000
,
0000
0000
0000
0000
,
0000
0000
0000
0000
,
1001
0000
0110
0000
,
1000
0000
1000
0000
,
0001
0000
0001
0000
,
0010
0000
0001
0000
,
0100
0000
0100
0000
,
1001
0000
0010
0000
,
1000
0000
0001
0000
,
0001
0000
0010
0000
,
0001
0000
0100
0000
,
0110
0000
1000
0000
,
1000
0000
0100
0000
,
0001
0000
0001
0000
,
0010
0000
0100
0000
,
1001
0000
0000
0000
,
1000
0000
0000
0000
,
0001
0000
0000
0000
,
1000
0000
0000
0000
,
0110
0000
0000
0000
,
0010
0000
0000
0000
,
0100
0000
0000
0000
,
1001
0000
0110
0000
,
0001
0000
0010
0000
,
1000
0000
0100
0000
,
1000
0000
0001
0000
,
0010
0000
0001
0000
,
0100
0000
1000
0000
,
0100
0000
0010
0000
,
0100
0000
0001
0000
,
0010
0000
1000
0000
,
0010
0000
0000
0000
,
0100
0000
0000
0000
,
0001
0000
0000
0000
,
1000
0000
0000
0000
,
0100
0000
0000
0000
,
1000
0000
0000
0000
,
0010
0000
0000
0000
,
0001
0000
0100
0100
;

//---------------dance-single - ----------------
#NOTES:
     dance-single:
     :
     Easy:
     6:
     :
0000
0000
0000
0000
,
0000
0000
0000
0000
,
0000
0000
0000
0000
,
0000
0000
0000
0000
,
0000
0000
0000
0000
,
0010
0010
0110
0100
,
0010
0000
0001
0100
,
0010
0000
0100
1000
,
0010
0000
0001
0100
,
0010
0000
0010
0000
0001
0001
0001
0000
,
1000
0000
0010
0100
,
0001
0000
1000
0100
,
0010
0000
0001
1000
,
0001
0000
0001
0000
0100
0100
0100
0000
,
1000
0000
0001
0010
,
0100
0000
1000
0010
,
0100
0000
0001
0010
,
0100
0000
0100
0000
0010
0010
0010
0000
,
0001
0001
1000
1000
,
0010
0010
0100
0100
,
0001
1000
0001
1000
,
0010
0001
0010
0001
,
1000
0100
1000
0100
,
0001
0001
1000
1000
,
0001
0001
0100
0100
,
0010
0010
0110
0100
,
1001
0001
0001
0101
,
0100
0100
0100
0110
,
0010
0010
0010
1010
,
1000
1000
1000
1100
,
0100
0100
0100
0101
,
0001
0001
0001
0011
,
0010
0010
0010
1010
,
1000
1000
1000
0101
,
0010
0100
0000
0000
0000
0000
0000
0000
,
1000
0001
0000
0000
0000
0000
0000
0000
,
0100
0010
0000
0000
0000
0000
0000
0000
,
0001
1000
0000
0000
0000
0000
0000
0000
,
0010
0100
0000
0000
0000
0000
0000
0000
,
0100
0001
0000
0000
0000
0000
0000
0000
,
0010
1000
0000
0000
0000
0000
0000
0000
,
0001
0100
0000
0000
0000
0000
0000
0000
,
1001
0000
0000
0000
;

//---------------dance-single - ----------------
#NOTES:
     dance-single:
     :
     Medium:
     8:
     :
0000
0000
0000
0000
,
0000
0000
0000
0000
,
0000
0000
0000
0000
,
0000
0000
0000
0000
,
0000
0000
0000
0000
,
1010
0000
1010
0000
0001
0001
1001
0000
,
1000
0000
1100
0000
0001
0010
0100
0000
,
1000
0000
0101
0000
0001
1000
0100
0000
,
0010
0000
1001
0000
0010
0100
0001
0000
,
0011
1100
1001
0110
,
1000
0000
0101
0000
0001
0010
0100
0000
,
1000
0000
0110
0000
0001
0100
1000
0000
,
0001
0000
1001
0000
0100
1000
0001
0000
,
0110
1001
0101
1010
,
1000
0000
1100
0000
0001
0100
0010
0000
,
0001
0000
0101
0000
1000
0001
0100
0000
,
0010
0000
0110
0000
0010
1000
0001
0000
,
1001
0101
0110
1010
,
0001
1000
0001
1000
,
0010
0100
0010
0100
,
0001
1100
0001
1100
,
1000
0101
1000
0101
,
1000
0100
1000
0100
,
0001
0001
0010
0010
,
0100
0100
1000
1000
,
0010
0000
0010
0000
0010
0010
0010
0000
,
1001
0000
0100
0000
0001
0010
0100
0000
,
0001
0000
0010
0000
1000
0100
0001
0000
,
0001
0000
0010
0000
1000
0100
0010
0000
,
1000
0000
0100
0000
0001
0010
0100
0000
,
0010
0000
0100
0000
1000
0001
0010
0000
,
0001
0000
1000
0000
0100
0010
0001
0000
,
0010
0000
1000
0000
0010
0100
0001
0000
,
0001
0000
0100
0000
0001
1000
0100
0000
,
1001
1000
0000
0001
0010
0001
0000
0000
,
1010
0010
0000
1000
0100
1000
0000
0000
,
0101
0001
0000
0010
0100
0010
0000
0000
,
0110
1000
0000
0001
1000
0001
0000
0000
,
1001
0001
0000
1000
0010
1000
0000
0000
,
0011
0010
0000
0001
0100
0001
0000
0000
,
1100
1000
0000
0010
0100
0010
0000
0000
,
0110
1000
0000
0001
1000
0001
0000
1001
;

//---------------dance-single - ----------------
#NOTES:
     dance-single:
     :
     Hard:
     9:
     :
0000
0000
0000
0000
,
0000
0000
0000
0000
,
0000
0000
0000
0000
,
0000
0000
0000
0000
,
0000
0000
0000
0000
,
1010
0000
0000
0000
1010
0000
0000
0001
0000
0010
0001
0000
1001
0000
0000
0000
,
1000
0010
1010
0000
0001
0010
0100
0000
,
1000
0100
0101
0000
0001
1000
0100
0000
,
0010
1000
1001
0000
0010
0100
0001
0000
,
1001
0110
0101
1100
,
1000
0100
0110
0000
0001
0010
0100
0000
,
1000
0001
0101
0000
0001
0100
1000
0000
,
0001
1000
1001
0000
0100
1000
0001
0000
,
0110
0011
1001
1100
,
1000
0100
1010
0000
0001
0100
0010
0000
,
0001
0010
0101
0000
1000
0001
0100
0000
,
0010
0001
0110
0000
0010
1000
0001
0000
,
0101
1010
0110
1001
,
0001
0000
0010
0100
0001
0000
0100
0000
,
0010
0000
0100
1000
0010
0000
1000
0000
,
0100
0000
1000
0001
0100
0000
0001
0000
,
1000
0000
0001
0010
1000
0000
0010
0000
,
0001
0000
0010
0100
0001
0000
0100
0000
,
0010
0000
0100
1000
0010
0000
1000
0000
,
0100
0000
1000
0001
0100
0000
0001
0000
,
0010
0000
1000
0000
0010
0000
1000
0000
0010
0100
0010
0100
0010
0100
0000
0000
,
1001
0000
0100
0000
0001
0010
0100
0000
,
0001
0001
0010
0000
1000
0100
0001
0000
,
0001
0001
0010
0000
1000
0100
0010
0000
,
1000
1000
0100
0000
0001
0010
0100
0000
,
0010
0010
0100
0000
1000
0001
0010
0000
,
0001
0001
1000
0000
0100
0010
0001
0000
,
0010
0010
1000
0000
0010
0100
0001
0000
,
0001
0001
0100
0000
0001
1000
0100
0000
,
1001
1000
0000
0001
0010
0011
0000
0000
,
1010
0010
0000
1000
0100
1100
0000
0000
,
0101
0001
0000
0010
0100
0110
0000
0000
,
0110
1000
0000
0001
1000
1001
0000
0000
,
1001
0001
0000
1000
0010
1010
0000
0000
,
0011
0010
0000
0001
0100
0011
0000
0000
,
1100
1000
0000
0010
0100
1010
0000
0000
,
0110
1000
0000
0001
1000
1001
0000
1001
;

//---------------dance-single - ----------------
#NOTES:
     dance-single:
     :
     Challenge:
     12:
     :
0000
0000
0000
0000
,
0000
0000
0000
0000
,
0000
0000
0000
0000
,
0000
0000
0000
0000
,
0000
0000
0000
0000
,
1001
0000
0100
0000
1001
0000
0100
0000
0001
1000
0001
1000
0001
0000
0110
0000
,
1001
0000
0010
0000
0100
0000
0000
0001
0000
0001
1000
0000
0010
0000
0100
0000
,
0001
0000
1000
0000
0010
0000
0000
1000
0000
1000
0001
0000
0000
0100
0000
0100
,
0010
1000
0000
0000
0101
0000
0000
1000
0000
0100
1000
0001
0000
0000
0010
0000
,
0101
0010
1100
0010
0101
0010
1100
0010
,
1001
0000
0100
0000
0001
0000
0000
0010
0000
0010
0100
0000
1000
0000
0001
0000
,
0010
0000
0100
0000
1000
0000
0000
0001
0000
0001
0100
0000
0000
0010
0000
0000
,
1000
0001
0000
0000
0011
0000
0000
1000
0000
0010
0100
0001
0000
0000
1000
0000
,
0011
0100
1010
0100
0011
0100
1010
0100
,
1001
0000
0010
0000
0100
0000
0000
0010
0000
1000
0001
0000
1000
0000
0100
0000
,
0010
0000
0001
0000
0100
0000
0000
0010
0000
0010
1000
0000
0000
0001
0000
0001
,
1000
0100
0000
1000
0010
0000
0000
0100
0000
0100
0001
1000
0001
0000
0100
0000
,
1010
0001
0011
0010
0101
1000
1100
0100
,
1001
0010
0100
1000
0100
0001
0100
0010
,
0100
1000
0100
0001
0010
0100
0001
0100
,
0010
0100
0001
0100
0010
0100
0001
0100
,
1000
0010
1000
0001
1000
0100
0010
0001
,
0110
1000
0010
1000
0100
0001
0100
0010
,
0100
0001
0100
0010
0100
0001
0100
1000
,
0010
0100
0010
0001
0010
1000
0100
0001
,
1001
0000
0100
0000
1001
0000
0100
0000
0001
1000
0001
1000
0001
0000
0110
0000
,
1001
0000
0010
0000
1000
0000
0000
0100
0000
0100
0010
0000
0001
0000
1000
0000
,
1100
0000
0010
0000
0100
0000
0000
0001
0000
1000
0001
0000
0000
0010
0000
0010
,
0001
1000
0000
0000
0100
0000
1000
0010
0000
0010
0100
0001
1000
0000
0100
0000
,
0110
0000
0001
0000
0100
0000
0010
1000
0000
1000
0001
0000
0100
0000
1010
0000
,
1001
0000
0001
0000
0010
0000
0000
1000
0000
1000
0100
0000
0010
0000
0011
0000
,
0101
0000
0010
0000
0100
0000
0000
0010
0000
1000
0100
0000
1000
0001
0000
0001
,
0100
0010
1000
0000
1010
0000
0000
0001
0000
0001
0010
0100
1000
0000
1100
0000
,
0101
0000
0010
0000
0100
0000
0010
1000
0000
1000
0001
1000
0100
0000
0110
0000
,
1001
0000
0110
0000
0000
0000
0001
1000
0000
0001
1000
0000
0000
0000
0100
0000
,
1100
0000
0011
0000
0000
0000
0100
0010
0000
0010
1000
0001
0000
0000
0000
0000
,
0101
0000
1010
0000
0000
0000
1000
0010
0000
1000
0010
0100
0001
0000
0001
0000
,
0101
0000
1100
0000
0000
0000
0010
0100
0000
0010
0100
0000
0100
0000
0000
0000
,
0110
0000
1001
0000
0000
0000
0010
1000
0000
0001
0010
0000
0000
0000
0100
0000
,
0011
0000
1010
0000
0000
0000
1000
0010
0000
1000
0010
0100
0000
0000
0000
0000
,
1010
0000
1100
0000
0000
0000
0010
0001
0000
0001
1000
0001
0100
0000
0100
0000
,
0101
0000
0011
0000
0000
0000
1000
0010
0000
0100
0001
0000
0110
0000
1001
0000
;

//---------------dance-double - ----------------
#NOTES:
     dance-double:
     :
     Easy:
     7:
     :
00000000
00000000
00000000
00000000
,
00000000
00000000
00000000
00000000
,
00000000
00000000
00000000
00000000
,
00000000
00000000
00000000
00000000
,
00000000
00000000
00000000
00000000
,
00011000
00011000
00011000
00011000
,
00011000
00000000
00000000
00000000
00100000
01000000
00000000
10000000
,
10000000
00000000
00000000
00000000
00010000
01000000
00000000
00001000
,
00001000
00000000
00000000
00000000
00000100
00000001
00000010
00000000
,
00000110
00000110
00001001
00001001
,
00000110
00000000
00000000
00000000
00001000
00000001
00000000
00000100
,
00000100
00000000
00000000
00000000
00000010
00010000
00000000
00001000
,
00001000
00000000
00000000
00000000
01000000
00100000
10000000
00000000
,
10010000
10010000
01100000
01100000
,
10010000
00000000
00000000
00000000
10000000
01000000
00000000
10000000
,
10000000
00000000
00000000
00000000
00100000
01000000
00000000
00010000
,
00010000
00000000
00000000
00000000
00100000
00001000
01000000
00000000
,
00011000
00011000
00011000
00011000
,
00011000
00000000
00010000
00000000
,
00000010
00000000
00000100
00000000
,
00000010
00000000
00001000
00000000
,
00000100
00000000
00010000
00000000
,
00000010
00000000
00001000
00000000
,
00010000
00000000
01000000
00000000
,
00100000
00000000
00001000
00000000
,
00011000
00011000
00011000
00011000
,
00011000
00000000
00000000
00000000
01000000
10000000
00000000
00100000
,
00100000
00000000
00000000
00000000
01000000
00010000
00000000
00000100
,
00000100
00000000
00000000
00000000
00000001
00001000
00000010
00000000
,
00001001
00011000
10010000
00011000
,
00001001
00000000
00000000
00000000
00000010
00000010
00000000
00001000
,
00000100
00000000
00000000
00000000
00010000
00001000
00000000
00100000
,
00100000
00000000
00000000
00000000
01000000
00100000
00001000
00000000
,
00011000
00000000
00000000
00000000
00001000
00010000
00000100
00000000
,
00001001
00000000
00000000
00000000
00000010
00000100
00000000
00000000
,
00000110
00000000
00000000
00000000
00000001
00001000
00000001
00000000
,
00001100
00000000
00000000
00000000
00010000
00001000
00010000
00001000
,
01000000
00000000
00000000
00000000
01000000
00100000
10000000
00000000
,
01100000
00000000
00000000
00000000
10000000
00010000
00000000
00000000
,
01010000
00000000
00000000
00000000
00100000
10000000
00100000
00000000
,
10010000
00000000
00000000
00000000
10000000
01000000
10000000
01000000
,
00100000
00000000
00000000
00000000
00001000
00010000
00000000
00011000
;

//---------------dance-double - ----------------
#NOTES:
     dance-double:
     :
     Medium:
     8:
     :
00000000
00000000
00000000
00000000
,
00000000
00000000
00000000
00000000
,
00000000
00000000
00000000
00000000
,
00000000
00000000
00000000
00000000
,
00000000
00000000
00000000
00000000
,
00011000
00000000
01010000
00000000
00001000
00001000
00011000
00000000
,
00000100
00000000
00001001
00000000
00000010
00000100
00010000
00000000
,
00100000
00000000
10010000
00000000
01000000
00100000
00001000
00000000
,
00000010
00000000
00001001
00000000
00000010
00000001
00000100
00000000
,
00001010
00011000
00110000
00011000
,
00000100
00000000
00001010
00000000
00000001
00000100
00010000
00000000
,
00100000
00000000
10100000
00000000
10000000
01000000
00100000
00000000
,
00010000
00000000
00001100
00000000
00000010
00010000
00001000
00000000
,
01001000
00010100
00001010
00000101
,
00000010
00000000
00001100
00000000
00010000
01000000
00100000
00000000
,
10000000
00000000
01010000
00000000
00100000
00010000
00001000
00000000
,
00000010
00000000
00001010
00000000
00000001
00001000
00000001
00000000
,
00000110
00011000
01100000
11000000
,
10000000
01000000
00100000
00010000
,
00001000
00000100
00000010
00000001
,
00001000
00001100
00000100
00010100
,
00010000
01010000
01000000
01100000
,
00010000
00001000
00010000
00001000
,
00100000
00100000
00001000
00001000
,
00100000
00011000
00000010
00011000
,
00100000
00000000
00100000
00000000
00001000
00001000
00011000
00000000
,
01010000
00000000
00100000
00000000
10000000
01000000
00001000
00000000
,
00000100
00000000
00000010
00000000
00000001
00000100
00010000
00000000
,
00001000
00000000
00100000
00000000
01000000
00010000
00100000
00000000
,
10000000
00000000
00100000
00000000
01000000
00010000
00000100
00000000
,
00001000
00000000
00000100
00000000
00000010
00001000
00010000
00000000
,
00100000
00000000
10000000
00000000
01000000
00100000
00010000
00000000
,
00001000
00000000
00000010
00000000
00000001
00000010
00000100
00000000
,
00001000
00000000
00010000
00000000
00001000
00100000
00010000
00000000
,
01100000
01000000
00000000
10000000
00100000
10000000
00000000
00000000
,
00101000
00001000
00000000
00010000
00000100
00010000
00000000
00000000
,
00001010
00001000
00000000
00000010
00000100
00000010
00000000
00000000
,
00011000
00100000
00000000
00010000
00001000
00010000
00000000
00000000
,
00000101
00000010
00000000
00000001
00001000
00000001
00000000
00000000
,
00011000
00100000
00000000
00010000
01000000
00010000
00000000
00000000
,
11000000
10000000
00000000
10000000
00010000
10000000
00000000
00000000
,
01010000
00010000
00000000
00100000
00001000
00100000
00000000
00011000
;

//---------------dance-double - ----------------
#NOTES:
     dance-double:
     :
     Hard:
     9:
     :
00000000
00000000
00000000
00000000
,
00000000
00000000
00000000
00000000
,
00000000
00000000
00000000
00000000
,
00000000
00000000
00000000
00000000
,
00000000
00000000
00000000
00000000
,
00010100
00000000
00000000
00000000
00011000
00000000
00000000
00000000
00001000
00100000
00001000
00000000
00101000
00000000
00000000
00000000
,
01000000
00100000
01100000
00000000
01000000
00100000
00001000
00000000
,
00010000
00000100
00010100
00000000
00000001
00000010
00010000
00000000
,
00001000
01000000
01001000
00000000
00100000
00001000
01000000
00000000
,
10100000
01010000
00011000
00001010
,
00000100
00000100
00000110
00000000
00000001
00000100
00010000
00000000
,
01000000
00010000
01010000
00000000
00100000
00010000
00001000
00000000
,
00010000
00001000
00011000
00000000
00000100
00010000
00001000
00000000
,
00000101
00010100
00101000
10100000
,
01000000
00001000
00011000
00000000
00010000
00001000
00000100
00000000
,
00001000
00000001
00000101
00000000
00001000
00010000
00000100
00000000
,
00000010
00001000
00011000
00000000
00100000
00001000
00100000
00000000
,
01100000
00011000
00000110
00000011
,
00000001
00000001
00000010
00000100
,
00001000
00001000
00010000
00100000
,
01000000
01100000
00100000
00110000
,
00010000
00011000
00001000
00001010
,
00000010
00001000
00010000
01000000
,
00001000
00010000
00001000
00010000
,
00000010
00011000
00100000
00011000
,
00100000
00000000
00001000
00000000
00100000
00000000
00001000
00000000
00010000
00001000
00010000
00000000
00101000
00000000
00000000
00000000
,
01010000
00000000
10000000
00000000
00100000
01000000
00001000
00000000
,
00010000
00001000
00000010
00000000
00000001
00000100
00010000
00000000
,
00001000
00010000
00100000
00000000
01000000
00010000
00100000
00000000
,
10000000
01000000
00100000
00000000
01000000
00010000
00000100
00000000
,
00001000
00000001
00000100
00000000
00000010
00001000
00010000
00000000
,
00001000
01000000
10000000
00000000
01000000
00100000
00010000
00000000
,
00001000
00000100
00000010
00000000
00000001
00000010
00000100
00000000
,
00001000
00000100
00010000
00000000
00001000
00100000
00010000
00000000
,
01100000
01000000
00000000
01000000
00100000
01100000
00000000
00000000
,
00101000
00001000
00000000
00010000
00000100
00010100
00000000
00000000
,
00001010
00001000
00000000
00000001
00000100
00000101
00000000
00000000
,
00011000
01000000
00000000
00010000
00001000
00011000
00000000
00000000
,
00001001
00000010
00000000
00000010
00001000
00001010
00000000
00000000
,
00011000
00100000
00000000
01000000
00010000
01010000
00000000
00000000
,
10100000
10000000
00000000
10000000
00010000
10100000
00000000
00000000
,
01010000
00010000
00000000
00100000
00001000
00110000
00000000
00011000
;

//---------------dance-double - ----------------
#NOTES:
     dance-double:
     :
     Challenge:
     11:
     :
00000000
00000000
00000000
00000000
,
00000000
00000000
00000000
00000000
,
00000000
00000000
00000000
00000000
,
00000000
00000000
00000000
00000000
,
00000000
00000000
00000000
00000000
,
10010000
00000000
01000000
00000000
10010000
00000000
01000000
00000000
00001000
00010000
00001000
00010000
00001000
00000000
01000000
00000000
,
10010000
00000000
00100000
00000000
10000000
00000000
00000000
01000000
00000000
01000000
00100000
00000000
00000000
00000000
00011000
00000000
,
00011000
00000000
00000010
00000000
00000100
00000000
00000000
00000001
00000000
00000001
00001000
00000000
00000000
00000100
00000000
00000100
,
00001000
00000001
00000000
00000000
00000011
00000000
00000000
00000100
00000000
00000100
00001000
00010000
00000000
00000000
01000000
00000000
,
01010000
00010000
11000000
10000000
01010000
00010000
11000000
10000000
,
01100000
00000000
00100000
00000000
10000000
00000000
00000000
00010000
00000000
00010000
01000000
00000000
00100000
00000000
10100000
00000000
,
10100000
00000000
10000000
00000000
01000000
00000000
00000000
00100000
00000000
00100000
00001000
00000000
00000000
00011000
00000000
00000000
,
00000100
00001000
00000000
00000000
00001010
00000000
00000000
00000001
00000000
00000001
00000010
00000100
00000000
00000000
00001000
00000000
,
00001100
00000001
00000101
00001000
00001100
00000001
00000101
00001000
,
00011000
00000000
00010000
00000000
01000000
00000000
00000000
10000000
00000000
10000000
00010000
00000000
01000000
00000000
10010000
00000000
,
01100000
00000000
00100000
00000000
10000000
00000000
00000000
00010000
00000000
00010000
10000000
00000000
01000000
00100000
00000000
00100000
,
00001000
00010000
00000000
00000000
00010100
00000000
00000000
00000010
00000000
00000010
00000001
00001000
00000001
00000000
00000100
00000000
,
00000101
00000010
00001100
00000010
00000101
00000010
00001100
00000010
,
00001001
00000100
00001000
00000100
00000001
00000100
00001000
00000000
,
01000000
10000000
01000000
00010000
01000000
10000000
01000000
00000000
,
10000000
00100000
00010000
00100000
10000000
00100000
00001000
00000000
,
00001010
00000001
00000100
00001000
00000100
00000001
00000100
00000010
,
00000110
00001000
00001000
00000100
00000001
00000100
00001000
00011000
,
00011000
01000000
00100000
00001000
00100000
10000000
00010000
00110000
,
00110000
10000000
01000000
00010000
01000000
10000000
01000000
00000000
,
10010000
00000000
01000000
00000000
10010000
00000000
01000000
00000000
00001000
00010000
00001000
00010000
00001000
00000000
01000000
00000000
,
01001000
00000000
00100000
00000000
10000000
00000000
00000000
01000000
00000000
01000000
00100000
00000000
00010000
00000000
10000000
00000000
,
11000000
00000000
00100000
00000000
00001000
00000000
00000000
00010000
00000000
00010000
00000100
00000000
00000000
00000010
00000000
00000010
,
00000001
00001000
00000000
00000000
00000110
00000000
00000000
00000010
00000000
00000010
00001000
00000001
00000100
00000000
00000010
00000000
,
00010010
00000000
00010000
00000000
00001000
00000000
00000100
00000001
00000000
00000001
00001000
00000000
00010000
00000000
01000000
00000000
,
01010000
00000000
00100000
00000000
01000000
00000000
00000000
00010000
00000000
00010000
10000000
00000000
01000000
00000000
00100000
00000000
,
00101000
00000000
00001000
00000000
01000000
00000000
00010000
10000000
00000000
10000000
00010000
00000000
00000000
00100000
00000000
00100000
,
00010000
01000000
00000000
00000000
10100000
00000000
00000000
10000000
00000000
10000000
01000000
00010000
00001000
00000000
00000100
00000000
,
00000110
00000000
00000001
00000000
00000010
00000000
00000001
00001000
00000000
00001000
00000100
00010000
00000000
00000000
00000010
00000000
,
00001010
00000000
00000101
00000000
00000000
00000000
00000010
00000001
00000000
00000100
00001000
00000000
00000000
00000000
01000000
00000000
,
11000000
00000000
00110000
00000000
00000000
00000000
10000000
00010000
00000000
10000000
00100000
01000000
00000000
00000000
00000000
00000000
,
01100000
00000000
10010000
00000000
00000000
00000000
10000000
01000000
00000000
10000000
01000000
00100000
00010000
00000000
00010000
00000000
,
00110000
00000000
11000000
00000000
00000000
00000000
00100000
01000000
00000000
01000000
00010000
00000000
10000000
00000000
00000000
00000000
,
11000000
00000000
01001000
00000000
00000000
00000000
00010000
00001000
00000000
00010000
00001000
00000000
00000000
00000000
00000100
00000000
,
00000101
00000000
00010100
00000000
00000000
00000000
00000010
00010000
00000000
00010000
00001000
00010000
00000000
00000000
00000000
00000000
,
00011000
00000000
01100000
00000000
00000000
00000000
10000000
00100000
00000000
01000000
00010000
01000000
00010000
00000000
00010000
00000000
,
00011000
00000000
00000110
00000000
00000000
00000000
00000001
00001000
00000000
00000010
00000100
00000000
00000101
00000000
00001100
00000000
;
