#TITLE:it's so good;
#ARTIST:ASLETICS;
#BANNER:it's so good-bn.png;
#BACKGROUND:it's so good-bg.png;
#JACKET:it's so good-jacket.png;
#MUSIC:it's so good.ogg;
#SAMPLESTART:29.825;
#SAMPLELENGTH:20;
#DISPLAYBPM:88:95;
#BPMS:0=88,40=94,96=95;
#BGCHANGES:;

//---------------dance-single - ----------------
#NOTES:
     dance-single:
     :
     Beginner:
     3:
     :
0000
0000
0000
0000
,
0000
0000
0000
0000
,
0100
0000
0001
0000
,
1000
0000
0010
0000
,
1000
0000
0001
0000
,
0100
0000
0010
0000
,
1000
0000
0001
0002
,
0003
0000
0010
0000
,
0001
0000
1000
2000
,
3000
0000
0010
0000
,
0110
0000
0000
0000
,
0001
0000
1000
0000
,
1001
0000
0100
0000
,
0010
0000
0100
0000
,
1000
0000
0010
0000
,
1000
0000
0001
0000
,
0010
0000
0010
0000
,
0001
0000
1000
0000
,
0100
0000
0100
0000
,
0010
0000
0000
0000
,
0001
0000
0100
0000
,
0001
0000
0010
0000
,
1000
0000
0100
0000
,
0010
0000
0000
0000
,
0002
0000
0003
0000
,
2000
0000
3000
0000
,
0010
0010
0000
0000
,
0100
0100
0000
0000
,
0001
0000
1000
0000
,
0110
0000
0000
0000
,
1001
0000
0010
0000
,
1000
0000
0001
0000
,
0010
0010
0010
0000
,
0001
0000
1000
0000
,
0100
0000
0000
0000
;

//---------------dance-single - ----------------
#NOTES:
     dance-single:
     :
     Easy:
     6:
     :
0000
0000
0000
0000
,
0000
0000
0000
0000
,
0100
0000
1000
0001
,
0010
0001
0100
1000
,
0001
0010
0001
1000
,
0010
0000
0100
0100
,
0100
0000
0000
0000
0001
1000
0020
0000
,
0000
0030
1000
0100
,
0001
0000
0000
0000
1000
0001
0200
0000
,
0000
0000
0300
0000
0001
1000
0001
1000
,
0001
0010
0001
0100
,
2000
3020
0230
0301
,
1001
0010
0001
0100
,
0010
1000
0100
0001
,
0110
0001
0010
1000
,
0200
0320
0032
1003
,
0010
0010
1000
0001
,
0010
0001
0100
0010
,
1000
1000
0100
0010
,
0002
2003
3020
0030
,
0100
0001
0010
0010
,
0001
0100
0010
1000
,
0100
0010
0100
1000
,
0002
2003
3200
0300
,
1000
1000
0000
0000
0000
0000
0001
0000
,
0100
0100
0000
0000
0000
0000
0110
0000
,
0001
1000
0001
0000
0100
0000
1001
0000
,
0010
0000
0100
0000
0001
1000
0100
0000
,
0010
0001
0100
1000
,
0002
2000
0000
0000
0000
0000
3003
0000
,
0010
1000
0200
0000
0000
0000
0310
0000
,
0001
0000
0100
0000
0001
0010
1000
0000
,
0100
0010
0001
1000
,
0010
0000
1000
0001
0000
0100
0010
0000
,
2000
3100
0000
0000
;

//---------------dance-single - ----------------
#NOTES:
     dance-single:
     :
     Medium:
     9:
     :
0000
0000
0000
0000
,
0000
0000
0000
0000
,
0200
0000
0300
0001
0010
1000
0100
0000
,
0010
0000
0000
0001
0000
0000
1000
0000
0020
0000
0000
0000
0230
0000
0000
0000
,
0301
0010
0100
0000
1000
0010
0100
0001
,
2000
0000
3000
0000
0010
0010
0100
0100
,
0010
0000
0000
0000
0000
0000
0000
0000
0000
1000
0000
0001
1000
0000
0000
0100
0000
0000
0020
0000
0000
0000
0000
0000
,
0031
0100
0010
1000
1000
0100
0001
0010
,
0100
0000
0000
0000
0000
0000
0000
0000
0000
1000
0000
0001
1000
0000
0000
0010
0000
0000
0200
0000
0000
0000
0000
0000
,
0301
0010
0001
1000
0010
0010
0010
0010
,
0100
0000
0000
0001
0000
1000
0000
0000
0010
0000
1000
0000
0001
0000
0000
0000
,
0020
0000
0031
0100
0020
1000
1030
0000
,
1001
0000
0100
1000
0010
0000
0100
0001
,
0010
0000
0001
1000
0100
0100
0100
1000
,
0001
0000
0110
0000
0001
0100
1000
0000
,
0020
0000
1030
0001
0200
0010
0310
0000
,
1000
0100
0010
0100
1000
0010
0100
0001
,
0010
0000
0010
0000
0001
0000
0000
1000
0000
0010
0000
0100
0000
0000
0001
0000
,
0001
0010
0001
0100
0010
1000
0100
1000
,
0002
0000
0013
0001
2000
0100
3100
0000
,
0010
0100
0010
0001
0100
0010
1000
0001
,
0010
0001
0100
0010
1000
1000
0001
0000
,
1000
0010
0100
0010
0100
0001
0010
0100
,
2000
0000
3001
1000
0020
0100
0130
0000
,
0001
0001
0000
0100
0010
0000
1000
0001
,
1000
1000
0010
0100
0001
1000
0100
0000
,
0010
0010
0010
0000
0001
0100
1000
0000
,
0010
1000
0010
1000
0010
0000
0000
0000
0100
0000
0100
0000
0001
0000
1000
0000
,
0001
0100
1000
0100
0002
0000
0013
0100
,
1000
1000
0001
0000
1000
0100
0100
0000
,
0010
0001
0200
0000
0300
1000
0010
0100
,
0001
0010
0001
0100
1000
0010
0100
0000
,
0001
0010
1000
0010
0002
0000
0103
0010
,
1000
0100
0001
0010
0000
0001
1000
0001
,
0020
0100
0100
0100
0130
0000
0000
0000
;

//---------------dance-single - ----------------
#NOTES:
     dance-single:
     :
     Hard:
     12:
     :
0000
0000
0000
0000
,
0000
0000
0000
0000
,
0200
0001
0310
1000
1000
0001
0100
0000
,
0010
0000
0000
0000
0000
0000
1000
0000
0000
0100
0000
0000
0000
0000
0000
0100
0000
0000
0010
0000
0000
0000
0000
0000
0001
0000
0000
0000
0000
0000
0011
0000
0000
0000
0000
0000
0000
0000
0000
0000
1100
0000
0000
0000
0000
0000
0000
0000
,
0201
0000
0010
0000
0310
0000
0000
0000
0100
0000
0001
1000
0001
0000
0010
0000
,
0110
0000
0000
0000
1000
0001
1000
0001
0100
0010
1000
0000
0100
0010
0001
0000
,
1000
0000
0000
0001
0000
0000
0000
0000
0000
0010
0000
0001
0100
0000
0000
0010
0000
0000
2000
0000
0000
0000
0000
0000
,
3001
0000
0000
0000
0000
0000
0010
0000
0000
0100
0000
0000
0000
0000
0000
0000
0000
0000
1000
0000
0000
0000
0010
0000
1000
0000
0000
0000
0100
0000
0010
0000
0000
0000
0000
0000
0001
0000
0000
0000
0100
0000
0010
0000
0000
0000
0000
0000
,
1000
0000
0000
0001
0000
0100
0001
0000
0000
0010
0000
0100
1000
0000
0000
0001
0000
0000
0200
0000
0000
0010
0000
0000
,
0320
1000
1030
0001
0011
1100
0101
1010
,
0001
0100
0001
0100
0000
0100
0000
0100
0010
0000
1000
0001
1000
0001
0000
0000
,
0020
0000
0000
0000
0130
0010
0001
0000
2000
0000
0010
0000
3100
1000
0001
0000
,
0100
0000
0000
0000
0010
1000
0010
1000
0001
0000
0001
0000
0011
0000
0100
0000
,
1000
0000
0001
0000
0100
0010
0100
0010
1000
0001
0100
0000
0010
1000
0001
0000
,
0010
0000
0000
0000
0001
0100
0001
0100
0010
0000
0010
0000
1010
0000
1000
0000
,
0002
0000
0000
0000
0013
0100
1000
0000
0020
0000
0100
0000
1030
0001
0100
0000
,
0001
0010
0001
0010
0100
1000
0100
1000
0010
0100
0010
0100
0001
1000
0001
1000
,
0100
0000
0100
0000
1000
0001
0000
0010
0000
0010
0000
0010
0001
1000
0100
0000
,
0010
0001
0010
0001
1000
0100
1000
0100
1000
0001
0000
0100
0000
0010
1000
0010
,
2000
0000
0000
0000
3001
0010
0001
0000
0100
0010
0100
0000
0001
1000
0001
0000
,
0010
0001
0010
0100
1000
0001
0000
0101
0000
0101
0000
0101
0000
1000
0010
0100
,
0001
0000
0010
0000
0010
0000
1000
0100
0010
0001
0100
0000
0110
0000
1001
0000
,
0010
1000
0010
1000
0100
0010
0100
0010
0001
1000
0001
1000
0001
0010
0001
0010
,
0200
0000
1000
0000
1300
0001
0000
0010
0000
0001
0000
1000
0010
0000
0000
0000
,
0100
0000
0000
0100
0000
0000
0000
0000
0000
0001
0000
1000
0001
0000
0000
0100
0000
0000
0010
0000
0000
1000
0000
0000
,
0100
0000
0000
0100
0000
0000
0010
0000
0000
0001
0000
0000
1000
0000
0010
1000
0000
0010
0100
0000
0000
0001
0000
0000
,
0101
0000
0000
1100
0000
0000
0101
0000
0000
0010
0000
1000
0010
0000
0100
0001
0000
0000
0010
0000
0000
0100
0000
0000
,
1000
0000
0000
1000
0000
0000
1000
0000
0000
0001
0000
0100
0001
0000
0000
0010
0000
0000
0100
0000
0000
1000
0000
0000
,
0010
0000
0000
1000
0000
0000
0001
0000
0000
1000
0000
0000
0100
0000
0010
0001
0000
0000
0100
0000
0010
1000
0000
0000
,
0001
0001
1000
1000
0010
0100
0010
1000
,
0001
0000
0100
0001
0000
0000
0010
0000
0000
0100
0000
0000
0100
0000
0000
1000
0000
0000
0001
0000
0000
0100
0000
0000
,
0001
0000
0000
0010
0000
0000
1000
0000
0000
0100
0000
0000
0010
0000
0000
0010
0000
0000
0001
0000
1000
0010
0000
0100
,
0001
0000
0010
0100
0000
0000
1000
0000
0000
1000
0000
0000
0001
0000
0000
0001
0000
0000
0110
0000
0000
0000
0000
0000
,
1000
0000
0010
1000
0000
0000
0100
0000
0000
0010
0000
0000
0001
0000
0000
0100
0000
0000
0100
0000
0000
1000
0000
0000
,
1020
0100
0100
0100
0130
0000
0000
0000
;
