#TITLE:greed eater;
#SUBTITLE:;
#ARTIST:The Dust Fathers;
#TITLETRANSLIT:;
#SUBTITLETRANSLIT:;
#ARTISTTRANSLIT:;
#GENRE:;
#CREDIT:;
#BANNER:greed eater-bn.png;
#BACKGROUND:greed eater-bg.png;
#LYRICSPATH:;
#CDTITLE:;
#MUSIC:greed eater.ogg;
#OFFSET:0.050000;
#SAMPLESTART:12.815000;
#SAMPLELENGTH:20.000000;
#SELECTABLE:YES;
#DISPLAYBPM:112.000000;
#BPMS:0.000000=111.933998
;
#STOPS:
;
#BGCHANGES:;
#KEYSOUNDS:;
#ATTACKS:;

//---------------dance-single - ----------------
#NOTES:
     dance-single:
     :
     Easy:
     5:
     0.188298,0.241649,0.141729,0.000000,0.000000,93.000000,83.000000,10.000000,0.000000,0.000000,0.000000,0.188298,0.241649,0.141729,0.000000,0.000000,93.000000,83.000000,10.000000,0.000000,0.000000,0.000000:
0000
0000
0000
0000
,
0000
0000
0000
0000
,
0010
0001
0001
0000
,
1000
0001
1000
0100
,
1000
0010
0010
0000
,
0100
0001
1000
0001
,
0010
0100
0100
0000
,
1000
0001
1000
0010
,
0100
0001
0001
0000
,
0110
0000
0000
0000
,
1000
0010
1000
0000
,
0100
0010
0001
0100
,
0001
0010
1000
0000
,
1001
0000
0000
0000
,
0010
0000
1000
0000
,
0100
0000
0001
0000
,
0010
0000
0001
0000
,
0100
0000
1000
0000
,
0001
0000
1000
0000
,
0010
0000
0100
0000
,
0010
0000
1000
0000
,
0001
0000
0100
0000
,
0110
0001
0000
1000
,
0110
1000
0000
0001
,
0110
0100
0000
0010
,
1000
1000
0001
0001
,
1001
0010
0000
0100
,
1001
0100
0000
0010
,
1001
1000
0000
0001
,
0010
0010
0100
0100
,
0110
0001
1000
0010
,
1001
0000
0000
0000
;

//---------------dance-single - ----------------
#NOTES:
     dance-single:
     :
     Medium:
     10:
     0.368496,0.351489,0.198421,0.170075,0.070865,182.000000,168.000000,14.000000,12.000000,0.000000,0.000000,0.368496,0.351489,0.198421,0.170075,0.070865,182.000000,168.000000,14.000000,12.000000,0.000000,0.000000:
0000
0000
0000
0000
,
0000
0000
0000
0000
,
0010
0001
0010
0001
0100
0000
1000
0000
,
0010
1000
0010
1000
0100
0010
0001
0000
,
1000
0001
0010
0001
1000
0000
0100
0000
,
0010
0001
0010
0001
1000
0001
0100
0000
,
0010
1000
0100
1000
0001
0000
0101
0000
,
0010
1000
0001
1000
0100
0010
0001
0000
,
1000
0010
0100
0010
1000
0000
1100
0000
,
0001
0000
0000
0000
0000
0000
0000
0000
0000
1001
0000
0000
1001
0000
0000
0000
,
0010
0100
0010
0100
0001
0000
1010
0000
,
1000
0100
0010
0100
0010
0100
1000
0000
,
0001
1000
0010
1000
0100
0000
1100
0000
,
0001
0000
0000
0000
0000
0000
0000
0000
0000
1001
0000
0000
1001
0000
0000
0000
,
0010
1000
0100
1000
0010
0100
0001
0000
,
1000
0001
1000
0000
0020
0100
0130
0000
,
0001
0010
0001
0100
0010
1000
0001
0000
,
1000
0001
0010
0000
0002
1000
1003
0000
,
0020
0000
1030
0100
0001
0100
1000
0000
,
0001
1000
0010
0000
0200
0001
0301
0000
,
2000
0000
3001
0010
1000
0010
0001
0000
,
0100
0010
0100
0001
2000
0000
3000
0000
,
1010
0000
0000
0002
0000
0000
0000
0000
0000
0000
0103
0000
0010
0000
1000
0000
,
0001
0000
0000
0020
0000
0000
0000
0000
0000
0030
0001
0000
0100
0000
1000
0000
,
0010
0000
0000
0200
0000
0000
0000
0000
0000
0000
0301
0000
1000
0000
0000
0000
,
0010
0000
0000
1000
0000
0000
0100
0000
0000
0010
0000
0000
0001
0000
0000
0000
,
0011
0002
1000
0000
0100
0100
0103
0000
,
0110
0020
1000
0000
0100
0100
0130
0000
,
0101
0200
0010
0000
0001
0001
0301
0000
,
1000
0000
0000
0001
0000
0000
0010
0000
0000
0001
0000
0000
0100
0000
0000
0000
,
1001
0100
0010
0000
1000
0100
0001
0000
,
0110
0000
0000
0000
;

//---------------dance-single - ----------------
#NOTES:
     dance-single:
     :
     Hard:
     13:
     0.540596,0.527233,0.141729,0.141729,0.524399,267.000000,257.000000,10.000000,10.000000,0.000000,0.000000,0.540596,0.527233,0.141729,0.141729,0.524399,267.000000,257.000000,10.000000,10.000000,0.000000,0.000000:
0000
0000
0000
0000
,
0000
0000
0000
0000
,
0010
0000
0001
0000
0001
0000
0010
0000
0001
1000
0000
0000
0100
0000
0000
0000
,
0010
0001
0001
0010
0001
0100
1000
1000
,
1000
0000
0010
0000
0010
0000
0100
0000
0010
1000
0000
0000
0001
0000
0000
0000
,
0010
0001
0000
0100
0000
0000
0010
1000
0000
0100
1000
0000
0000
0000
0001
0000
,
0100
0000
0010
0000
0010
0000
0100
0000
0001
1000
0000
0000
0101
0000
0000
0000
,
0010
0000
1000
0001
1000
0000
0100
0000
0010
0000
0001
0000
0010
0100
1000
0000
,
0001
0000
0100
0000
0100
0000
0010
0000
0100
0001
0000
0000
1010
0000
0000
0000
,
0001
1000
0000
0010
0000
0000
1000
0100
0000
0010
0000
0000
0001
1000
0000
0000
,
0010
0000
0100
0001
0100
0000
0010
0000
1000
0001
0000
0000
1000
0100
0000
0000
,
0010
0000
0001
0100
0001
0000
0010
0000
1000
0000
0010
0000
0001
0000
0100
0000
,
0010
0000
1000
0100
1000
0000
0001
0000
0100
0010
0000
0000
0100
0001
0000
0000
,
0010
0100
0000
1000
0000
0000
0001
1000
0000
0010
0000
0000
0100
0001
0000
0000
,
1000
0010
1000
0000
0100
0000
0010
0000
0110
0000
0001
0000
0100
0010
1000
0000
,
0001
0000
0100
0000
0010
1000
0010
1000
0002
0000
0100
0000
0103
0000
0000
0000
,
0010
0000
1000
0000
0100
0010
0100
0010
0001
0000
0100
0000
1001
0000
0010
0000
,
1000
0000
0001
0000
1000
0010
1000
0010
0200
0000
0001
0000
0301
0000
0000
0000
,
0010
0000
0001
0000
1000
0010
0100
0010
1000
0000
0001
0000
1010
0000
0100
0000
,
0001
0000
0010
0000
0101
0000
0100
0010
2000
0000
0001
0000
3001
0000
0000
0000
,
1000
0000
0100
0000
0010
0001
1000
0001
0010
0000
0100
0000
1100
0000
0001
0000
,
0100
0000
0000
0000
0010
1000
0001
0000
0020
0000
0000
0000
0030
0000
0000
0000
,
0110
0000
1000
0002
0100
0000
0000
0000
0000
0000
0013
0000
0001
0100
0010
1000
,
0100
0000
1000
0002
0010
0000
0000
0000
0000
0000
0103
0000
0010
0100
0001
1000
,
0010
0000
1000
0200
0001
0000
0000
0000
0000
0310
0100
0000
1001
0000
0000
0000
,
0100
0001
0000
0001
0100
0000
0010
1000
0000
1000
0010
0000
0100
0001
1000
0010
,
0100
0000
0001
2000
0100
0000
0000
0100
0000
0000
3001
0000
1000
0010
0100
0001
,
0010
0000
0001
0200
1000
0000
0000
0001
0000
0000
0310
0000
0100
0001
1000
0010
,
0100
0000
0001
0020
0100
0000
0000
1000
0000
0000
0031
0000
0010
0100
1000
0000
,
0001
0010
0000
0010
0100
0000
0100
1000
0000
1000
0001
0000
0100
0010
1000
0001
,
0100
0000
0010
0000
1000
0000
0001
0100
0010
0100
0001
0000
1000
0000
0001
0000
,
0011
0000
0000
0000
;

//---------------dance-single - ----------------
#NOTES:
     dance-single:
     :
     Beginner:
     2:
     0.093136,0.131808,0.113384,0.056692,0.000000,46.000000,38.000000,8.000000,4.000000,0.000000,0.000000,0.093136,0.131808,0.113384,0.056692,0.000000,46.000000,38.000000,8.000000,4.000000,0.000000,0.000000:
// measure 0
0000
0000
0000
0000
,  // measure 1
0000
0000
0000
0000
,  // measure 2
0010
0000
0000
0000
,  // measure 3
0100
0000
0000
0000
,  // measure 4
0001
0000
0000
0000
,  // measure 5
1000
0000
0000
0000
,  // measure 6
0001
0000
0001
0000
,  // measure 7
1000
0000
1000
0000
,  // measure 8
0001
0000
1000
0000
,  // measure 9
1001
0000
0000
0000
,  // measure 10
0010
0000
0010
0000
,  // measure 11
0100
0000
0100
0000
,  // measure 12
0010
0000
0100
0000
,  // measure 13
0110
0000
0000
0000
,  // measure 14
0002
0000
0000
0000
,  // measure 15
0003
0000
1000
0000
,  // measure 16
2000
0000
0000
0000
,  // measure 17
3000
0000
0010
0000
,  // measure 18
0020
0000
0000
0000
,  // measure 19
0030
0000
0100
0000
,  // measure 20
0200
0000
0000
0000
,  // measure 21
0300
0000
0001
0000
,  // measure 22
1001
0000
0000
0000
,  // measure 23
1001
0000
0000
0000
,  // measure 24
1001
0000
0000
0000
,  // measure 25
0010
0000
1000
0000
,  // measure 26
0110
0000
0000
0000
,  // measure 27
0110
0000
0000
0000
,  // measure 28
0110
0000
0000
0000
,  // measure 29
0001
0000
0100
0000
,  // measure 30
0001
0000
0000
0000
,  // measure 31
1000
0000
0000
0000
;
