#VERSION:0.83;
#TITLE:gentle stress;
#SUBTITLE:;
#ARTIST:DJ Swan;
#TITLETRANSLIT:;
#SUBTITLETRANSLIT:;
#ARTISTTRANSLIT:;
#GENRE:;
#ORIGIN:;
#CREDIT:;
#BANNER:gentle stress-bn.png;
#BACKGROUND:gentle stress-bg.png;
#PREVIEWVID:;
#JACKET:gentle stress-jacket.png;
#CDIMAGE:;
#DISCIMAGE:;
#LYRICSPATH:;
#CDTITLE:;
#MUSIC:gentle stress.ogg;
#OFFSET:0.000000;
#SAMPLESTART:53.480000;
#SAMPLELENGTH:20.000000;
#SELECTABLE:YES;
#DISPLAYBPM:175.000000;
#BPMS:0.000=175.020;
#STOPS:;
#DELAYS:;
#WARPS:;
#TIMESIGNATURES:0.000=4=4;
#TICKCOUNTS:0.000=4;
#COMBOS:0.000=1;
#SPEEDS:0.000=1.000=0.000=0;
#SCROLLS:0.000=1.000;
#FAKES:;
#LABELS:0.000=Song Start;
#BGCHANGES:;
#KEYSOUNDS:;
#ATTACKS:
;

//---------------dance-single - ----------------
#NOTEDATA:;
#CHARTNAME:;
#STEPSTYPE:dance-single;
#DESCRIPTION:;
#CHARTSTYLE:;
#DIFFICULTY:Easy;
#METER:9;
#RADARVALUES:0.304313,0.442830,0.143932,0.000000,0.000000,222.000000,207.000000,15.000000,0.000000,0.000000,0.000000,0.000000,0.000000,0.000000,0.304313,0.442830,0.143932,0.000000,0.000000,222.000000,207.000000,15.000000,0.000000,0.000000,0.000000,0.000000,0.000000,0.000000;
#CREDIT:;
#DISPLAYBPM:175.000000;
#NOTES:
0000
0000
0000
0000
,
0000
0000
0000
0000
,
0000
0000
0000
0000
,
0000
0000
0000
0000
,
0000
0000
0000
0000
,
0001
0000
0000
0000
0000
0001
0000
0000
,
0001
0000
0000
0000
0000
0001
0000
0000
,
1000
0000
0000
0000
0000
1000
0000
0000
,
1000
0000
0000
0000
0000
1000
0000
0000
,
0010
0000
0000
0000
0000
0010
0000
0000
,
0010
0000
0000
0000
0000
0010
0000
0000
,
1001
0000
0000
0000
0000
0001
0000
0000
,
0001
0000
0000
0000
0000
0001
0000
0000
,
1000
0000
0000
0000
0000
1000
0000
0000
,
1000
0000
0000
0000
0000
1000
0000
0000
,
0010
0000
0000
0000
0000
0010
0000
0000
,
0010
0000
0000
0000
0000
0010
0000
0000
,
0001
0000
0000
0000
0000
0001
0000
0000
,
0100
0000
0000
0000
0000
0100
0000
0000
,
0110
0000
1000
0000
0000
0001
0000
0000
,
0010
0000
0000
0100
0000
1000
0001
0000
,
0010
0000
0001
0000
0000
1000
0000
0000
,
0010
0000
0000
0100
0000
0001
0000
0000
,
0010
0000
1000
0000
0000
0100
0000
0000
,
0010
0000
0000
0100
0000
1000
0001
0000
,
0010
0000
0001
0000
0000
1000
0000
0000
,
0010
0000
0000
0100
0000
0001
1000
0000
,
0110
0000
1000
0000
0000
0001
0000
0000
,
0010
0000
0000
0100
0000
1000
0001
0000
,
0010
0000
0001
0000
0000
1000
0000
0000
,
0010
0000
0000
0100
0000
0001
0000
0000
,
0010
0000
1000
0000
0000
0100
0000
0000
,
0010
0000
0000
0100
0000
1000
0001
0000
,
0010
0000
0001
0000
0000
1000
0000
0000
,
0010
0000
0000
0100
0000
0001
1000
0000
,
0011
0000
0000
0000
,
0000
0000
0000
0000
,
0010
0010
0010
0010
,
0010
0010
0010
1010
,
1001
0000
0100
0000
0000
0010
0000
0000
,
1000
0000
0000
0001
0000
0000
0100
0000
,
0000
0000
0010
0000
0000
1000
0000
0000
,
0001
0000
0000
1000
0000
0000
0000
0000
,
0000
0000
0010
0000
0000
0100
0000
0000
,
0001
0000
0000
1000
0000
0000
0100
0000
,
0000
0000
0001
0000
0000
0010
0000
0000
,
1100
0000
0000
0000
,
1001
0000
0100
0000
0000
0010
0000
0000
,
1000
0000
0000
0001
0000
0000
0100
0000
,
0000
0000
0010
0000
0000
1000
0000
0000
,
0001
0000
0101
0000
0000
1010
0000
0000
,
1001
0000
0010
0000
0000
0100
0000
0000
,
0001
0000
0000
1000
0000
0000
0100
0000
,
0000
0000
0001
0000
0000
0010
0000
0000
,
1100
0000
0000
0000
,
1000
1000
0100
0100
1000
1000
0100
0100
,
1000
0100
1000
0100
0000
0000
0000
0000
,
0001
0001
0010
0010
0001
0001
0010
0010
,
0001
0010
0001
0010
0000
0000
0000
0000
,
0001
0000
0100
0000
0000
0010
0000
0000
,
1000
0000
0000
0010
0000
0000
0100
0000
,
0001
0001
0010
0010
0001
0001
0010
0010
,
0011
0000
0000
0000
,
1000
1000
0100
0100
1000
1000
0100
0100
,
1000
0100
1000
0100
0000
0000
0000
0000
,
0001
0001
0010
0010
0001
0001
0010
0010
,
0001
0010
0001
0010
0000
0000
0000
0000
,
1000
0000
0100
0000
0000
0010
0000
0000
,
0001
0000
0000
0010
0000
0000
0100
0000
,
0010
0010
0010
0010
,
0010
0010
0010
1010
,
0011
0000
0000
0000
;

//---------------dance-single - ----------------
#NOTEDATA:;
#CHARTNAME:;
#STEPSTYPE:dance-single;
#DESCRIPTION:;
#CHARTSTYLE:;
#DIFFICULTY:Medium;
#METER:10;
#RADARVALUES:0.437279,0.579086,0.278268,0.000000,0.000000,319.000000,290.000000,29.000000,0.000000,0.000000,0.000000,0.000000,0.000000,0.000000,0.437279,0.579086,0.278268,0.000000,0.000000,319.000000,290.000000,29.000000,0.000000,0.000000,0.000000,0.000000,0.000000,0.000000;
#CREDIT:;
#DISPLAYBPM:175.000000;
#NOTES:
0000
0000
0000
0000
,
0000
0000
0000
0000
,
0000
0000
0000
0000
,
0000
0000
0000
0000
,
0000
0000
0000
0000
,
0001
0000
0000
0000
0000
0001
0000
0000
,
0001
0000
0000
0000
0000
0001
0100
0001
,
1000
0000
0000
0000
0000
1000
0000
0000
,
1000
0000
0000
0000
0000
1000
0000
0100
,
0010
0000
0000
0000
0000
0010
0000
0000
,
0010
0000
0000
0000
0000
0010
0100
0010
,
1001
0000
0000
0000
0000
0001
0000
0000
,
0001
0000
0000
0000
0000
0001
0000
0001
,
1000
0000
0000
0000
0000
1000
0000
0000
,
1000
0000
0000
0000
0000
1000
0100
1000
,
0010
0000
0000
0000
0000
0010
0000
0000
,
0010
0000
0000
0000
0000
0010
0000
0010
,
0001
0000
0000
0000
0000
0001
0000
0000
,
0100
0000
0000
0000
0000
0100
1000
0001
,
0110
0000
1000
0000
0000
0001
0100
0000
,
0010
0000
0100
0100
0000
0001
1000
0000
,
0010
0000
0100
0000
0000
1000
0100
0000
,
0010
0000
0100
0100
0000
0100
0000
0000
,
0010
0000
1000
0000
0000
0001
0100
0000
,
0010
0000
0100
0100
0000
0001
1000
0000
,
0010
0000
0100
0000
0000
1000
0100
0000
,
0010
0000
0100
0100
0000
1000
0001
0000
,
0110
0000
1000
0000
0000
0001
0100
0000
,
0010
0000
0100
0100
0000
0001
1000
0000
,
0010
0000
0100
0000
0000
1000
0100
0000
,
0010
0000
0100
0100
0000
0100
0000
0000
,
0010
0000
1000
0000
0000
0001
0100
0000
,
0010
0000
0100
0100
0000
0001
1000
0000
,
0010
0000
0100
0000
0000
1000
0100
0000
,
0010
0000
0100
0100
0000
1000
0001
0000
,
0011
0000
0000
0000
,
0000
0000
0000
0000
,
0010
0001
1000
0010
0100
1000
0001
0100
,
0010
0001
1000
0010
0100
0000
1010
0000
,
1001
0000
0010
0000
1000
0001
0100
0000
,
0100
0000
1000
0010
0000
0001
0010
0000
,
0000
0000
0010
0000
0001
1000
0100
0000
,
0100
0000
0001
1000
0000
0000
0000
0000
,
1000
0000
0010
0000
0001
1000
0100
0000
,
0100
0000
0001
0010
0000
1000
0010
0000
,
0000
0000
0010
0000
0001
1000
0100
0000
,
0011
0000
0000
0100
0100
0000
0000
0000
,
1001
0000
0010
0000
1000
0001
0100
0000
,
0100
0000
1000
0010
0000
0001
0010
0000
,
0000
0000
0010
0000
0001
1000
0100
0000
,
0100
0000
0011
0100
0000
1010
0100
0000
,
1001
0000
0010
0000
0001
1000
0100
0000
,
0100
0000
0001
0010
0000
1000
0010
0000
,
0000
0000
0010
0000
0001
1000
0100
0000
,
0011
0000
0000
0100
0100
0000
0000
0000
,
1001
0100
0010
0001
1000
0100
0010
0001
,
1000
0100
0010
0001
0000
0100
1000
0000
,
0001
0010
0100
1000
0001
0010
0100
1000
,
0001
0010
0100
1000
0000
0100
0001
0000
,
0011
0000
1100
0000
0000
0110
0000
0000
,
1010
0000
0000
0101
0000
0000
1100
0000
,
0001
0010
0100
1000
0001
0010
0100
1000
,
0011
0000
1000
0100
0100
0000
0001
0000
,
1010
0100
0010
0001
1000
0100
0010
0001
,
1000
0100
0010
0001
0000
0100
1000
0000
,
0001
0010
0100
1000
0001
0010
0100
1000
,
0001
0010
0100
1000
0000
0100
0001
0000
,
1010
0000
0101
0000
0000
0110
0000
0000
,
0101
0000
0000
1010
0000
0000
0101
0000
,
0010
0001
1000
0010
0100
1000
0001
0100
,
0010
0001
1000
0010
0100
0000
0011
0000
,
1010
0000
0000
0000
;

//---------------dance-single - ----------------
#NOTEDATA:;
#CHARTNAME:;
#STEPSTYPE:dance-single;
#DESCRIPTION:;
#CHARTSTYLE:;
#DIFFICULTY:Hard;
#METER:12;
#RADARVALUES:0.509930,0.579086,0.374223,0.000000,0.000000,372.000000,333.000000,39.000000,0.000000,0.000000,0.000000,0.000000,0.000000,0.000000,0.509930,0.579086,0.374223,0.000000,0.000000,372.000000,333.000000,39.000000,0.000000,0.000000,0.000000,0.000000,0.000000,0.000000;
#CREDIT:;
#DISPLAYBPM:175.000000;
#NOTES:
0000
0000
0000
0000
,
0000
0000
0000
0000
,
0000
0000
0000
0000
,
0000
0000
0000
0000
,
0000
0000
0000
0000
,
0001
0000
0000
0000
0000
0100
0000
0000
,
0001
0000
0000
0000
0000
0100
0100
0001
,
1000
0000
0000
0000
0000
0100
0000
0000
,
1000
0000
0000
0000
0000
0100
0000
0100
,
0010
0000
0000
0000
0000
0100
0000
0000
,
0010
0000
0000
0000
0000
0100
0100
0010
,
1001
0000
0100
0000
0001
0010
0000
0000
,
1000
0000
0010
0000
0001
0100
0000
0000
,
1010
0000
0100
0000
0001
0010
0000
0000
,
1000
0000
0010
0000
0001
0100
0000
0000
,
0101
0000
0100
0000
1000
0010
0000
0000
,
0001
0000
0010
0000
1000
0100
0000
0000
,
1010
0000
0100
0000
1000
0010
0000
0000
,
0001
0000
0010
0000
1000
0100
0100
0000
,
0110
0000
1000
0000
0000
0001
0100
0000
,
0010
0000
0001
0100
0000
0001
1000
0000
,
0011
0000
0100
0000
0000
1000
0100
0000
,
0010
0000
0100
0001
0000
1000
0100
0000
,
0011
0000
1000
0000
0000
0001
0100
0000
,
0010
0000
1000
0100
0000
0001
1000
0000
,
0011
0000
0100
0000
0000
1000
0100
0000
,
1010
0000
0100
0001
0000
1000
0001
0000
,
0110
0000
1000
0000
0000
0001
0100
0000
,
0010
0000
1000
0100
0000
0001
1000
0000
,
0011
0000
0100
0000
0000
1000
0100
0000
,
0010
0000
1000
0100
0000
0010
0000
1000
,
0011
0000
1000
0000
0000
0001
0100
0000
,
0010
0000
1000
0100
0000
0001
1000
0000
,
0011
0000
0100
0000
0000
1000
0100
0000
,
0010
0001
1000
0100
0000
0001
0100
0000
,
0011
0000
0000
0000
0000
0100
0000
0000
,
1000
1000
1000
1000
,
0001
0001
1000
0100
1000
1000
0001
0100
,
0010
1000
0001
0010
0100
0000
1010
0000
,
1001
1000
0100
0001
0001
0100
0000
0010
,
0100
0000
1000
0010
0000
0001
0100
0000
,
0001
0001
0100
1000
1000
0100
0000
0001
,
0010
0000
1000
0001
0000
0000
0000
0000
,
1000
1000
0100
0001
0001
0100
0000
0010
,
0100
0000
1000
0010
0000
0001
0100
0000
,
0001
0001
0100
1000
1000
0100
0000
1000
,
0011
0000
0000
0100
0100
0000
0000
0000
,
1001
1000
0010
0001
0001
0100
0000
0010
,
0100
0000
1000
0010
0000
0001
0100
0000
,
0001
0001
0100
1000
1000
0100
0000
0001
,
0010
0000
0011
0100
0000
1010
0100
0000
,
1001
1000
0100
0001
0001
0100
0000
0010
,
0100
0000
1000
0010
0000
0001
0100
0000
,
0001
0001
0100
1000
1000
0100
0000
1000
,
0011
0000
0000
0100
0100
0000
0000
0000
,
1001
0100
0010
0100
0001
1000
0010
0100
,
0010
0001
1000
0001
0000
0100
1000
0000
,
0001
0010
0100
0010
1000
0001
0100
0010
,
0100
1000
0001
1000
0000
0100
0001
0000
,
0011
0000
1100
0000
0000
0110
0000
0000
,
1010
0000
0000
0101
0000
0000
1100
0000
,
1000
0001
0100
0100
0001
1000
0100
0100
,
0011
0000
1000
0100
0100
0000
0001
0000
,
1010
1000
0100
0001
1000
1000
0100
0001
,
1000
0001
0100
0010
0000
0100
1000
0000
,
0001
0001
0100
1000
0001
0001
0100
1000
,
0001
1000
0100
0010
0000
0100
0001
0000
,
1010
0000
0101
0100
0000
0110
0100
0000
,
0101
0100
0000
1010
0100
0000
0101
0000
,
0010
0010
0100
1000
0010
0010
0100
0001
,
0010
0010
1000
0001
0100
0000
0011
0000
,
1010
0000
0000
0000
;

//---------------dance-double - ----------------
#NOTEDATA:;
#CHARTNAME:;
#STEPSTYPE:dance-double;
#DESCRIPTION:;
#CHARTSTYLE:;
#DIFFICULTY:Easy;
#METER:9;
#RADARVALUES:0.304313,0.442830,0.143932,0.000000,0.000000,222.000000,207.000000,15.000000,0.000000,0.000000,0.000000,0.000000,0.000000,0.000000,0.304313,0.442830,0.143932,0.000000,0.000000,222.000000,207.000000,15.000000,0.000000,0.000000,0.000000,0.000000,0.000000,0.000000;
#CREDIT:;
#DISPLAYBPM:175.000000;
#NOTES:
00000000
00000000
00000000
00000000
,
00000000
00000000
00000000
00000000
,
00000000
00000000
00000000
00000000
,
00000000
00000000
00000000
00000000
,
00000000
00000000
00000000
00000000
,
00010000
00000000
00000000
00000000
00000000
00010000
00000000
00000000
,
00010000
00000000
00000000
00000000
00000000
00010000
00000000
00000000
,
00001000
00000000
00000000
00000000
00000000
00001000
00000000
00000000
,
00001000
00000000
00000000
00000000
00000000
00001000
00000000
00000000
,
00100000
00000000
00000000
00000000
00000000
00100000
00000000
00000000
,
00100000
00000000
00000000
00000000
00000000
00100000
00000000
00000000
,
00011000
00000000
00000000
00000000
00000000
00010000
00000000
00000000
,
00010000
00000000
00000000
00000000
00000000
00010000
00000000
00000000
,
00001000
00000000
00000000
00000000
00000000
00001000
00000000
00000000
,
00001000
00000000
00000000
00000000
00000000
00001000
00000000
00000000
,
00100000
00000000
00000000
00000000
00000000
00100000
00000000
00000000
,
00100000
00000000
00000000
00000000
00000000
00100000
00000000
00000000
,
00010000
00000000
00000000
00000000
00000000
00010000
00000000
00000000
,
01000000
00000000
00000000
00000000
00000000
01000000
00000000
00000000
,
01100000
00000000
10000000
00000000
00000000
00010000
00000000
00000000
,
00100000
00000000
00000000
01000000
00000000
10000000
00010000
00000000
,
00100000
00000000
00010000
00000000
00000000
10000000
00000000
00000000
,
00100000
00000000
00000000
01000000
00000000
00010000
00000000
00000000
,
00001000
00000000
00000010
00000000
00000000
00000100
00000000
00000000
,
00000010
00000000
00000000
00000100
00000000
00000001
00001000
00000000
,
00000010
00000000
00000001
00000000
00000000
00001000
00000000
00000000
,
00000010
00000000
00000000
00000100
00000000
00000001
00001000
00000000
,
00000110
00000000
00001000
00000000
00000000
00000001
00000000
00000000
,
00000010
00000000
00000000
00000100
00000000
00001000
00000001
00000000
,
00000010
00000000
00000001
00000000
00000000
00001000
00000000
00000000
,
00000010
00000000
00000000
00000100
00000000
00001000
00000000
00000000
,
00100000
00000000
00010000
00000000
00000000
01000000
00000000
00000000
,
00100000
00000000
00000000
01000000
00000000
00010000
10000000
00000000
,
00100000
00000000
10000000
00000000
00000000
00010000
00000000
00000000
,
00100000
00000000
00000000
01000000
00000000
10000000
00010000
00000000
,
00110000
00000000
00000000
00000000
,
00000000
00000000
00000000
00000000
,
00010000
00010000
00010000
00010000
,
00010000
00010000
00010000
00010010
,
00000101
00000000
00001000
00000000
00000000
00010000
00000000
00000000
,
00100000
00000000
00000000
10000000
00000000
00000000
01000000
00000000
,
00000000
00000000
00010000
00000000
00000000
00000010
00000000
00000000
,
00000100
00000000
00000000
00000001
00000000
00000000
00000000
00000000
,
00000000
00000000
00001000
00000000
00000000
00010000
00000000
00000000
,
00100000
00000000
00000000
10000000
00000000
00000000
01000000
00000000
,
00000000
00000000
00010000
00000000
00000000
00000010
00000000
00000000
,
00000101
00000000
00000000
00000000
,
00001001
00000000
00000100
00000000
00000000
00010000
00000000
00000000
,
00100000
00000000
00000000
10000000
00000000
00000000
01000000
00000000
,
00000000
00000000
00010000
00000000
00000000
00001000
00000000
00000000
,
00000100
00000000
00000101
00000000
00000000
00001010
00000000
00000000
,
00011000
00000000
00100000
00000000
00000000
01000000
00000000
00000000
,
00010000
00000000
00000000
00001000
00000000
00000000
00000100
00000000
,
00000000
00000000
00000001
00000000
00000000
00001000
00000000
00000000
,
00011000
00000000
00000000
00000000
,
00100000
00100000
00010000
00010000
00100000
00100000
00010000
00010000
,
00100000
00010000
00100000
00010000
00000000
00000000
00000000
00000000
,
10000000
10000000
01000000
01000000
10000000
10000000
01000000
01000000
,
10000000
01000000
10000000
01000000
00000000
00000000
00000000
00000000
,
00010000
00000000
00000100
00000000
00000000
00000010
00000000
00000000
,
00001000
00000000
00000000
00000010
00000000
00000000
00010000
00000000
,
00001000
00001000
00010000
00010000
00001000
00001000
00010000
00010000
,
00011000
00000000
00000000
00000000
,
00000010
00000010
00001000
00001000
00000010
00000010
00001000
00001000
,
00000010
00001000
00000010
00001000
00000000
00000000
00000000
00000000
,
00000001
00000001
00000100
00000100
00000001
00000001
00000100
00000100
,
00000001
00000100
00000001
00000100
00000000
00000000
00000000
00000000
,
00001000
00000000
01000000
00000000
00000000
00100000
00000000
00000000
,
00010000
00000000
00000000
00100000
00000000
00000000
00001000
00000000
,
00010000
00010000
00010000
00010000
,
00010000
00010000
00010000
00010100
,
01001000
00000000
00000000
00000000
;

//---------------dance-double - ----------------
#NOTEDATA:;
#CHARTNAME:;
#STEPSTYPE:dance-double;
#DESCRIPTION:;
#CHARTSTYLE:;
#DIFFICULTY:Medium;
#METER:10;
#RADARVALUES:0.437279,0.579086,0.278268,0.000000,0.000000,319.000000,290.000000,29.000000,0.000000,0.000000,0.000000,0.000000,0.000000,0.000000,0.437279,0.579086,0.278268,0.000000,0.000000,319.000000,290.000000,29.000000,0.000000,0.000000,0.000000,0.000000,0.000000,0.000000;
#CREDIT:;
#DISPLAYBPM:175.000000;
#NOTES:
00000000
00000000
00000000
00000000
,
00000000
00000000
00000000
00000000
,
00000000
00000000
00000000
00000000
,
00000000
00000000
00000000
00000000
,
00000000
00000000
00000000
00000000
,
10000000
00000000
00000000
00000000
00000000
01000000
00000000
00000000
,
10000000
00000000
00000000
00000000
00000000
01000000
00010000
00010000
,
00001000
00000000
00000000
00000000
00000000
00010000
00000000
00000000
,
00001000
00000000
00000000
00000000
00000000
00010000
00000000
00001000
,
00100000
00000000
00000000
00000000
00000000
00010000
00000000
00000000
,
00100000
00000000
00000000
00000000
00000000
00010000
00100000
00010000
,
00011000
00000000
00000000
00000000
00000000
00001000
00000000
00000000
,
00010000
00000000
00000000
00000000
00000000
00001000
00000000
00010000
,
00001000
00000000
00000000
00000000
00000000
00000100
00000000
00000000
,
00001000
00000000
00000000
00000000
00000000
00000100
00010000
00001000
,
00100000
00000000
00000000
00000000
00000000
00010000
00000000
00000000
,
00100000
00000000
00000000
00000000
00000000
00010000
00000000
00100000
,
00010000
00000000
00000000
00000000
00000000
10000000
00000000
00000000
,
01000000
00000000
00000000
00000000
00000000
00100000
10000000
00010000
,
01100000
00000000
10000000
00000000
00000000
00010000
01000000
00000000
,
00100000
00000000
01000000
01000000
00000000
10000000
00010000
00000000
,
00100000
00000000
00010000
00000000
00000000
10000000
01000000
00000000
,
00100000
00000000
01000000
01000000
00000000
00010000
00000000
00000000
,
00001000
00000000
00000010
00000000
00000000
00000100
00000001
00000000
,
00000010
00000000
00000100
00000100
00000000
00000001
00001000
00000000
,
00000010
00000000
00000001
00000000
00000000
00001000
00000100
00000000
,
00000010
00000000
00000100
00000100
00000000
00000001
00001000
00000000
,
00000110
00000000
00001000
00000000
00000000
00000001
00000100
00000000
,
00000010
00000000
00000100
00000100
00000000
00001000
00000001
00000000
,
00000010
00000000
00000001
00000000
00000000
00001000
00000100
00000000
,
00000010
00000000
00000100
00000100
00000000
00001000
00000000
00000000
,
00100000
00000000
00010000
00000000
00000000
01000000
00010000
00000000
,
00100000
00000000
01000000
01000000
00000000
00010000
10000000
00000000
,
00100000
00000000
10000000
00000000
00000000
00010000
01000000
00000000
,
00100000
00000000
01000000
01000000
00000000
10000000
00010000
00000000
,
00110000
00000000
00000000
00000000
,
00000000
00000000
00000000
00000000
,
00010000
01000000
00001000
00010000
00000100
00010000
00001000
01000000
,
00100000
10000000
01000000
00100000
00010000
00000000
00010010
00000000
,
00000101
00000000
00001000
00000000
00010000
00010000
00010000
00000000
,
00100000
00000000
10000000
00100000
00000000
10000000
01000000
00000000
,
00000000
00000000
00010000
00000000
00001000
00001000
00001000
00000000
,
00000010
00000000
00000001
00000100
00000000
00000000
00000000
00000000
,
00000100
00000000
00001000
00000000
00010000
00010000
00010000
00000000
,
00100000
00000000
10000000
00100000
00000000
10000000
01000000
00000000
,
00000000
00000000
00010000
00000000
00001000
00001000
00001000
00000000
,
00000011
00000000
00000000
00000100
00000100
00000000
00000000
00000000
,
00001001
00000000
00001000
00000000
00010000
00010000
00010000
00000000
,
00100000
00000000
10000000
00100000
00000000
10000000
01000000
00000000
,
00000000
00000000
00010000
00000000
00001000
00001000
00001000
00000000
,
00000100
00000000
00000101
00001000
00000000
00011000
01000000
00000000
,
11000000
00000000
00100000
00000000
00001000
00010000
00001000
00000000
,
00000010
00000000
00000100
00001000
00000000
00000001
00000100
00000000
,
00000000
00000000
00000010
00000000
00010000
00001000
00010000
00000000
,
00011000
00000000
00000000
00001000
00001000
00000000
00000000
00000000
,
10010000
01000000
00100000
00010000
10000000
01000000
00100000
00010000
,
10000000
01000000
00100000
00010000
00000000
00001000
00000010
00000000
,
00000001
00000010
00000100
00001000
00000001
00000010
00000100
00001000
,
00000001
00000010
00000100
00001000
00000000
00010000
00100000
00000000
,
11000000
00000000
00110000
00000000
00000000
00011000
00000000
00000000
,
00001010
00000000
00000000
00000101
00000000
00000000
00011000
00000000
,
00100000
00001000
00010000
00000100
00010000
00001000
00100000
00001000
,
00011000
00000000
00010000
00001000
00001000
00000000
00010000
00000000
,
00001100
00000100
00000010
00000001
00001000
00000100
00000010
00000001
,
00001000
00000100
00000010
00000001
00000000
00000100
00001000
00000000
,
00010000
00100000
01000000
10000000
00010000
00100000
01000000
10000000
,
00010000
00100000
01000000
10000000
00000000
00100000
00010000
00000000
,
11000000
00000000
00110000
00000000
00000000
00011000
00000000
00000000
,
00001010
00000000
00000000
00000101
00000000
00000000
00011000
00000000
,
00001000
01000000
00001000
00010000
00000100
00010000
00001000
01000000
,
00100000
10000000
01000000
00100000
00010000
00000000
00001010
00000000
,
00000101
00000000
00000000
00000000
;

//---------------dance-single - ----------------
#NOTEDATA:;
#CHARTNAME:;
#STEPSTYPE:dance-single;
#DESCRIPTION:;
#CHARTSTYLE:;
#DIFFICULTY:Beginner;
#METER:4;
#RADARVALUES:0.163123,0.306575,0.028786,0.000000,0.000000,119.000000,116.000000,3.000000,0.000000,0.000000,0.000000,0.000000,0.000000,0.000000,0.163123,0.306575,0.028786,0.000000,0.000000,119.000000,116.000000,3.000000,0.000000,0.000000,0.000000,0.000000,0.000000,0.000000;
#CREDIT:;
#DISPLAYBPM:175.000000;
#NOTES:
0000
0000
0000
0000
,
0000
0000
0000
0000
,
0000
0000
0000
0000
,
0000
0000
0000
0000
,
0000
0000
0000
0000
,
0001
0000
0000
0000
,
0000
0000
0000
0000
,
1000
0000
0000
0000
,
0000
0000
0000
0000
,
0010
0000
0000
0000
,
0100
0000
0000
0000
,
0010
0000
0000
0000
,
0000
0000
0000
0000
,
1000
0000
0000
0000
,
0000
0000
0000
0000
,
0001
0000
0000
0000
,
0000
0000
0000
0000
,
0010
0000
0000
0000
,
0100
0000
0000
0000
,
1000
0000
0000
0000
,
0000
0001
0000
0001
,
0001
0000
0000
0000
,
0000
0100
0000
0100
,
0100
0000
0000
0000
,
0000
0000
0000
0000
,
0010
0000
0000
1000
,
1000
0000
0001
0000
,
1000
0000
0000
0100
,
0100
0000
0010
0000
,
0100
0000
0000
1000
,
1000
0000
0001
0001
,
0001
0000
0000
0000
,
0100
0000
0010
0000
,
0100
0000
0000
0001
,
0001
0000
1000
0000
,
0010
0000
0000
0000
,
0000
0000
0000
0000
,
1000
1000
1000
1000
,
1000
1000
1000
0000
,
0001
0001
0001
0000
,
0010
0000
0100
0000
,
1000
1000
1000
0000
,
0001
0000
0100
0000
,
0010
0010
0010
0000
,
1000
0000
0001
0000
,
0100
0100
0100
0000
,
0110
0000
0000
0000
,
1000
1000
1000
0000
,
0100
0000
0010
0000
,
0001
0001
0001
0000
,
1000
1000
0000
0001
,
0001
0000
0100
0000
,
0010
0000
1000
0000
,
0100
0100
0100
0000
,
0110
0000
0000
0000
,
0001
0000
1000
0000
,
0001
0001
0000
0000
,
0100
0000
0010
0000
,
0100
0100
0000
0000
,
0000
0010
0000
0000
,
1000
0000
0001
0000
,
0010
0010
0010
0010
,
0000
0000
0000
0000
,
0100
0000
0100
0000
,
1000
1000
0000
0000
,
0001
0000
0001
0000
,
0100
0100
0000
0000
,
0000
0010
0000
0000
,
1000
0000
0001
0000
,
0100
0100
0100
0100
,
0100
0100
0100
0000
,
0110
0000
0000
0000
;

//---------------dance-single - ----------------
#NOTEDATA:;
#CHARTNAME:;
#STEPSTYPE:dance-single;
#DESCRIPTION:;
#CHARTSTYLE:;
#DIFFICULTY:Challenge;
#METER:13;
#RADARVALUES:0.673053,0.715341,0.662086,0.575727,0.158325,491.000000,422.000000,69.000000,60.000000,0.000000,0.000000,0.000000,0.000000,0.000000,0.673053,0.715341,0.662086,0.575727,0.158325,491.000000,422.000000,69.000000,60.000000,0.000000,0.000000,0.000000,0.000000,0.000000;
#CREDIT:;
#DISPLAYBPM:175.000000;
#NOTES:
0000
0000
0000
0000
,
0000
0000
0000
0000
,
0000
0000
0000
0000
,
0000
0000
0000
0000
,
0000
0000
0000
0000
,
0001
0000
0100
0000
0000
0010
1000
0001
,
1000
0100
0010
0001
0000
0100
0000
0010
,
1000
0000
0100
0000
0000
1000
0001
0010
,
0001
0100
0010
1000
0000
0001
0010
0100
,
1000
0000
0001
0000
0010
0001
1000
0010
,
0100
0000
0001
0010
0001
1000
0100
0010
,
1001
0000
0100
0000
0001
0010
1000
0000
,
0100
0100
0100
0000
1000
0001
1000
0100
,
0011
0000
1000
0000
0001
0010
0100
1000
,
0020
0000
0000
0230
0000
0000
0302
0000
0000
0000
1003
0000
0010
0000
0100
0000
,
1010
0000
0001
0000
0010
0100
1000
0000
,
0001
0001
0001
0000
1000
0010
1000
0001
,
1100
0000
0010
0000
0001
0100
0001
1000
,
0101
0010
0100
0010
1000
0100
0001
0000
,
1001
0000
0000
0000
0010
0000
1000
0000
0100
0000
0001
0000
1000
0001
0000
0000
,
0010
0000
0001
1010
0000
0100
0011
0000
,
0101
0000
0000
0000
1000
0000
0010
0100
0010
0000
1000
0000
0001
0000
0100
0000
,
0100
0000
0010
1100
0000
0001
1010
0000
,
0110
0000
0000
0000
1000
0000
0001
0010
0001
0000
0100
0000
1000
0000
0010
0000
,
0010
0000
0000
0000
0100
0000
0001
0010
0001
0000
0100
0000
1000
0000
0010
0000
,
0101
0000
0000
0000
1000
0000
0010
0100
0010
0000
1000
0000
0001
0000
0000
0000
,
1020
0000
0130
0000
0012
1000
1003
0000
,
1001
0000
0010
0000
1000
0100
0001
0000
,
0011
0000
1000
1100
0001
0100
1010
0000
,
0101
0000
0000
0000
0010
0000
1000
0001
1000
0000
0100
0000
0100
0000
0000
0000
,
0110
0000
0000
0000
0000
0000
0001
1000
0002
0000
0000
0023
0000
0000
0130
0000
,
1100
0000
0000
0000
0001
0000
0010
0100
0010
0000
0001
0000
1000
0000
0000
0000
,
0110
0000
1000
1010
0000
0001
0101
0000
,
1100
0000
0010
0000
0001
0000
1000
0010
1000
0000
0001
0000
0100
0000
0000
0000
,
0210
0001
0301
1000
0201
0010
0310
0000
,
2010
0000
0001
0000
0001
0001
0001
0000
,
0001
0001
0001
0000
0001
0001
3001
0000
,
0020
2030
3200
0302
0023
2030
3200
0302
,
0023
2030
3200
0302
0013
0000
1010
0000
,
1001
0000
0100
0000
0010
0000
1000
0001
0000
0000
0100
0000
0000
0000
0010
0000
,
2000
0000
3001
0200
0000
0301
0020
0000
,
0130
1000
0100
0000
0010
0000
0001
1000
0000
0000
0010
0000
0000
0000
0100
0000
,
0002
0000
0000
0000
0013
0000
2000
0000
0000
0000
0001
0000
0001
3000
0000
0000
,
0100
0010
0100
0000
1000
0000
0001
0100
0000
0000
0010
0000
0000
0000
1000
0000
,
0002
0000
0013
0200
0000
1300
0020
0000
,
0130
0001
0100
0000
0010
0000
1000
0001
0000
0000
0010
0000
0000
0000
0100
0000
,
2100
0000
0000
0000
0001
0000
0000
0000
3010
0100
0010
0000
1000
0000
0000
0000
,
1001
0000
0010
0000
0001
0000
0100
0010
0000
0100
0010
0000
0000
0000
1000
0000
,
0200
0000
0310
0002
0000
1003
0020
0000
,
1030
0001
1000
0000
0010
0000
0100
0001
0000
0100
0001
0000
0000
0000
0010
0000
,
0100
0000
0011
1000
0000
0101
0010
0000
,
1001
0000
0010
0000
1000
0000
0001
0100
0000
0001
0100
0000
0000
0000
0010
0000
,
2000
0000
3001
0020
0000
1030
0200
0000
,
0301
1000
0001
0000
0010
0000
0100
1000
0000
0100
1000
0000
0000
0000
0001
0000
,
1020
0000
0000
0000
0001
0000
0000
0000
1030
0100
1000
0000
0010
0000
0000
0000
,
0110
0001
0100
1000
1010
0100
0001
1000
,
1100
0010
0001
0101
0000
1000
1000
0000
,
1001
0010
1000
0100
0110
0010
0001
0100
,
0101
0000
0010
0000
1000
0000
1100
0000
0000
0000
0001
0000
0001
0000
0100
0010
,
0100
0000
0000
0000
2020
0000
0000
3030
0000
0000
0202
0000
0000
0303
0000
0000
,
0022
0000
0000
0033
0000
0000
2200
0000
0000
3300
0000
0000
0202
0000
0000
0303
,
1001
0010
1000
0100
0011
1000
0001
0100
,
1020
0000
0000
0000
0001
0000
0000
0000
0130
0010
0100
0000
1000
0000
0000
0000
,
1001
0001
1000
0010
0101
0010
1000
0100
,
1100
0001
1000
0110
0000
0001
0001
0000
,
0011
0100
0010
0001
0101
1000
0010
0100
,
0110
0000
0001
0000
1000
0000
1100
0000
0000
0000
0010
0000
0010
0000
0001
1000
,
0001
0000
0000
0000
0022
0000
0000
0033
0000
0000
2200
0000
0000
3300
0000
0000
,
2020
0000
0000
3030
0000
0000
0202
0000
0000
0303
0000
0000
2200
0000
0000
3300
,
1002
0100
0100
0100
0100
0100
0100
0100
,
0100
0100
0100
0100
0103
0000
0110
0000
,
1001
0000
0000
0000
;

//---------------dance-double - ----------------
#NOTEDATA:;
#CHARTNAME:;
#STEPSTYPE:dance-double;
#DESCRIPTION:;
#CHARTSTYLE:;
#DIFFICULTY:Hard;
#METER:12;
#RADARVALUES:0.559278,0.579086,0.355032,0.518155,0.047977,408.000000,371.000000,37.000000,54.000000,0.000000,0.000000,0.000000,0.000000,0.000000,0.559278,0.579086,0.355032,0.518155,0.047977,408.000000,371.000000,37.000000,54.000000,0.000000,0.000000,0.000000,0.000000,0.000000;
#CREDIT:;
#DISPLAYBPM:175.000000;
#NOTES:
00000000
00000000
00000000
00000000
,
00000000
00000000
00000000
00000000
,
00000000
00000000
00000000
00000000
,
00000000
00000000
00000000
00000000
,
00000000
00000000
00000000
00000000
,
00000010
00000000
00010000
00000000
00000000
00001000
00010000
00000000
,
00001000
00010000
01000000
10000000
00000000
10000000
00100000
01000000
,
00001000
00000000
00010000
00000000
00000000
00001000
00010000
00000010
,
00000100
00000010
00001000
00000001
00000000
00000010
00000100
00000000
,
00010000
00000000
00001000
00000000
00010000
00001000
00100000
00000000
,
01000000
00000000
00100000
00000000
00010000
01000000
10000000
00000000
,
10010000
00000000
00100000
00000000
10000000
01000000
00010000
00000000
,
00100000
00010000
00001000
00000000
00000010
00000100
00000001
00000000
,
00001010
00000000
00000001
00000000
00001000
00000100
00000010
00000000
,
00000001
00001000
00000010
00000000
00001000
00000100
00010000
00000000
,
00010010
00000000
00000100
00000000
00010000
00001000
01000000
00000000
,
00100000
10000000
00010000
00000000
10000000
01000000
00001000
00000000
,
01001000
00000000
00100000
00000000
10000000
00010000
00100000
00000000
,
00101000
00001000
00010000
00000000
00000100
00000010
00000001
00000000
,
00001001
00000000
00000010
00001000
00000100
00001000
00000001
00000000
,
00000010
00000000
00000100
00002000
00000000
00003001
00000200
00000000
,
00000310
00000000
00010000
00001000
00100000
00010000
10000000
01000000
,
00100000
00000000
00010000
02000000
00000000
03001000
00020000
00000000
,
00030010
00000000
00001000
00000100
00010000
00001000
01000000
00000000
,
00100000
00000000
10000000
01000000
00010000
01000000
10000000
00000000
,
10100000
00000000
00010000
01000000
00100000
10000000
01000000
00000000
,
00210000
00000000
00301000
00000000
00010100
00001000
01000000
00000000
,
00011000
00000000
00000010
00001000
00000001
00001000
00000100
00000000
,
00000020
00000000
00000031
00002000
00000000
00003001
00000200
00000000
,
00000310
00000000
00010000
00001000
00010000
00000010
00000100
00000000
,
00000002
00000000
00000000
00000000
00000003
00000000
00001000
00000100
00001000
00000000
00000000
00000010
00000000
00000000
00010000
00000000
,
00001000
00000000
00101000
00001000
00010000
00001000
01000000
00000000
,
01200000
00000000
10300000
00020000
00000000
00130000
02000000
00000000
,
13000000
00000000
00100000
00000000
10000000
01000000
00010000
00000000
,
00200000
00000000
00301000
00010000
00000020
00000100
00000130
00000000
,
00020002
00000000
00000003
00000000
00001000
00001000
00001000
00000000
,
00001000
00001000
00001000
00000000
00001000
00001000
00031000
00000000
,
00010000
00010000
00001000
00001000
00010000
00010000
00001000
00001000
,
01000000
01000000
01000000
01000000
01000000
00000000
01100000
00000000
,
10010000
00000000
00000000
00000000
00100000
00000000
00000000
10000000
00000000
00000000
00010000
00000000
00000000
00000000
00100000
00000000
,
02000000
00000000
03100000
02000000
00000000
13000000
00020000
00000000
,
01030000
00000000
00000000
00000000
00001000
00000000
00000000
00010000
00000000
00000000
00000100
00000000
00000000
00000000
00000010
00000000
,
00000002
00000000
00001003
00000202
00000000
00000000
00000300
00000000
,
00000013
00000000
00000001
00000000
00000100
00000000
00000000
00000010
00000000
00000000
00001000
00000000
00000000
00000000
00000001
00000000
,
00000020
00000000
00000031
00002000
00000000
00003100
00020000
00000000
,
01030000
00000000
10000000
00000000
00100000
00000000
00000000
10000000
00000000
00000000
00010000
00000000
00000000
00000000
01000000
00000000
,
01002000
00000000
00000100
00000000
00013000
00001000
00010000
00000000
,
00011000
00000000
00000010
00000000
00000100
00000000
00000000
00000001
00000000
00000000
00000010
00000000
00000000
00000000
00000100
00000000
,
00020000
00000000
00031000
00200000
00000000
00310000
02000000
00000000
,
03100000
00000000
01000000
00000000
00001000
00000000
00000000
00010000
00000000
00000000
00000100
00000000
00000000
00000000
00001000
00000000
,
00000010
00000000
00001100
00000001
00000000
00000011
00000100
00000000
,
00010010
00000000
00001000
00000000
00010000
00000000
00000000
00000100
00000000
00000000
00001000
00000000
00000000
00000000
00000010
00000000
,
00000200
00000000
00000310
00020000
00000000
00031000
02000000
00000000
,
03100000
00000000
01000000
00000000
00100000
00000000
00000000
10000000
00000000
00000000
01000000
00000000
00000000
00000000
00100000
00000000
,
00102000
00000000
00000100
00000000
00013000
00001000
00010000
00000000
,
00011000
00010000
00000010
00000100
00000001
00000010
00000001
00000100
,
00000010
00001000
00000100
00010000
00000000
00001000
01000000
00000000
,
00100000
10000000
00010000
00100000
01000000
00100000
00001000
00010000
,
00000010
00000100
00000010
00010000
00000000
00000100
00001000
00000000
,
00000001
00000000
00000000
00000000
00000022
00000000
00000000
00000033
00000000
00000000
00020200
00000000
00000000
00030300
00000000
00000000
,
02002000
00000000
00000000
03003000
00000000
00000000
02200000
00000000
00000000
03300000
00000000
00000000
20200000
00000000
00000000
30300000
,
01000000
10000000
00100000
01000000
00010000
00100000
00010000
10000000
,
02001000
00000000
00100000
00000000
03001000
00010000
00000100
00000000
,
00000110
00000001
00000100
00000010
00001000
00000100
00010000
00001000
,
01000000
10000000
01000000
00010000
00000000
00100000
01000000
00000000
,
00100000
00001000
00010000
00000010
00000100
00010000
00000100
00000001
,
00000100
00001000
00000100
00000010
00000000
00010000
00001000
00000000
,
01000000
00000000
00000000
00000000
20200000
00000000
00000000
30300000
00000000
00000000
22000000
00000000
00000000
33000000
00000000
00000000
,
00202000
00000000
00000000
00303000
00000000
00000000
00020200
00000000
00000000
00030300
00000000
00000000
00002002
00000000
00000000
00003003
,
00000010
00000010
00001000
00001000
00000100
00000100
00010000
00010000
,
00001000
00001000
00001000
00001000
00001000
00000000
00101000
00000000
,
11000000
00000000
00000000
00000000
;

//---------------dance-double - ----------------
#NOTEDATA:;
#CHARTNAME:;
#STEPSTYPE:dance-double;
#DESCRIPTION:;
#CHARTSTYLE:;
#DIFFICULTY:Challenge;
#METER:14;
#RADARVALUES:0.705951,0.715341,0.815614,0.498964,0.153527,515.000000,430.000000,85.000000,52.000000,0.000000,0.000000,0.000000,0.000000,0.000000,0.705951,0.715341,0.815614,0.498964,0.153527,515.000000,430.000000,85.000000,52.000000,0.000000,0.000000,0.000000,0.000000,0.000000;
#CREDIT:;
#DISPLAYBPM:175.000000;
#NOTES:
// measure 0
00000000
00000000
00000000
00000000
,  // measure 1
00000000
00000000
00000000
00000000
,  // measure 2
00000000
00000000
00000000
00000000
,  // measure 3
00000000
00000000
00000000
00000000
,  // measure 4
00000000
00000000
00000000
00000000
,  // measure 5
00000010
00000000
00010000
00000000
00001000
00100000
00010000
01000000
,  // measure 6
00100000
01000000
00010000
10000000
00000000
01000000
00100000
00010000
,  // measure 7
01000000
00000000
00001000
00000000
00010000
00000010
00000100
00000010
,  // measure 8
00001000
00000100
00000010
00000001
00000000
00001000
00000010
00010000
,  // measure 9
00001000
00000000
00100000
00000000
00001000
00000100
00000001
00000000
,  // measure 10
00000010
00000000
00000000
00000000
00000100
00000000
00001000
00000001
00001000
00000000
00000010
00000000
00001000
00000000
00000001
00000000
,  // measure 11
00001001
00000000
00000010
00000000
00010000
00000100
00001000
00000000
,  // measure 12
00000010
00000010
00000010
00000000
00001000
00000100
00001000
00000001
,  // measure 13
00001010
00000000
00000100
00000000
00010000
00001000
01000000
00000000
,  // measure 14
00200000
00000000
00000000
20300000
00000000
00000000
30020000
00000000
00000000
00000000
10030000
00000000
01000000
00000000
00000000
00000000
,  // measure 15
00110000
00010000
01000000
00000000
00100000
10000000
00010000
00000000
,  // measure 16
01000000
01000000
01000000
00100000
10000000
00010000
00010000
00000000
,  // measure 17
01001000
01000000
00100000
00000000
10000000
01000000
00010000
00000000
,  // measure 18
00010100
00000010
00000100
00000001
00001000
00000010
00010000
00000000
,  // measure 19
00011000
00000000
00001000
00010000
00000010
00000100
00000001
00000010
,  // measure 20
00000100
00000000
00001000
00001010
00000000
00000001
00000011
00000000
,  // measure 21
00010100
00000000
00000000
00000000
00001000
00000000
01000000
00100000
01000000
00000000
00010000
00000000
00100000
00000000
01000000
00000000
,  // measure 22
10000000
00000000
00100000
10100000
00000000
01000000
11000000
00000000
,  // measure 23
00101000
00000000
00000000
00000000
00100000
00000000
00001000
00010000
00001000
00000000
01000000
00000000
00100000
00000000
10000000
00000000
,  // measure 24
00010000
00000000
00000000
00000000
00110000
00000000
00000000
00001000
00010000
00000000
00000100
00000000
00000100
00000000
00000010
00000000
,  // measure 25
00000011
00000000
00000000
00000000
00000100
00000000
00000010
00010000
00000010
00000000
00001000
00000000
00000100
00000000
00000000
00000000
,  // measure 26
00010020
00001000
00001030
00000000
00000201
00000001
00000301
00000000
,  // measure 27
00000110
00000000
00001000
00000100
00000001
00000100
00010000
00000000
,  // measure 28
00010100
00010000
00001000
00101000
00100000
01000000
11000000
00000000
,  // measure 29
01010000
00000000
00000000
00000000
00100000
00000000
01000000
00010000
01000000
00000000
00001000
00000000
00010000
00000000
00000000
00000000
,  // measure 30
00101000
00000000
00000000
00000000
00000000
00000000
00010000
00001000
00020000
00000000
00000000
00030020
00000000
00000000
00000130
00000000
,  // measure 31
00001010
00000000
00000100
00000000
00000001
00000000
00001000
00000010
00001000
00000000
00000001
00000000
00000100
00000000
00000000
00000000
,  // measure 32
00000011
00000001
00001000
00001100
00000100
00010000
00010010
00000000
,  // measure 33
00001100
00000000
00010000
00000000
00001000
00000000
00000000
01000000
00100000
00000000
10000000
00000000
00010000
00000000
00000000
00000000
,  // measure 34
00120000
01000000
01030000
00100000
20100000
00010000
30010000
00000000
,  // measure 35
00010002
00001000
00001000
00000000
00001000
00001000
00001000
00000000
,  // measure 36
00001000
00001000
00001000
00000000
00001000
00001000
00001003
00000000
,  // measure 37
00000020
00002030
00003200
00000302
00000023
00002030
00003200
00000302
,  // measure 38
00000023
00002030
00003200
00000302
00000023
00000030
00001010
00000000
,  // measure 39
00011000
00000000
00001000
00000000
01000000
00000000
00100000
10000000
00100000
00000000
01000000
00000000
00000000
00000000
00010000
00000000
,  // measure 40
10100000
00000000
01000000
10010000
00000000
00100000
01001000
00000000
,  // measure 41
00010000
00000010
00010000
00000000
00000100
00000000
00001000
00000001
00001000
00000000
00000010
00000000
00000000
00000000
00000100
00000000
,  // measure 42
00001010
00000000
00000001
00020020
00000000
00000000
00000030
00000000
,  // measure 43
00031000
00010000
00001000
00000000
01000000
00000000
00100000
10000000
00100000
00000000
01000000
00000000
00000000
00000000
00001000
00000000
,  // measure 44
00010100
00000000
00000010
00000101
00000000
00001000
00000110
00000000
,  // measure 45
00000001
00000010
00000001
00000000
00000100
00000000
00000010
00010000
00000010
00000000
00000100
00000000
00000000
00000000
00000001
00000000
,  // measure 46
00200010
00000000
00000000
00000000
00001000
00000000
00000000
00000000
00300100
00010000
00001000
00000000
01000000
00000000
00000000
00000000
,  // measure 47
01100000
00000000
10000000
00000000
00010000
00000000
00100000
01000000
00000000
00100000
01000000
00000000
00000000
00000000
10000000
00000000
,  // measure 48
01002000
00000000
00013000
00201000
00000000
01300000
20010000
00000000
,  // measure 49
30100000
01000000
00100000
00000000
10000000
00000000
00010000
01000000
00000000
00010000
01000000
00000000
00000000
00000000
00001000
00000000
,  // measure 50
00010000
00000000
00000110
00000001
00000000
00010010
00000100
00000000
,  // measure 51
01001000
00000000
00100000
00000000
01000000
00000000
00010000
10000000
00000000
00010000
10000000
00000000
00000000
00000000
01000000
00000000
,  // measure 52
10010000
00000000
00100000
01010000
00000000
10000000
00101000
00000000
,  // measure 53
00010000
00000100
00010000
00000000
00000010
00000000
00000100
00000001
00000000
00000100
00000001
00000000
00000000
00000000
00001000
00000000
,  // measure 54
00100020
00000000
00000000
00000000
00001000
00000000
00000000
00000000
01000030
00001000
00010000
00000000
00000100
00000000
00000000
00000000
,  // measure 55
00011000
00001000
01000000
00100000
10100000
10000000
01000000
00100000
,  // measure 56
00110000
00010000
01000000
10100000
00000000
01000000
01000000
00000000
,  // measure 57
01010000
00100000
10000000
01000000
01100000
00100000
00001000
00010000
,  // measure 58
00010100
00000000
00001000
00000000
00000010
00000000
00000101
00000000
00000000
00000000
00000010
00000000
00000010
00000000
00001000
00000001
,  // measure 59
00001000
00000000
00000000
00000000
00000220
00000000
00000000
00000330
00000000
00000000
00002020
00000000
00000000
00003030
00000000
00000000
,  // measure 60
02002000
00000000
00000000
03003000
00000000
00000000
00220000
00000000
00000000
00330000
00000000
00000000
22000000
00000000
00000000
33000000
,  // measure 61
10010000
00100000
10000000
01000000
00110000
00010000
01000000
00001000
,  // measure 62
00200010
00000000
00010000
00001000
00301000
00000000
00011000
00000000
,  // measure 63
00000110
00000001
00000100
00000010
00001001
00000010
00001000
00000100
,  // measure 64
00011000
00001000
01000000
10100000
00000000
00001000
00001000
00000000
,  // measure 65
00101000
00100000
01000000
10000000
10100000
00010000
01000000
00100000
,  // measure 66
01001000
00000000
00010000
00000000
00000010
00000000
00001001
00000000
00000000
00000000
00010000
00000000
00010000
00000000
00001000
01000000
,  // measure 67
00001000
00000000
00000000
00000000
00020020
00000000
00000000
00030030
00000000
00000000
00002200
00000000
00000000
00003300
00000000
00000000
,  // measure 68
00000202
00000000
00000000
00000303
00000000
00000000
00000022
00000000
00000000
00000033
00000000
00000000
00020200
00000000
00000000
00030300
,  // measure 69
01002000
00010000
00010000
00010000
00010000
00010000
00010000
00010000
,  // measure 70
00010000
00010000
00010000
00010000
00013000
00000000
00011000
00000000
,  // measure 71
11000000
00000000
00000000
00000000
;
