#TITLE:g.m.d.;
#SUBTITLE:;
#ARTIST:DJ mazinger featuring Muhammad;
#TITLETRANSLIT:;
#SUBTITLETRANSLIT:;
#ARTISTTRANSLIT:;
#GENRE:;
#CREDIT:;
#BANNER:g.m.d.-bn.png;
#BACKGROUND:g.m.d.-bg.png;
#LYRICSPATH:;
#CDTITLE:;
#MUSIC:g.m.d..ogg;
#OFFSET:0.000000;
#SAMPLESTART:50.410999;
#SAMPLELENGTH:20.000000;
#SELECTABLE:YES;
#DISPLAYBPM:100.000000;
#BPMS:0.000000=99.978996
,84.000000=100.074997
;
#STOPS:
;
#BGCHANGES:14.000=g.m.d..mp4=1.000=1=0=0=StretchNoLoop==CrossFade==,
99999=-nosongbg-=1.000=0=0=0 // don't automatically add -songbackground-
;
#KEYSOUNDS:;
#ATTACKS:;

//---------------dance-single - ----------------
#NOTES:
     dance-single:
     :
     Easy:
     7:
     0.208004,0.315271,0.132366,0.000000,0.084233,121.000000,110.000000,11.000000,0.000000,0.000000,0.000000,0.208004,0.315271,0.132366,0.000000,0.084233,121.000000,110.000000,11.000000,0.000000,0.000000,0.000000:
0000
0000
0000
0000
,
0000
0000
0000
0000
,
0000
0000
0000
0000
,
0000
0000
0000
0000
,
0000
0000
0000
0000
,
0001
0001
0001
0010
,
1000
1000
1000
1000
,
0001
1000
0100
0100
,
0001
1000
0100
0100
,
0010
0001
1001
0100
,
0001
0001
0100
0100
,
0010
1000
1001
0010
,
1000
1000
0010
0010
,
0000
0100
0000
0000
0010
0000
0000
0100
0000
0000
0000
0000
0000
0000
0000
0000
,
0000
0001
0000
0000
1000
0000
0000
0000
0000
0000
0000
0000
0000
0000
0000
0000
,
0000
0010
0000
0000
0100
0000
0000
0000
0000
0000
0000
0000
0000
0000
0000
0000
,
0000
0001
0000
0000
0001
0000
0000
0100
0000
0000
1000
0000
0000
1000
0000
0000
,
0100
0000
0000
0010
0000
0000
0000
0000
0000
0000
0010
0000
0000
1000
0000
0000
,
0100
0000
0000
0001
0000
0000
0000
0000
0000
0000
0000
0000
0000
1000
0000
0000
,
0100
0000
0000
1000
0000
0000
0000
0000
0000
0000
0001
0000
0000
0001
0000
0000
,
0100
0000
0000
0001
0000
0000
0000
0000
0000
0000
0000
0000
0000
0000
0010
0000
,
0000
0010
0000
0100
0000
0100
0000
0010
,
0000
0100
0000
0010
0000
1001
0000
0100
,
0000
0100
0000
0010
0000
0010
0000
0100
,
0000
0010
0000
0100
0000
1001
0000
0110
,
0000
1001
0000
0100
0010
0010
0000
1001
,
0000
0110
0000
1000
0001
0001
0000
0110
,
0000
1001
0000
0010
0100
0100
0000
0000
,
0001
1000
0000
0000
0001
0000
0001
0000
,
1000
1000
1000
0100
,
0110
0001
0000
1000
,
0100
0000
0000
1000
0100
1000
0000
0000
,
0100
0010
0010
0010
0100
0100
0100
0000
;

//---------------dance-single - ----------------
#NOTES:
     dance-single:
     :
     Medium:
     9:
     0.254418,0.354680,0.276765,0.000000,0.096266,148.000000,125.000000,23.000000,0.000000,0.000000,0.000000,0.254418,0.354680,0.276765,0.000000,0.096266,148.000000,125.000000,23.000000,0.000000,0.000000,0.000000:
0000
0000
0000
0000
,
0000
0000
0000
0000
,
0000
0000
0000
0000
,
0000
0000
0000
0000
,
0000
0000
0000
0000
,
0001
0100
1000
0101
,
0010
1100
1000
1000
,
0001
0100
1000
1100
,
0010
1010
0100
0100
,
1100
0100
0100
0100
,
0001
0100
1000
0100
,
0011
0010
0010
0010
,
1000
0010
0001
0010
,
0000
1000
0000
0000
0001
0000
0000
0100
0000
0000
0000
0000
0000
0000
0000
0000
,
0000
1000
0000
0000
0001
0000
0000
0000
0000
0000
0000
0000
0000
0000
0000
0000
,
0000
0010
0000
0000
0100
0000
0000
0000
0000
0000
0000
0000
0000
0000
0000
0000
,
0000
0001
0000
0000
0010
0000
0000
1000
0000
0000
1100
0000
0000
0001
0000
0000
,
0100
0000
0000
1000
0000
0000
0000
0000
0000
0000
1010
0000
0000
0100
0000
0000
,
0100
0000
0000
0001
0000
0000
0000
0000
0000
0000
0000
0000
0000
1000
0000
0000
,
1000
0000
0000
0001
0000
0000
0000
0000
0000
0000
0001
0000
0000
0001
0000
0000
,
1000
0000
0000
1100
0000
0000
0000
0000
0000
0000
0000
0000
0000
0000
1000
0000
,
0100
0010
0000
0001
0100
0010
0000
1000
,
0100
0010
0100
0001
0100
0010
0010
0001
,
0100
0010
0000
1000
0100
0010
0000
0001
,
0100
0010
0100
1000
0100
0010
0010
0110
,
0000
1001
0000
0110
1000
0100
0000
0110
,
0000
1001
0000
0110
0001
0100
0000
0101
,
0000
1100
0000
0011
1000
0100
0000
0000
,
0010
0100
0000
0000
0011
0000
1100
0000
,
0010
0110
0001
1000
,
0001
0100
0000
0000
0001
0000
0000
0000
0000
1000
0000
0000
0100
0000
0001
0000
,
0101
0000
0000
1001
0100
0001
0000
0000
,
0001
1000
0100
1000
0100
0001
0100
0000
;

//---------------dance-double - ----------------
#NOTES:
     dance-double:
     :
     Easy:
     7:
     0.213161,0.295567,0.144399,0.000000,0.090249,124.000000,112.000000,12.000000,0.000000,0.000000,0.000000,0.213161,0.295567,0.144399,0.000000,0.090249,124.000000,112.000000,12.000000,0.000000,0.000000,0.000000:
00000000
00000000
00000000
00000000
,
00000000
00000000
00000000
00000000
,
00000000
00000000
00000000
00000000
,
00000000
00000000
00000000
00000000
,
00000000
00000000
00000000
00000000
,
01000000
01000000
00010000
00001000
,
00000010
00000010
00000001
00000100
,
00001000
00001000
00001000
00000001
,
00000010
00001000
00010000
01000000
,
10000000
01100000
00010000
00001000
,
00000110
00000001
00001100
00000101
,
00001000
00001000
00001000
00001000
,
00000010
00001000
00000010
00000100
,
00000000
00000100
00000000
00000000
00001000
00000000
00000000
00010000
00000000
00000000
00000000
00000000
00000000
00000000
00000000
00000000
,
00000000
00100000
00000000
00000000
01000000
00000000
00000000
00000000
00000000
00000000
00000000
00000000
00000000
00000000
00000000
00000000
,
00000000
00010000
00000000
00000000
10000000
00000000
00000000
00000000
00000000
00000000
00000000
00000000
00000000
00000000
00000000
00000000
,
00000000
01000000
00000000
00000000
00010000
00000000
00000000
01000000
00000000
00000000
10000000
00000000
00000000
00100000
00000000
00000000
,
00010000
00000000
00000000
01000000
00000000
00000000
00000000
00000000
00000000
00000000
00100000
00000000
00000000
10000000
00000000
00000000
,
10000000
00000000
00000000
01000000
00000000
00000000
00000000
00000000
00000000
00000000
00000000
00000000
00000000
10000000
00000000
00000000
,
01100000
00000000
00000000
00010000
00000000
00000000
00000000
00000000
00000000
00000000
00101000
00000000
00000000
00000100
00000000
00000000
,
00000001
00000000
00000000
00000001
00000000
00000000
00000000
00000000
00000000
00000000
00000000
00000000
00000000
00000000
00000001
00000000
,
00000000
00000001
00000000
00000100
00000000
00000100
00000000
00001000
,
00000000
00010000
00000000
01000000
00000000
10000000
00000000
10000000
,
00000000
10000000
00000000
01000000
00000000
01000000
00000000
00010000
,
00000000
00001000
00000000
00000100
00000000
00000001
00000000
00000101
,
00000000
00000110
00000000
00001000
00010000
01000000
00000000
11000000
,
00000000
01100000
00000000
00010000
00001000
00000100
00000000
00000010
,
00000000
00000101
00000000
00001000
00000100
00000001
00000000
00000000
,
00000010
00000100
00000000
00000000
00000001
00000000
00000001
00000000
,
00000001
00000001
00000100
00000100
,
00000101
00000000
00000000
00000000
00000001
00000000
00000000
00000000
00000000
00001000
00000000
00000000
00000100
00000000
00000010
00000000
,
00001000
00000000
00000000
00010000
01000000
10000000
00000000
00000000
,
01000000
10000000
01000000
00010000
01000000
01000000
01000000
00000000
;

//---------------dance-double - ----------------
#NOTES:
     dance-double:
     :
     Medium:
     9:
     0.254418,0.334976,0.276765,0.000000,0.096266,148.000000,125.000000,23.000000,0.000000,0.000000,0.000000,0.254418,0.334976,0.276765,0.000000,0.096266,148.000000,125.000000,23.000000,0.000000,0.000000,0.000000:
00000000
00000000
00000000
00000000
,
00000000
00000000
00000000
00000000
,
00000000
00000000
00000000
00000000
,
00000000
00000000
00000000
00000000
,
00000000
00000000
00000000
00000000
,
10000000
01010000
00001000
00010000
,
01000000
10000000
01010000
00101000
,
00000100
00000001
00001000
00001000
,
00000001
00001000
00000100
00000001
,
00000010
00000010
00000100
00000001
,
00001100
00000101
00001000
00010000
,
00101000
11000000
00010000
01000000
,
01100000
00010000
00001000
00000100
,
00000000
00000110
00000000
00000000
00001000
00000000
00000000
00000001
00000000
00000000
00000000
00000000
00000000
00000000
00000000
00000000
,
00000000
00001000
00000000
00000000
00010000
00000000
00000000
00000000
00000000
00000000
00000000
00000000
00000000
00000000
00000000
00000000
,
00000000
10000000
00000000
00000000
00010000
00000000
00000000
00000000
00000000
00000000
00000000
00000000
00000000
00000000
00000000
00000000
,
00000000
00100000
00000000
00000000
00010000
00000000
00000000
00000100
00000000
00000000
00000101
00000000
00000000
00001000
00000000
00000000
,
10010000
00000000
00000000
11000000
00000000
00000000
00000000
00000000
00000000
00000000
01100000
00000000
00000000
00010000
00000000
00000000
,
00001000
00000000
00000000
00000001
00000000
00000000
00000000
00000000
00000000
00000000
00000000
00000000
00000000
00000110
00000000
00000000
,
00001000
00000000
00000000
00000100
00000000
00000000
00000000
00000000
00000000
00000000
00000001
00000000
00000000
00001000
00000000
00000000
,
01000000
00000000
00000000
10000000
00000000
00000000
00000000
00000000
00000000
00000000
00000000
00000000
00000000
00000000
10000000
00000000
,
01000000
00100000
00000000
00010000
00001000
00000100
00000000
00000001
,
00000010
00001000
00010000
01000000
10000000
01000000
11000000
10000000
,
00010000
00000100
00000000
00000010
00001000
00000100
00000000
00000001
,
00000100
00001000
00010000
01000000
00010000
00001000
00000100
00000101
,
00000000
00001001
00000000
00000010
00000100
00000001
00000000
00000101
,
00000000
00001001
00000000
00000010
00000100
00001000
00000000
00010000
,
00000000
01100000
00000000
10000000
00100000
00010000
00000000
00000000
,
00100000
01000000
00000000
00000000
10010000
00000000
11000000
00000000
,
10010000
01000000
00010000
00001000
,
00000010
00001000
00000000
00000000
00010000
00000000
00000000
00000000
00000000
00100000
00000000
00000000
00010000
00000000
00001000
00000000
,
00000100
00000000
00000000
00000001
00000100
00001000
00000000
00000000
,
00000001
00000100
00001000
00010000
01000000
00010000
01000000
00000000
;

//---------------dance-single - ----------------
#NOTES:
     dance-single:
     :
     Beginner:
     3:
     0.101423,0.138984,0.024067,0.000000,0.000000,59.000000,57.000000,2.000000,0.000000,0.000000,0.000000,0.101423,0.138984,0.024067,0.000000,0.000000,59.000000,57.000000,2.000000,0.000000,0.000000,0.000000:
0000
0000
0000
0000
,
0000
0000
0000
0000
,
0000
0000
0000
0000
,
0000
0000
0000
0000
,
0000
0000
0000
0000
,
0100
0000
0000
0000
,
0010
0000
0000
0000
,
1000
0000
0000
0000
,
0001
0000
0000
0000
,
0010
0000
0010
0000
,
0100
0000
0000
0000
,
1000
0000
0000
0001
,
0001
0000
0000
0000
,
0100
0100
0100
0000
,
0010
0010
0000
0000
,
0100
0100
0000
0000
,
0001
0000
1000
0000
,
0010
0010
0000
0100
,
0100
0100
0000
1000
,
1000
1000
0000
0001
,
0001
0001
0000
1000
,
1000
0000
0001
0000
,
0010
0000
0001
0000
,
0100
0000
0100
0000
,
0010
0000
0000
0000
,
1001
0000
0000
0100
,
0100
0000
0000
0010
,
0010
0000
0000
1000
,
1000
0000
0001
0001
,
0001
0000
0100
0000
,
0010
0010
0000
0100
,
0100
0000
0000
0001
,
0001
0000
1000
0000
,
1001
0000
0000
0000
;

//---------------dance-single - ----------------
#NOTES:
     dance-single:
     :
     Hard:
     12:
     0.407412,0.476517,0.746062,0.000000,0.288798,237.000000,175.000000,62.000000,0.000000,0.000000,0.000000,0.407412,0.476517,0.746062,0.000000,0.288798,237.000000,175.000000,62.000000,0.000000,0.000000,0.000000:
0000
0000
0000
0000
,
0000
0000
0000
0000
,
0000
0000
0000
0000
,
0000
0000
0000
0000
,
0000
0000
0000
0000
,
0011
0000
0000
1100
0000
0000
0000
0000
0000
0000
0001
0000
0100
0000
0000
0000
,
0110
0000
0000
1000
0000
0000
0001
0000
0010
0000
0100
0000
0000
0000
1000
0000
,
1001
0000
0000
0001
0000
0000
0100
0000
0000
0000
0000
0000
0000
0000
0000
0010
1000
0000
0000
0000
0000
0001
0000
0000
,
0101
0000
0100
0000
0010
0000
1000
0001
0000
1000
0100
0000
0010
0000
0001
0000
,
0100
0010
0000
0010
0100
0000
0100
0000
0001
1000
0000
0000
1010
0000
0000
0000
,
1001
0000
0010
0000
0100
0000
0010
1000
0010
0100
0010
1000
0010
0100
0001
0000
,
0011
0000
0100
0000
1000
0000
0000
0000
0001
0000
0100
0000
0000
0101
0000
0000
,
1100
0000
0000
0000
0000
0000
0010
0000
0000
0001
0000
0000
0100
0000
0000
0000
0010
0000
0000
0000
0000
0000
0000
0000
0000
0000
0000
1000
0000
0000
0001
0000
0000
0000
0000
0000
1000
0000
0000
0100
0000
0000
0010
0000
0000
0000
0000
0000
,
0000
0011
0000
0000
1100
0000
0000
0101
0000
0000
0000
0000
0000
0000
0000
0000
,
0000
0110
0000
0000
1001
0000
0000
0000
0000
0000
0000
0000
0000
0000
0000
0000
,
0000
1010
0000
0000
1100
0000
0000
0000
0000
0000
0000
0000
0000
0000
0000
0000
,
0000
0011
0000
0000
1010
0000
0000
0011
0000
0000
0110
0000
0000
1100
0000
0000
,
0101
0000
0000
1100
0000
0000
0000
0000
0000
0000
1001
0000
0000
0110
0000
0000
,
1001
0000
0000
0101
0000
0000
0000
0000
0000
0000
0000
0000
0000
1010
0000
0000
,
0101
0000
0000
1100
0000
0000
0000
0000
0000
0000
0011
0000
0000
1001
0000
0000
,
1010
0000
0000
0110
0000
0000
0000
0000
0000
0000
0010
0100
0000
1001
0000
0000
,
0100
0000
0001
0000
0000
0000
0010
0001
1000
0000
0100
0000
1000
0000
0010
0000
,
0001
0000
0100
0000
0010
0000
1000
0100
0000
0010
0001
0000
0100
0000
0000
0000
,
0001
0010
0001
0010
0001
0000
0100
0000
0010
0000
1000
0000
0001
0000
1000
0100
,
0000
1000
0001
0000
0100
0000
0010
0000
1000
0010
0100
0001
0010
0000
0000
0000
,
1100
0000
0001
0000
0000
0000
0000
0100
0010
0000
0101
0000
1000
0000
0000
0000
,
0110
0000
0010
0000
1000
0000
0100
0010
0001
0000
0011
0000
0000
1100
0000
0000
,
0101
0010
1000
0001
1000
1010
0100
0001
,
1001
0110
1000
0000
0101
0000
1100
0000
,
1001
0110
1001
0110
,
1000
0001
0000
0000
0011
0000
0000
0000
0000
1100
0000
0000
1010
0000
1001
0000
,
0101
0000
0010
1000
0100
1100
0001
0000
,
0011
0000
0100
0000
1000
0000
0000
0000
1001
0000
0101
0000
0000
0110
0000
0000
,
1010
0000
0000
0000
;

//---------------dance-single - ----------------
#NOTES:
     dance-single:
     :
     Challenge:
     15:
     0.660110,0.635356,0.842328,0.000000,0.734029,384.000000,314.000000,70.000000,0.000000,0.000000,0.000000,0.660110,0.635356,0.842328,0.000000,0.734029,384.000000,314.000000,70.000000,0.000000,0.000000,0.000000:
0000
0000
0000
0000
,
0000
0000
0000
0000
,
0000
0000
0000
0000
,
0000
0000
0000
0000
,
0000
0000
0000
0000
,
0110
0000
0000
0110
0000
0000
1000
0001
1000
0010
0100
0010
1000
0001
0010
0000
,
1100
0000
0000
0011
0000
1000
0001
0010
0001
0100
0010
1000
0001
0000
0100
0000
,
0001
0000
0000
1000
0000
0000
0010
0000
0000
1000
0000
0000
0001
0000
0000
0000
0000
0000
0010
0000
0000
0100
0000
0000
1000
0000
0000
0000
0000
0000
0001
0000
0001
0000
0000
0000
0100
0000
0000
0010
0000
0000
1000
0000
0000
0000
0000
0000
,
0101
0000
1000
0100
0010
0001
0100
0010
1000
0001
1000
0010
0100
0001
1000
0000
,
0100
0010
0000
0010
0100
0000
0100
0000
1000
0001
1000
0010
0100
0001
0010
0100
,
1100
0000
0001
0000
1000
0000
0001
0010
0100
0010
0100
1000
0010
0100
0001
1000
,
1001
0000
0010
0000
0100
0000
0010
1000
0001
0010
0001
0100
0010
1000
0001
0000
,
0110
0000
1000
0010
0100
0001
0010
0100
1000
0001
0100
0001
0010
0100
1000
0000
,
0010
1010
0000
0100
0101
0000
0001
0011
0000
0100
0100
0000
1001
0001
0100
0000
,
0010
1010
0000
0000
1100
0000
0010
0010
0000
0001
1000
0000
0110
0000
1001
0000
,
0100
0101
0000
0000
1100
0000
0001
0100
1000
0100
0001
0000
0010
0100
1000
0100
,
0010
0011
0000
0000
1001
0000
0001
0011
0000
0010
0110
0000
1000
1100
0000
0001
,
0101
0000
1000
1100
0000
0001
0100
0000
0000
0010
0110
0000
1000
1001
0000
0001
,
0011
0000
0000
1100
0000
0000
0001
0100
1000
0100
0001
0000
0010
0110
0000
0000
,
1100
0100
0000
1100
1000
0001
0100
0000
0000
0010
1010
0000
0001
0011
0000
0000
,
1001
0100
0000
0110
0001
0000
1000
0100
0010
0001
0100
0010
0000
1001
0100
0000
,
1010
0000
0101
0000
1001
0000
0010
1000
0100
0010
0001
1000
0001
0100
0010
0100
,
0001
1000
0100
1000
0010
0000
0100
0001
0010
0100
1000
0000
0001
0000
0001
0000
,
0001
0010
1000
0010
0001
0000
0100
0010
0000
0010
1000
0000
0001
0000
0100
0010
,
0000
0010
1000
0100
1000
0000
0001
0100
0001
0010
0100
1000
0110
0000
0000
0000
,
1001
0100
0001
0000
0010
0000
0000
0001
1000
0000
1010
0010
0100
0000
0000
0000
,
0101
0001
1000
0001
0010
0000
0100
1000
0010
1000
1100
0000
0001
0011
0000
0000
,
0110
1000
0000
0001
0100
0000
0010
0000
1000
0100
0011
0000
0100
0010
1000
0001
,
1001
0000
0110
0000
1000
0000
0001
0000
0011
0100
1000
0000
1010
0100
0001
0000
,
1001
0000
0110
1000
1100
0011
0101
0010
,
1001
1001
0100
0000
1010
0000
0001
0000
1000
0100
1100
0000
1001
0000
0101
0000
,
0110
0000
1000
0000
0001
0000
0010
0001
0100
0000
1010
0000
0100
0000
0001
0000
,
1010
0000
0100
0001
0010
0100
1000
0001
0011
0000
1100
0000
0010
0110
0000
0100
,
0101
0000
0000
0000
;

//---------------dance-double - ----------------
#NOTES:
     dance-double:
     :
     Hard:
     12:
     0.445231,0.476517,0.794195,0.000000,0.342948,259.000000,193.000000,66.000000,0.000000,0.000000,0.000000,0.445231,0.476517,0.794195,0.000000,0.342948,259.000000,193.000000,66.000000,0.000000,0.000000,0.000000:
00000000
00000000
00000000
00000000
,
00000000
00000000
00000000
00000000
,
00000000
00000000
00000000
00000000
,
00000000
00000000
00000000
00000000
,
00000000
00000000
00000000
00000000
,
00010100
00000000
00000000
00101000
00000000
00000000
00000000
00000000
00000000
00000000
00010000
00000000
00100000
01000000
00000000
00000000
,
11000000
00000000
00000000
00100000
00000000
00000000
10000000
00000000
00010000
01000000
00000000
00000000
00000000
00000000
01100000
00000000
,
10010000
00000000
00000000
00000000
00000000
00000000
00100000
00000000
00000000
01000000
00000000
00000000
00001000
00000000
00000000
00000000
00000000
00000000
00010000
00000000
00000000
00000000
00000000
00000000
00000000
00000000
00000000
00000000
00000000
00000000
00000010
00000000
00000100
00000000
00000000
00000000
00000000
00000000
00000000
00000000
00000000
00000000
00000001
00000000
00000000
00000000
00000000
00000000
,
00000011
00000000
00001000
00000001
00001000
00000000
00000010
00000100
00000000
00000001
00001000
00000000
00000010
00000000
00000100
00000000
,
00000010
00010000
00000000
00010000
00000010
00000000
00000010
00000000
00000000
00000110
00000000
00000000
00001010
00000000
00000000
00000000
,
01001000
00000000
00010000
00000000
00001000
00000000
00100000
01000000
10000000
01000000
00100000
01000000
10000000
00000000
00010000
00000000
,
01100000
00000000
01000000
00000000
00010000
00000000
00000000
00000000
00100000
00000000
00010000
00000000
00000000
10010000
00000000
00000000
,
00011000
00000000
00000000
00000000
00000000
00000000
00010000
00000000
00000000
00000010
00000000
00000000
00000100
00000000
00000000
00000000
00000001
00000000
00000000
00000000
00000000
00000000
00000000
00000000
00000000
00000000
00000000
00000010
00000000
00000000
00000001
00000000
00000000
00000000
00000000
00000000
00001000
00000000
00000000
00000001
00000000
00000000
00000100
00000000
00000000
00000000
00000000
00000000
,
00000000
00001010
00000000
00000000
00000101
00000000
00000000
00010100
00000000
00000000
00000000
00000000
00000000
00000000
00000000
00000000
,
00000000
00011000
00000000
00000000
11000000
00000000
00000000
00100000
00000000
00100000
01000000
00000000
00100000
00000000
00100000
00000000
,
00000000
10010000
00000000
00000000
01001000
00000000
00000000
00000000
00000000
00000000
00000000
00000000
00000000
00000000
00000000
00000000
,
00000000
00010010
00000000
00000000
00000110
00000000
00000000
00001001
00000000
00000000
00000011
00000000
00000000
00010100
00000000
00000000
,
00001001
00000000
00000000
00101000
00000000
00000000
00000000
00000000
00000000
00000000
00011000
00000000
00000000
01100000
00000000
00000000
,
11000000
00000000
00000000
00110000
00000000
00000000
01000000
00100000
01000000
00100000
01000000
00000000
00000000
01001000
00000000
00000000
,
00101000
00000000
00000000
00010010
00000000
00000000
00000000
00000000
00000000
00000000
00001100
00000000
00000000
00000101
00000000
00000000
,
00000011
00000000
00000000
00011000
00000000
00000000
00000000
00000000
00000000
00000000
00010000
00001000
00000000
01001000
00000000
00000000
,
01100000
00000000
10010000
00000000
00100000
00000000
10000000
01000000
10000000
00000000
00010000
00000000
01000000
00000000
00001000
00000000
,
00010000
00000100
00001000
00000001
00000010
00000000
00000100
00000000
00001000
00000000
00000001
00000000
00000100
00000000
00000000
00000000
,
00000001
00000010
00000001
00000010
00000001
00000000
00000100
00000000
00000010
00000000
00010000
00000000
00001000
00000000
00100000
01000000
,
00000000
01000000
10000000
00000000
00010000
00000000
01000000
00000000
00100000
10000000
00010000
01000000
00001000
00000000
00000000
00000000
,
00011000
00000000
00000100
00000000
00000000
00000000
00000000
00001000
00000001
00000000
00000011
00000000
00000100
00000000
00000000
00000000
,
00001001
00000000
00000010
00000000
00001000
00000000
00000100
00000010
00000001
00000000
00000101
00000000
00000000
00010010
00000000
00000000
,
00011000
01000000
00010000
10000000
00100000
10010000
01000000
00100000
,
10100000
01001000
00100000
00000000
00011000
00000000
00000101
00000000
,
00001001
00000110
00001001
00000110
,
00001000
00000001
00000000
00000000
00010100
00000000
00000000
00000000
00000000
01001000
00000000
00000000
00110000
00000000
11000000
00000000
,
01010000
00000000
00100000
00000000
10000000
00010000
01000000
00010000
10000000
00000000
01100000
00000000
01000000
00000000
00000000
00000000
,
10100000
00000000
01000000
00000000
00010000
00000000
00100000
00000000
00110000
00000000
00101000
00000000
00000000
00011000
00000000
00000000
,
00000110
00000000
00000000
00000000
;

//---------------dance-double - ----------------
#NOTES:
     dance-double:
     :
     Challenge:
     15:
     0.651515,0.655211,0.890461,0.000000,0.721996,379.000000,305.000000,74.000000,0.000000,0.000000,0.000000,0.651515,0.655211,0.890461,0.000000,0.721996,379.000000,305.000000,74.000000,0.000000,0.000000,0.000000:
// measure 0
00000000
00000000
00000000
00000000
,  // measure 1
00000000
00000000
00000000
00000000
,  // measure 2
00000000
00000000
00000000
00000000
,  // measure 3
00000000
00000000
00000000
00000000
,  // measure 4
00000000
00000000
00000000
00000000
,  // measure 5
01000100
00000000
00000000
00101000
00000000
00000000
00010000
00001000
00100000
00010000
10000000
00100000
01000000
00001000
00010000
00000000
,  // measure 6
00010010
00000000
00000000
00001001
00000000
00000000
00000100
00000001
00000010
00000100
00010000
00001000
00100000
00000000
11000000
00000000
,  // measure 7
00010000
00000000
00000000
10000000
00000000
00000000
00100000
00000000
00000000
01000000
00000000
00000000
00001000
00000000
00000000
00000000
00000000
00000000
00010000
00000000
00000000
00000001
00000000
00000000
00000010
00000000
00000000
00000000
00000000
00000000
00000100
00000000
00000100
00000000
00000000
00000000
00001000
00000000
00000000
00000000
00000000
00000000
00000001
00000000
00000000
00000000
00000000
00000000
,  // measure 8
00001010
00000000
00000100
00000001
00000010
00000100
00010000
00001000
00010000
00000010
00001000
00000100
00010000
00000000
00011000
00000000
,  // measure 9
00000010
00010000
00000000
00010000
00000010
00000000
00000010
00000000
00001000
00000100
00010000
00001000
00100000
01000000
10000000
00010000
,  // measure 10
10010000
00000000
01000000
00000000
00100000
00000000
01000000
00010000
00100000
00001000
00010000
00000010
00001000
00000001
00000100
00000010
,  // measure 11
00000100
00000001
00001000
00000000
00000110
00000000
00001000
00000001
00000010
00000001
00000100
00000010
00010000
00001000
01000000
00000000
,  // measure 12
01001000
01000000
00100000
10000000
01000000
00100000
00010000
01000000
00001000
00010000
00000010
00000100
00000001
00001000
00000100
00000000
,  // measure 13
00010000
00011000
00000000
00001000
01001000
00000000
01000000
01100000
00000000
00010000
00010000
00000000
10100000
01000000
00010000
00000000
,  // measure 14
00100000
00101000
00000000
00000000
00010001
00000000
00000010
00000010
00000000
00001000
00000001
00000000
00000011
00000000
00010010
00000000
,  // measure 15
00000100
00000110
00000000
00000000
00001001
00000000
00000010
00000100
00000000
00000001
00000010
00000001
00001000
00000100
00010000
00001000
,  // measure 16
00100000
00110000
00000000
00000000
10010000
00000000
01000000
01001000
00000000
00001000
00101000
00000000
00100000
00100010
00000000
00000100
,  // measure 17
00001001
00000000
00000010
00000101
00000000
00001000
00000001
00000000
00000000
00000010
00001100
00000000
00010000
00011000
00000000
00001000
,  // measure 18
10010000
00000000
00000000
01100000
00000000
00000000
10000000
01000000
00010000
01000000
10000000
00000000
00100000
01001000
00000000
00000000
,  // measure 19
00011000
00000000
00000001
00000011
00000000
00000100
00001000
00000000
00000010
00000100
00001010
00000000
00000000
00010001
00000000
00000000
,  // measure 20
00100100
00000000
00000000
01001000
00000000
00000000
00010000
00000010
00001000
00000100
01000000
00100000
00000000
10100000
00000000
00000000
,  // measure 21
01100000
00000000
10010000
00000000
00100000
00000000
10000000
01000000
00100000
00001000
00010000
00000010
00000000
00000100
00000001
00001000
,  // measure 22
00000100
00010000
00001000
01000000
00100000
00000000
10000000
00010000
00000000
01000000
00001000
00000000
00011000
00000000
00000000
00000000
,  // measure 23
00010000
00000100
00000001
00000100
00001000
00000000
00000010
00000100
00000000
00000100
00000001
00000000
00000010
00000000
00000100
00001000
,  // measure 24
00000000
00001000
00000010
00010000
00001000
00000000
01000000
00100000
00001000
00100000
10000000
01000000
10010000
00000000
00000000
00000000
,  // measure 25
11000000
00100000
00010000
00000000
01000000
00000000
00000000
00100000
01000000
00000000
01001000
00010000
00001000
00000000
00000000
00000000
,  // measure 26
00100010
00000010
00001000
00000100
00010000
00000000
00001000
01000000
00100000
10000000
11000000
00000000
00010000
01010000
00000000
00000000
,  // measure 27
01100000
00100000
00000000
01000000
00001000
00000000
00010000
00000000
00000010
00000100
00010010
00000000
00000100
00000000
00000001
00001000
,  // measure 28
00000110
00000000
00001001
00000000
00000010
00000000
00000100
00000000
00010001
00000000
00000100
00000000
00011000
00011000
00000000
00000000
,  // measure 29
10100000
00000000
01010000
00001000
00001010
00000110
00000101
00000010
,  // measure 30
00001001
00001001
00000000
00000000
00000110
00000000
00010000
00000000
00001000
10001000
01000000
00000000
01100000
00000000
01001000
00000000
,  // measure 31
00010100
00010000
00001000
00000000
00010000
00000010
00000100
00000001
00000010
00000000
00000011
00000000
00001001
00000000
00000100
00000010
,  // measure 32
00001010
00000100
00000001
00001000
00000100
00000000
00010000
00001000
00101000
00000000
00010010
00000000
00010000
00011000
01000000
00000000
,  // measure 33
10100000
00000000
00000000
00000000
;
