#TITLE:dirty digital;
#SUBTITLE:;
#ARTIST:kors k;
#TITLETRANSLIT:;
#SUBTITLETRANSLIT:;
#ARTISTTRANSLIT:;
#GENRE:;
#CREDIT:;
#BANNER:dirty digital-bn.png;
#BACKGROUND:dirty digital-bg.png;
#LYRICSPATH:;
#CDTITLE:;
#MUSIC:dirty digital.ogg;
#OFFSET:0.000000;
#SAMPLESTART:56.570999;
#SAMPLELENGTH:20.000000;
#SELECTABLE:YES;
#DISPLAYBPM:140.000000;
#BPMS:0.000000=140.000000
;
#STOPS:
;
#BGCHANGES:;
#KEYSOUNDS:;
#ATTACKS:;

//---------------dance-single - ----------------
#NOTES:
     dance-single:
     :
     Hard:
     13:
     0.458302,0.577124,0.291647,0.291647,0.555250,286.000000,260.000000,26.000000,26.000000,0.000000,0.000000,0.458302,0.577124,0.291647,0.291647,0.555250,286.000000,260.000000,26.000000,26.000000,0.000000,0.000000:
0000
0000
0000
0000
,
0000
0000
0000
0000
,
0000
0000
0000
0000
,
0000
0000
0000
0000
,
0000
0000
0000
0000
,
0000
0000
0000
0000
,
0000
0000
0000
0000
,
0000
0000
0000
0000
,
0000
0000
0000
0000
,
0001
0000
0010
0000
0100
0000
0000
0000
1000
0000
0000
0001
0000
0000
1000
0000
,
0010
0000
0000
0000
1000
0000
0000
0001
0000
0000
1000
0000
0000
0100
0000
0000
,
0010
0000
0000
0001
0000
0000
0100
0000
0001
0000
0000
0000
1000
0000
0000
0010
,
0000
0000
0100
0000
0000
0001
0000
0000
0100
0000
0000
0001
0000
0000
1000
0000
,
0001
0010
0001
0100
0010
0100
0001
1000
,
0100
0010
0100
1000
0010
1000
0001
0100
,
0001
0001
1000
1000
0001
0001
0100
0100
,
0010
0010
0010
0010
0020
0000
0000
0130
,
0010
0000
0000
2000
0000
0000
0000
0000
3001
0000
0000
0000
0020
0000
0000
0000
0000
0230
0000
0000
0000
1300
0000
0000
,
0000
0000
0002
0000
0000
0000
0103
0000
0000
0000
0000
0000
0000
0000
0110
0000
0000
1001
0000
0000
0000
0010
0000
0000
,
1000
0000
0000
0100
0000
0000
0000
0000
0010
0000
0000
0000
0001
0000
1000
0000
0000
0020
0000
0000
0000
0130
0000
0000
,
0001
0000
0000
0010
0000
0000
0100
0000
1000
0000
0000
1000
0000
0000
0001
0200
0000
0000
0310
0000
0000
1000
0000
0001
,
1000
0000
0000
0020
0000
0000
0000
2030
0000
0000
0000
0000
3100
0000
0010
0000
0000
0001
0000
0000
0000
0100
0000
0000
,
0002
0000
0000
0000
0000
0000
1003
0000
0000
0000
0000
0000
0000
0000
1010
0000
0000
0101
0000
0000
0000
1000
0000
0000
,
0000
0000
0000
0020
0000
0000
0000
2030
0000
0000
0000
0000
3010
0000
0100
0000
0000
0002
0000
0000
0000
1003
0000
0000
,
1100
0000
0000
0000
0000
0000
0010
0000
0000
0011
0000
0000
0000
0000
0000
1001
0000
0000
0001
0000
0100
0000
0000
0100
,
0010
0000
0000
2000
0000
0000
0000
0000
3002
0000
0000
0000
0013
0000
0001
0000
0000
1000
0001
0000
0000
0100
0000
0000
,
0010
0000
0000
1000
0000
0000
0000
0000
0000
1000
0000
0000
0001
0000
0000
0000
0000
0000
0000
0000
0000
0000
0000
0000
0000
0000
0000
0000
0011
0000
0000
0000
0000
0000
1100
0000
0000
0000
0000
0000
0000
0000
0010
0000
0000
0000
0000
0000
,
0000
0000
0110
0000
0000
0110
0000
0000
0110
0000
0000
0110
0000
0000
0110
0000
,
2002
0000
0000
0000
3000
0000
0000
0000
0103
0000
0001
1000
0001
0000
0000
0000
,
1001
0000
0000
0200
0000
0000
0000
0000
0320
0000
0000
0000
1030
0000
0001
0000
0000
1000
0001
0000
0000
0100
0000
0000
,
0020
1000
1030
0002
0100
0103
0120
0000
,
1030
0000
0000
0200
0000
0000
0000
0000
0320
0000
0000
0000
0031
0000
0100
0000
0000
0010
1000
0000
0000
0001
0000
0000
,
0022
0000
0000
0000
0030
0000
1000
0000
1003
0000
0001
0100
0001
0000
0000
0000
,
1010
0000
0000
0001
0000
0000
1000
0000
0000
0000
0100
0000
0000
0000
0010
0000
0000
0000
0001
0000
0000
0000
0100
0000
,
0000
0010
0000
1000
0000
0100
0000
1000
0000
0001
0000
0100
,
0000
0010
0000
1000
0000
0001
0000
1000
0000
0100
0000
0010
,
0000
0000
0100
0000
0000
0000
1000
0000
0000
0000
0010
0000
0000
0000
0001
0000
0000
0000
0010
0000
0000
1000
0000
0000
,
0001
0000
0000
0100
0000
0000
0010
0000
0000
0000
1000
0000
0000
0000
0100
0000
0000
0000
0010
0000
0000
0000
0001
0000
,
0000
1000
0000
0100
0000
0001
0000
0100
0000
1000
0000
0010
,
0000
0100
0000
0010
0000
0100
0000
0001
0000
1000
0000
0000
,
1100
0000
0000
0110
0000
0000
0011
0000
0000
0000
0100
0000
0010
1000
0000
0000
,
1001
0000
0000
0100
0000
0000
0001
0000
0000
0000
0010
0000
0000
0000
0100
0000
0000
0000
1000
0000
0000
0000
0001
0000
,
0000
1000
0000
0001
0000
0100
0000
1000
0000
0100
0000
0010
,
0000
0100
0000
0001
0000
1000
0000
0100
0000
0010
0000
0010
,
0000
0000
0001
0000
0000
0000
1000
0000
0000
0000
0001
0000
0000
0000
0100
0000
0000
0000
0100
0000
0000
0010
0000
0000
,
1000
0000
0000
0100
0000
0000
0010
0000
0000
0000
0001
0000
0000
0000
1000
0000
0000
0000
0001
0000
0000
0000
1000
0000
,
0000
0010
0000
0100
0000
0001
0000
0010
0000
0100
0000
1000
,
0000
0001
0000
1000
0000
0010
0000
0100
0000
0001
0000
0000
,
0101
0000
0000
1100
0000
0000
0101
0000
0000
0000
0010
0000
1000
0001
1000
0001
,
1000
0000
0000
0000
;

//---------------dance-single - ----------------
#NOTES:
     dance-single:
     :
     Medium:
     10:
     0.382986,0.494677,0.224344,0.381384,0.123389,239.000000,219.000000,20.000000,34.000000,0.000000,0.000000,0.382986,0.494677,0.224344,0.381384,0.123389,239.000000,219.000000,20.000000,34.000000,0.000000,0.000000:
0000
0000
0000
0000
,
0000
0000
0000
0000
,
0000
0000
0000
0000
,
0000
0000
0000
0000
,
0000
0000
0000
0000
,
0000
0000
0000
0000
,
0000
0000
0000
0000
,
0000
0000
0000
0000
,
0000
0000
0000
0000
,
0001
0010
0100
0000
1000
0000
0001
0000
,
1000
0100
0010
0001
,
0100
0001
1000
0000
0010
0000
0100
0000
,
0010
1000
0001
1000
,
0100
0010
0001
0000
0100
0010
1000
0000
,
0001
0010
0100
0000
1000
0001
1000
0000
,
0010
0100
0010
0100
0010
0100
0010
0100
,
0001
1000
0001
1000
0020
0000
0000
0000
,
0130
0002
0000
2003
0000
3002
0000
0203
,
0000
0000
0000
0310
0000
0000
1000
0000
0000
0000
0000
0000
0000
0000
0100
0000
0000
0100
0000
0000
0000
0000
0000
0000
,
0000
0000
0000
2000
0000
0000
0000
0000
3002
0000
0000
0000
0023
0000
0000
0000
0000
0032
0000
0000
0000
0103
0000
0000
,
0000
0010
1000
0010
0100
0001
1000
0000
,
0010
0000
0000
0200
0000
0000
0000
0000
0302
0000
0000
0000
0023
0000
0000
0000
0000
0230
0000
0000
0000
1300
0000
0000
,
0002
0000
0000
0000
0000
0000
1003
0000
0000
0000
0000
0000
0000
0000
0010
0000
0000
0010
0000
0000
0000
0000
0000
0000
,
0000
0000
0000
2000
0000
0000
0000
0000
3020
0000
0000
0000
0130
0000
0000
0001
0000
0000
1000
0000
0000
0000
0000
0000
,
1100
0000
0000
0011
0000
1001
0000
0100
,
0010
0000
0000
2000
0000
0000
0000
0000
3002
0000
0000
0000
2003
0000
0000
0000
0000
3200
0000
0000
0000
0310
0000
0000
,
0001
0000
0000
0100
0000
0000
1000
0000
0000
0000
0000
0000
0000
0000
0010
0000
0000
0010
0000
0000
0000
0000
0000
0000
,
0000
0000
0110
0000
0000
0110
0000
0000
0110
0000
0000
0110
0000
0000
0110
0000
,
2002
0000
0003
0000
3010
1000
0100
0000
,
1001
0000
0000
0020
0000
0000
0000
0000
0230
0000
0000
0000
0320
0000
0000
0000
0000
2030
0000
0000
0000
3001
0000
0000
,
0020
0000
0031
2000
0000
3001
0200
0000
,
0000
0000
0000
0302
0000
0000
0000
0000
0023
0000
0000
0000
0230
0000
0000
0000
0000
2300
0000
0000
0000
3001
0000
0000
,
0200
0000
0300
0001
1000
0001
0100
0000
,
0010
1000
0100
0000
0010
0001
0100
0000
,
0001
0010
0100
0000
1000
0001
1000
0000
,
0010
1000
0001
0000
1000
0100
0010
0000
,
0001
0100
0010
0000
0100
0001
1000
0000
,
0001
0010
0100
0000
0010
0001
1000
0000
,
0001
1000
0001
0000
0100
0010
0100
0000
,
0010
1000
0100
0000
0010
0001
0100
0000
,
0101
0000
0000
1100
0000
0000
0101
0000
0000
0000
1001
0000
0000
0110
0000
0000
,
1001
0010
1000
0000
0001
1000
0100
0000
,
0010
0001
0010
0000
0001
0100
1000
0000
,
0001
1000
0010
0000
0100
0001
1000
0000
,
0100
0010
0100
0000
1000
0010
1000
0000
,
0001
0010
0001
0000
1000
0001
0100
0000
,
0001
0010
0100
0000
0010
0001
0100
0000
,
0010
1000
0001
0000
1000
0100
0010
0000
,
0011
0000
0000
0110
0000
0000
1100
0000
0000
0000
0010
0000
1000
0000
0001
0000
,
1010
0000
0000
0000
;

//---------------dance-single - ----------------
#NOTES:
     dance-single:
     :
     Easy:
     7:
     0.270815,0.329785,0.134606,0.067303,0.000000,169.000000,157.000000,12.000000,6.000000,0.000000,0.000000,0.270815,0.329785,0.134606,0.067303,0.000000,169.000000,157.000000,12.000000,6.000000,0.000000,0.000000:
0000
0000
0000
0000
,
0000
0000
0000
0000
,
0000
0000
0000
0000
,
0000
0000
0000
0000
,
0000
0000
0000
0000
,
0000
0000
0000
0000
,
0000
0000
0000
0000
,
0000
0000
0000
0000
,
0000
0000
0000
0000
,
0001
0010
0100
1000
,
0010
1000
0001
0100
,
0001
0010
0001
0100
,
0010
1000
0100
1000
,
0010
0010
0100
0100
,
0001
0001
1000
1000
,
0001
1000
0100
0010
,
0001
0001
0002
0003
,
1001
0100
0010
1000
,
0002
0000
0013
0000
0000
0100
1000
0000
,
0000
0010
1000
0001
,
0000
0010
0000
0001
1000
0001
0100
0000
,
0110
1000
0100
0001
,
0010
0000
0100
0000
0000
1000
0001
0000
,
0000
0100
0001
1000
,
1100
0000
0000
0011
0000
1001
0000
0000
,
0110
0010
1000
0100
,
1000
0001
1000
0100
,
0000
0010
0000
0001
0000
1000
0000
0010
,
0200
0300
0101
1100
,
0101
0010
1000
0001
,
2000
0000
0000
3200
0000
0000
0320
0000
,
0000
0001
1000
0031
,
1001
0000
0000
0100
0010
0100
0010
0000
,
1000
0010
1000
0001
,
0010
0001
0010
0100
,
1000
0010
1000
0001
,
0100
0010
0100
0001
,
0010
0100
0010
0100
,
1000
0010
1000
0001
,
0010
0001
0100
0010
,
1000
0100
1000
0001
,
0010
0001
0010
0100
,
1000
0010
1000
0001
,
0010
0001
0100
0001
,
1000
0010
1000
0100
,
0010
0001
0100
0001
,
1000
0010
0100
0001
,
0010
0001
1000
0010
,
0110
0000
0000
1001
0000
0010
0100
0001
,
1000
0000
0000
0000
;

//---------------dance-single - ----------------
#NOTES:
     dance-single:
     :
     Beginner:
     2:
     0.105762,0.137410,0.000000,0.000000,0.000000,66.000000,66.000000,0.000000,0.000000,0.000000,0.000000,0.105762,0.137410,0.000000,0.000000,0.000000,66.000000,66.000000,0.000000,0.000000,0.000000,0.000000:
// measure 0
0000
0000
0000
0000
,  // measure 1
0000
0000
0000
0000
,  // measure 2
0000
0000
0000
0000
,  // measure 3
0000
0000
0000
0000
,  // measure 4
0000
0000
0000
0000
,  // measure 5
0000
0000
0000
0000
,  // measure 6
0000
0000
0000
0000
,  // measure 7
0000
0000
0000
0000
,  // measure 8
0000
0000
0000
0000
,  // measure 9
0001
0000
0000
0000
,  // measure 10
0100
0000
0000
0000
,  // measure 11
0010
0000
0000
0000
,  // measure 12
1000
0000
0000
0000
,  // measure 13
0001
0000
0001
0000
,  // measure 14
1000
0000
1000
0000
,  // measure 15
0010
0000
0010
0000
,  // measure 16
0100
0000
0100
0000
,  // measure 17
0000
0001
0000
0001
,  // measure 18
0000
0010
0000
0010
,  // measure 19
0000
0100
0000
0100
,  // measure 20
0000
1000
0000
1000
,  // measure 21
0000
0010
0000
1000
,  // measure 22
0000
0010
0000
0100
,  // measure 23
0000
0100
0000
0001
,  // measure 24
0000
0000
0000
0000
,  // measure 25
0100
0000
0010
0000
,  // measure 26
1000
0000
0100
0000
,  // measure 27
0000
0010
0000
0010
,  // measure 28
0010
0000
0001
0000
,  // measure 29
0000
1000
0000
0001
,  // measure 30
0000
0100
0000
0010
,  // measure 31
0000
1000
0000
0001
,  // measure 32
0000
0000
0100
0000
,  // measure 33
0100
0000
0000
0000
,  // measure 34
0010
0000
0000
0000
,  // measure 35
1000
0000
0000
0000
,  // measure 36
0001
0000
0000
0000
,  // measure 37
0010
0000
0000
0000
,  // measure 38
0100
0000
0000
0000
,  // measure 39
1000
0000
0000
0000
,  // measure 40
0100
0000
0000
0000
,  // measure 41
1000
0000
0010
0000
,  // measure 42
1000
0000
0001
0000
,  // measure 43
0010
0000
0100
0000
,  // measure 44
1000
0000
0010
0000
,  // measure 45
1000
0000
0001
0000
,  // measure 46
1000
0000
0100
0000
,  // measure 47
0010
0000
0001
0000
,  // measure 48
0100
0000
0100
0000
,  // measure 49
0100
0000
0000
0000
;
