#TITLE:dica dica;
#ARTIST:REMO-CON;
#BANNER:dica dica-bn.png;
#BACKGROUND:dica dica-bg.png;
#JACKET:dica dica-jacket.png;
#MUSIC:dica dica.ogg;
#SAMPLESTART:5.5;
#SAMPLELENGTH:20;
#DISPLAYBPM:175;
#BPMS:0=175;
#BGCHANGES:;

//---------------dance-single - ----------------
#NOTES:
     dance-single:
     :
     Beginner:
     4:
     :
0000
0000
0000
0000
,
0000
0000
0000
0000
,
0000
0000
0000
0000
,
0000
0000
0000
0000
,
0010
0000
0000
0000
,
0000
0000
0000
0000
,
0100
0100
0000
0000
,
0000
0000
0000
0000
,
0010
0000
0000
0000
,
0000
0000
0000
0000
,
1000
0000
0000
0000
,
0000
0000
0000
0000
,
0001
0000
0010
0000
,
0010
0000
0010
0000
,
0001
0001
0000
0000
,
1000
0000
0010
0000
,
0100
0100
0100
0000
,
0010
0000
1000
0000
,
0001
0000
0000
0000
,
0000
0000
0000
0000
,
1001
0000
0000
0000
,
0010
0000
0000
0100
,
0100
0000
0000
0000
,
0001
0001
1000
1000
,
0001
0000
0000
0000
,
0010
0000
0000
0100
,
0100
0000
0000
0000
,
1000
0000
0001
0000
,
1001
0000
0010
0000
,
1000
1000
1000
0000
,
0001
0000
0010
0000
,
0001
0001
1000
1000
,
0001
0000
0000
0000
,
0000
0000
0000
0000
,
0100
0000
0010
0000
,
1000
0000
0001
0000
,
1001
0000
0000
0000
,
0000
0000
0000
0000
,
0110
0000
0000
0000
,
0000
0000
0000
0000
,
1001
0000
0000
0000
,
0000
0000
0000
0000
,
1000
1000
0001
0001
,
0100
0000
0010
0000
,
0110
0000
0000
0000
,
1000
0000
0001
0000
,
0010
0000
0001
0000
,
0100
0000
0010
0000
,
2000
0000
0000
0000
,
0000
0000
3000
0000
,
0002
0000
0003
0000
,
0200
0000
0300
0000
,
0010
0010
0010
0000
,
0010
0010
0010
0000
,
1001
0000
0010
0000
,
1000
0000
0100
0010
,
0001
0000
1000
0000
,
0001
0001
1000
1000
,
0010
0000
1000
0000
,
1001
0000
0010
0000
,
0100
0010
1000
0000
,
0001
0000
1000
0000
,
1001
0000
0010
0000
,
1000
0000
0100
1000
,
0001
0000
0010
0000
,
0001
0000
0100
0010
,
0100
0000
0001
0000
,
0010
0000
1000
1000
,
1000
0000
0001
0000
,
0010
0010
0001
1000
,
0020
0000
0000
0000
,
0000
0000
0030
0000
,
1001
0000
0100
0000
,
0100
0100
0100
0000
,
0010
0000
1000
0000
,
0010
0000
1000
0000
,
0001
0000
0100
0000
,
0001
0000
0100
0000
,
0110
0000
1000
0001
,
0010
0000
0001
0100
,
0001
0000
0010
0100
,
1000
0000
0010
1000
,
0010
0000
0100
0000
,
0010
0000
1000
0000
,
1001
0000
0000
0000
,
0000
0000
0000
0000
,
0010
0000
0000
0000
;

//---------------dance-single - ----------------
#NOTES:
     dance-single:
     :
     Easy:
     7:
     :
0000
0000
0000
0000
,
0000
0000
0000
0000
,
0000
0000
0000
0000
,
0000
0000
0000
0000
,
0110
0000
0001
0100
,
0001
0100
0001
0100
,
0110
1001
1000
0100
,
1000
0100
1000
0100
,
0110
0000
0001
0100
,
0001
0100
0001
0100
,
0110
1000
0010
1000
,
0100
0010
0001
0001
,
0110
0000
0001
0010
,
0001
0010
0001
0010
,
0110
1001
1000
0010
,
1000
0010
1000
0010
,
1100
0101
0010
0010
,
1000
0100
1000
0001
,
1001
0010
1000
0100
,
0010
0010
0001
1000
,
1001
0000
1000
0100
,
0010
0001
0100
0110
,
1000
0001
0010
0100
,
0110
1001
0110
1001
,
0110
0000
0001
0010
,
0001
0100
1000
0010
,
1000
0010
1000
0001
,
0100
0100
0100
0101
,
1010
0000
0001
0000
,
1000
0010
1000
0001
,
0010
0001
0100
1000
,
1010
0101
1010
0101
,
1010
0000
0100
0100
,
1000
0010
1000
0001
,
0010
0001
0100
1000
,
0010
0010
0100
0000
,
1001
0000
0010
0000
,
1000
0100
1000
0000
,
0101
0000
1000
0001
,
0100
0010
1000
0000
,
1100
0100
0001
0100
,
0010
1000
1000
0000
,
1100
0011
1100
0011
,
1001
0110
0010
0100
,
0001
0001
1000
1000
,
0001
0010
0001
0100
,
0010
0010
1000
1000
,
0100
0010
0100
1000
,
0002
0003
2000
3000
,
0020
0030
2000
3000
,
0200
0300
0020
0030
,
0002
0003
0200
0300
,
2020
3000
1000
1030
,
0202
0003
0001
0301
,
1001
0010
1000
0100
,
0001
1000
0001
0100
,
0010
1000
0100
0001
,
0011
0000
0000
1100
0000
0000
0001
1000
,
0001
0100
0001
0010
,
1100
1000
0010
0001
,
0100
0010
1000
0001
,
0100
0100
0100
0101
,
1010
0000
0000
0001
0000
0000
0010
0000
,
0000
0100
0000
0000
1000
0000
0001
0000
,
0100
0000
0000
0010
0000
0000
1000
0000
,
0001
0010
0100
0000
1000
0000
1000
0000
,
0001
0000
0000
1000
0000
0000
0010
0000
,
0000
1000
0000
0000
0100
0000
0001
0000
,
0010
0000
0000
0001
0000
0000
1000
0000
,
0010
0000
0010
0000
1000
0001
0000
1000
,
0002
0003
2000
3000
,
0200
0300
0020
0030
,
0002
0003
2000
3000
,
0020
0030
0200
0300
,
0001
0001
1000
1000
,
0010
1000
0100
0001
,
0010
0001
0100
1000
,
0001
0001
0010
1000
,
1001
0010
1000
0100
,
1000
0001
0010
0100
,
0010
0001
0100
1000
,
0010
1000
0001
0100
,
0101
0010
1000
0100
,
0010
0010
0001
1000
,
0010
1000
0100
0001
,
0010
0100
0001
1000
,
0010
0000
0000
0000
;

//---------------dance-single - ----------------
#NOTES:
     dance-single:
     :
     Medium:
     13:
     :
0000
0000
0000
0000
,
0000
0000
0000
0000
,
0000
0000
0000
0000
,
0000
0000
0000
0000
,
0110
0000
0000
0000
0001
0100
0001
0100
,
0001
0100
0001
0100
0001
0100
0001
0100
,
0010
0000
1001
0000
1000
0100
1000
0100
,
1000
0100
1000
0100
1000
0100
1000
0100
,
0010
0000
0000
0000
0001
0100
0001
0100
,
0001
0100
0001
0100
0001
0100
0001
0100
,
0010
0000
1000
0001
1000
0001
0100
0010
,
1000
0100
1000
0100
0010
0001
0100
0001
,
0010
0000
0000
0000
0001
1000
0010
0100
,
0001
1000
0010
0100
0001
1000
0010
0100
,
0010
0000
1001
0000
1000
0100
0010
0001
,
0100
0010
0100
0010
1000
0100
0010
0001
,
0100
0000
0000
0100
0000
0000
0100
0000
0001
0000
0010
0000
0001
0000
0010
0000
,
0100
1000
0100
1000
0001
0010
0100
1000
,
0010
0000
1000
0100
1000
0100
0010
0001
,
0100
0010
0100
0010
1000
0001
0100
0010
,
1000
0010
1000
0001
,
0010
0001
0100
0110
,
1000
0010
1000
0100
1000
0010
1000
0000
,
0101
1100
0101
1100
,
0101
0000
0010
0000
1000
0000
0100
0010
,
0001
0000
1000
0000
0010
1000
0100
0010
,
0001
0100
0001
0010
,
0001
0000
0000
0001
0000
0000
0001
0000
0000
0000
1000
0000
0001
0000
0000
0000
,
1001
0000
0010
1000
0100
0010
0001
0100
,
1000
0000
0010
1000
0001
1000
0100
0010
,
0001
0000
0010
0001
0100
0010
1000
0000
,
1100
0101
1100
0101
,
1100
0010
1000
0100
,
1000
0010
0100
0001
,
0010
0010
0100
0100
1000
0001
1000
0001
,
0100
0010
1000
0001
,
0010
0000
0001
0000
0100
0010
1000
0001
,
0000
0100
0100
0000
0100
0000
0000
0010
,
1001
0000
0010
0000
1000
0001
0000
0010
,
0000
0001
0100
0000
0010
1000
0000
0001
,
1000
0000
0100
0000
1000
0010
0100
0001
,
0000
0010
0010
0000
0010
0000
0000
0100
,
1001
0110
1001
0110
,
1001
0000
0001
0000
0010
1000
0100
0010
,
0001
0000
0100
0010
1000
0000
0001
0010
,
0100
0000
1000
0010
1000
0000
0001
0100
,
0110
0000
1000
0001
1000
0000
0100
0010
,
0001
0000
1000
0100
1000
0010
0100
0000
,
0002
0013
0002
0103
,
0020
1030
0200
0310
,
0200
1300
0020
0130
,
0002
0013
2000
3100
,
0010
0100
0010
0100
0010
0100
0010
0000
,
0001
1000
0001
1000
0001
1000
0001
0000
,
1001
0100
0001
0010
,
0100
0000
1000
0000
0010
1000
0001
0000
,
0100
0001
0010
1000
,
1100
0000
0101
0000
1100
0000
0001
0100
,
1000
0010
0100
0000
0001
0010
0001
0000
,
0101
0000
0010
0000
1000
0100
1000
0001
,
0100
0010
1000
0000
0100
0010
0001
0000
,
1000
0000
0000
1000
0000
0000
1000
0000
0000
0000
0001
0000
1000
0000
0000
0000
,
1001
0000
0010
0001
0100
0010
1000
0000
,
0001
0100
0000
0010
1000
0000
0100
0000
,
0010
0000
0001
1000
0010
1000
0100
0000
,
0010
0001
0000
0100
1000
0000
0001
0000
,
0100
0000
0010
1000
0100
0010
0001
1000
,
0001
0010
0000
0100
1000
0000
0010
0100
,
0010
0000
1000
0100
0010
0001
1000
0000
,
0001
0100
0001
0100
0001
0100
0001
0100
,
0002
0013
2000
3001
,
0020
0130
2000
3010
,
0200
0310
0200
0301
,
0020
0130
2000
3001
,
2000
3020
0230
0302
,
0023
0230
0320
0032
,
2003
3020
0230
0302
,
0013
0100
0010
0001
0100
0010
1000
0001
,
0110
0000
1000
0001
0010
0100
1000
0000
,
0010
1000
0000
1000
0100
0000
0001
0000
,
0010
0000
0001
0100
0010
1000
0001
0000
,
1000
0100
0000
0010
0001
0000
0100
0010
,
1000
0010
0101
1100
,
0001
0100
0002
0000
0013
0100
1000
0001
,
1001
0000
0010
1000
0100
0010
0001
0100
,
0001
0010
0100
1000
0010
1000
0001
1000
,
0020
0030
0000
0000
0000
0000
0000
0000
;

//---------------dance-single - ----------------
#NOTES:
     dance-single:
     :
     Hard:
     16:
     :
0000
0000
0000
0000
,
0000
0000
0000
0000
,
0000
0000
0000
0000
,
0000
0000
0000
0000
,
1010
0000
0000
0000
0000
0000
0000
0000
0001
0100
0001
0100
0001
0100
0001
0100
,
0001
0100
0001
0100
0001
0100
0001
0100
0001
0100
0001
0100
0001
0100
0001
0100
,
0010
0000
0000
0000
1001
0000
0000
0000
1000
0100
1000
0100
1000
0100
1000
0100
,
1000
0100
1000
0100
1000
0100
1000
0100
1000
0100
1000
0100
1000
0100
1000
0100
,
0010
0000
0000
0000
0000
0000
0000
0000
0001
0100
0001
0100
0001
0100
0001
0100
,
0001
0100
0001
0100
0001
0100
0001
0100
0001
0100
0001
0100
0001
0100
0001
0100
,
0010
0000
0000
1000
0100
0010
0001
0100
0010
1000
0100
0010
,
0001
0100
0010
1000
0100
0010
0001
1000
0100
1000
0001
0100
,
0020
0000
0000
0000
0030
0000
0000
0000
1000
0100
1000
0100
1000
0100
1000
0100
,
1000
0100
1000
0100
1000
0100
1000
0100
1000
0100
1000
0100
1000
0100
1000
0100
,
0010
0000
0000
0000
1001
0000
0000
0000
0001
0100
0001
0100
0001
0100
0001
0100
,
0001
0100
0001
0100
0001
0100
0001
0100
0001
0100
0001
0100
0001
0100
0001
0100
,
0010
0000
0000
0010
0000
0000
0010
0000
1000
0100
1000
0100
1000
0100
1000
0100
,
1000
0100
1000
0100
1000
0100
1000
0100
1000
0000
0100
0000
1000
0000
0100
0000
,
0010
0000
0000
0001
0010
0100
1000
0100
0010
0001
0100
0010
,
1000
0000
0100
0000
0010
0000
0001
0000
0100
0000
0010
0000
1000
0000
0000
1000
0000
0000
1000
0000
0000
1000
0000
0000
,
0010
0000
0000
0000
1000
0000
0100
0000
0010
0000
0001
0100
0001
0000
0010
0000
,
0100
0000
0000
0000
1000
0000
0001
0000
1000
0000
0010
0100
0001
0000
0000
0000
,
0010
0000
0000
0000
0001
0000
1000
0000
0100
0000
0010
0001
1000
0000
0000
0000
,
0110
1001
0110
1001
,
0110
0000
0000
0000
0001
0000
0010
0100
1000
0000
0010
1000
0001
0000
0100
0000
,
0010
0000
0000
0000
1000
0000
0100
0010
0100
0000
1000
0010
0100
0001
1000
0000
,
0010
1000
0100
0010
0001
0100
0001
1000
,
1100
0000
0000
0101
0000
0000
1100
0000
0000
0000
0101
0000
1100
0000
0000
0000
,
1001
0000
0010
0000
0100
0000
0001
0000
0010
0000
0100
1000
0100
0000
0010
0000
,
0001
0000
0100
0000
0010
0000
1000
0000
0001
0000
0010
0001
1000
0000
0010
0100
,
0001
0000
0010
0000
0100
0000
1000
0000
0010
0000
0100
0001
0100
0000
0010
0000
,
1010
0101
1010
0101
,
1010
0000
0001
0010
0001
0100
0010
1000
,
0100
0010
0001
1000
0010
0001
0010
1000
,
0100
0010
0100
0010
0001
0000
1000
0010
1000
0100
0010
0100
1000
0000
0001
0000
,
0100
0010
0100
0010
0100
0010
0100
0010
,
1000
0100
0001
0000
0010
0100
0010
0001
,
0000
1000
1000
0010
0100
0000
0000
0110
,
1001
0000
0010
0000
1000
0001
0000
0100
,
0010
1000
0100
0000
1000
0001
0000
0100
,
1001
0000
0010
0000
1000
0001
1000
0100
,
0000
0010
0010
0001
1000
0000
0000
1100
,
0011
0101
1100
1010
,
0101
0000
0010
1000
0010
1000
0010
1000
0010
0000
0010
0000
0010
0000
0010
0000
,
0100
0001
0010
1000
0100
0010
0100
0001
,
0010
0000
1000
0000
0100
0000
0010
0000
0001
0000
0100
0010
1000
0000
1001
0000
,
0110
0000
0000
0000
0100
0000
0001
0000
0010
0000
0100
0000
1000
0001
1000
0001
,
1000
0000
0010
0000
0100
0000
0001
0000
0010
0100
0010
0100
0010
0000
0001
0000
,
2000
3020
0230
0302
,
0023
0230
2300
3002
,
1003
0010
0000
0000
0100
0001
0000
0000
1000
0100
0000
0000
0010
0001
0000
0000
,
1000
0001
0100
0010
1000
0001
0010
0100
,
1000
0010
1000
0010
1000
0010
1000
0010
1000
0000
0010
0000
1000
0000
0010
0000
,
0100
0001
0100
0001
0100
0001
0100
0001
0100
0000
0001
0000
0100
0000
0001
0000
,
1001
0000
0010
0001
0100
1000
0010
0100
,
0001
0000
0000
0000
0010
0000
0100
0000
0010
0000
0001
1000
0100
0000
0000
0000
,
0110
0000
0001
0100
0010
1000
0001
0010
,
0101
0000
1100
0000
0101
0000
1000
0001
,
0010
0000
1000
0000
0100
0000
1000
0010
1000
0000
0001
0000
0010
0000
0100
0000
,
1100
0000
0000
0000
0001
0000
0010
0001
0100
0000
0010
0000
1000
0000
0001
0000
,
0010
0000
0001
0000
0100
0000
0010
0000
1000
0000
0100
0010
0001
0000
1000
0000
,
0101
0000
0000
1100
0000
0000
0101
0000
0000
0000
1100
0000
0101
0000
0000
0000
,
1001
0000
0010
0000
1000
0000
0100
0000
0010
0000
0001
1000
0010
0000
0100
0000
,
0001
0000
0010
0100
1000
0000
0010
0000
1000
0000
0001
0100
0010
0000
1000
0000
,
0100
0000
0000
0000
0010
0000
0001
1000
0001
0000
0100
0000
0010
0000
1000
0001
,
0100
0000
0010
0000
1000
0000
0001
0010
0100
0000
0010
0001
1000
0000
0010
0100
,
0001
0000
1000
0100
1000
0000
0010
0000
0100
0000
0001
0010
0001
0000
1000
0100
,
1000
0000
0010
0000
0100
0000
0001
0010
0001
0000
1000
0100
1000
0000
0010
0000
,
0100
0000
0001
0000
0010
0000
0001
1000
0001
0000
0100
0010
1000
0000
0001
0000
,
0010
0000
0100
0000
0010
0000
0001
1000
0001
0000
0100
0000
0010
0000
1000
0000
,
0002
0203
0320
2030
,
3200
0320
0032
2003
,
3002
2003
3200
0320
,
0230
2300
3002
0023
,
0031
0000
0000
0000
0001
0000
0000
0000
1000
0000
0000
0000
1000
0000
0000
0001
,
0100
0000
0000
0010
0000
0000
1000
0000
0000
0001
0100
0001
,
0100
0010
0100
0010
1000
0001
1000
0001
,
0010
0010
0100
0100
1000
0001
1000
0001
,
0011
0000
0000
0000
0100
0000
1000
0010
1000
0000
0001
0000
0100
0000
0010
0000
,
1000
0000
0100
0000
0010
0000
0001
0100
0001
0000
1000
0100
1000
0000
0000
0000
,
0010
0000
1000
0000
0100
0000
0010
0001
0010
0000
0001
0000
0100
0000
0010
1000
,
0001
0000
0100
0000
0010
0000
1000
0100
1000
0000
0001
0100
0001
0000
0000
0000
,
0011
0000
0000
0000
1100
0000
0000
0000
0101
0000
0000
0000
1100
0000
0000
0001
,
0100
0000
0100
0000
0100
0000
0000
0010
1000
0000
1000
0000
1000
0000
0100
0000
,
0110
0000
0000
0001
0010
0100
1000
0010
1000
0001
0010
0100
,
0010
0000
0001
0000
0100
0000
0010
0000
1000
0000
0001
0000
0100
0000
0000
0100
0000
0000
0100
0000
0000
0100
0000
0000
,
0020
0030
0000
0000
0000
0000
0000
0000
;

//---------------dance-single - ----------------
#NOTES:
     dance-single:
     :
     Challenge:
     18:
     :
0000
0000
0000
0000
,
0000
0000
0000
0000
,
0000
0000
0000
0000
,
0000
0000
0000
0000
,
1010
0000
0000
0000
0000
0000
0000
0000
0001
0100
0001
0100
0001
0100
0001
0100
,
0001
0100
0001
0100
0001
0100
0001
0100
0001
0100
0001
0100
0001
0100
0001
0100
,
0010
0000
0000
0000
1001
0000
0000
0000
1000
0100
1000
0100
1000
0100
1000
0100
,
1000
0100
1000
0100
1000
0100
1000
0100
1000
0100
1000
0100
1000
0100
1000
0100
,
0010
0000
0000
0000
0000
0000
0000
0000
0001
0100
0001
0100
0001
0100
0001
0100
,
0001
0100
0001
0100
0001
0100
0001
0100
0001
0100
0001
0100
0001
0100
0001
0100
,
0010
0000
0000
0000
0000
0000
1000
0000
0001
0000
1000
0000
0001
1000
0001
1000
0001
1000
0001
0000
1000
0000
0001
0000
,
1000
0000
0000
0000
0001
0000
0000
0000
1000
0000
0000
0000
0001
0000
0000
1000
0000
0000
0001
0000
0000
1000
0000
0000
0001
0000
1000
0000
0001
0000
1000
0000
0001
0000
1000
0000
0001
0000
0000
1000
0000
0000
0001
0000
0000
1000
0000
0000
,
0010
0000
0000
0000
0010
0000
0000
0000
1000
0100
1000
0100
1000
0100
1000
0100
,
0010
0001
0010
0001
0010
0001
0010
0001
0010
0001
0010
0001
0010
0001
0010
0001
,
0100
0000
0000
0000
1001
0000
0000
0000
0010
1000
0010
1000
0010
1000
0010
1000
,
0001
0010
0001
0010
0001
0010
0001
0010
0001
0010
0001
0010
0001
0010
0001
0010
,
0100
0000
0000
1100
0000
0000
0011
0000
1000
0010
1000
0010
1000
0010
1000
0010
,
0100
0001
0100
0001
0100
0001
0100
0001
0100
0000
0100
0000
0100
0000
0100
0000
,
0101
0000
0000
0000
0000
0000
1000
0000
0001
0000
1000
0000
0001
1000
0001
1000
0001
1000
0001
0000
1000
0000
0001
0000
,
1000
0000
0000
0000
0001
0000
0000
0000
1000
0000
0000
0000
0001
0000
0000
1000
0000
0000
0001
0000
1000
0000
0001
0000
1000
0000
0000
0000
0000
0000
0001
0000
0000
0000
0000
0000
1000
0000
0000
0000
0000
0000
0001
0000
0000
0000
0000
0000
,
0010
0000
0001
0100
0000
0000
0010
1000
0000
0000
0100
0010
0001
0000
0100
0000
,
0010
0000
1000
0001
0000
0000
1000
0100
0000
0000
1000
0010
0100
0000
0001
0000
,
0010
0000
0100
1000
0000
0000
0001
1000
0000
0000
0010
1000
0001
0000
0100
0000
,
0110
1001
0110
1001
,
0110
0000
0000
0000
1000
0000
0010
1000
0100
0000
0010
0001
0100
0000
0010
0000
,
1000
0000
0001
0010
0000
0000
0001
0100
0000
0000
0010
1000
0100
0010
0001
0000
,
0100
0000
0010
1000
0000
0000
0001
0010
0000
0000
0001
0100
0010
1000
0001
0000
,
0011
0000
0000
0110
0000
0000
1100
0000
0000
0000
0101
0000
1100
0000
0000
0000
,
1001
0000
0001
0010
0001
0000
1000
0010
1000
0000
0001
0100
0010
0000
1000
0000
,
0100
0000
0010
0001
0010
0000
0100
1000
0100
0000
1000
0010
1000
0000
0001
0000
,
0100
0000
0001
0010
0001
0000
1000
0100
1000
0000
0010
1000
0001
0000
0100
0000
,
1010
0101
1010
0101
,
1010
0000
0100
1000
0010
1000
0100
0001
,
0010
0000
0001
0100
0010
0100
0001
0010
,
1000
0100
1000
0100
0010
0000
0001
0100
0010
1000
0010
1000
0010
0100
0001
0000
,
0010
0001
0010
0001
0010
0100
0010
0100
1000
0001
1000
0001
1000
0100
1000
0100
,
0010
0001
0001
0100
0010
0010
1000
0001
,
0000
1000
1000
0100
1000
0000
0001
0110
,
1001
0000
0010
1000
0001
0100
0010
1000
,
0100
0010
0001
1000
1000
0001
0000
0100
,
1001
0010
1000
0000
1000
0001
0100
0100
,
0000
0001
0001
1000
0001
0000
0010
0011
,
1100
0101
1100
0101
,
1000
0001
0100
0010
1000
0001
0100
0010
1000
0000
0001
0000
0100
0000
0010
0000
,
1000
0001
0010
0001
0100
1000
0010
0001
,
1000
0001
0010
1000
0100
0001
0010
0110
,
1001
0010
1000
0100
1000
0010
0001
1000
,
0010
1000
0010
1000
0100
0000
0010
0001
0010
0100
1000
0010
1000
0000
0001
0000
,
0200
0001
0000
0000
0302
0010
0000
0000
0023
0100
0000
0000
0230
1000
0000
0000
,
2300
0001
0000
0000
3002
0010
0000
0000
0023
0100
0000
0000
0230
0010
0000
0000
,
0310
0001
0010
0000
0001
0010
0001
0000
1000
0010
1000
0000
0010
1000
0010
0000
,
0100
0001
0100
0000
0001
0100
0001
0000
1000
0100
1000
0000
0100
1000
0100
0000
,
0010
0100
0010
0100
0010
0100
0010
0100
0010
0000
0100
0000
0010
0000
0100
0000
,
1000
0001
1000
0001
1000
0001
1000
0001
1000
0000
0001
0000
1000
0000
0001
0000
,
1001
0000
0010
1000
0001
1000
0100
0010
,
0001
0000
0000
0000
0100
0000
0001
0000
0010
0000
0100
1000
0001
1000
0100
0000
,
0010
0000
0001
0100
0010
1000
0001
0010
,
1100
0000
0011
0000
1100
0000
0011
0100
,
1100
0000
0000
0000
0001
0000
0100
0000
0001
0000
0010
0100
1000
0000
0001
0000
,
1010
0000
0000
0000
0100
0000
0001
0000
0010
0000
0001
1000
0100
0000
0010
0000
,
0001
0000
0000
0000
0100
0000
0010
0000
1000
0000
0001
0010
0100
0000
1000
0000
,
1100
0000
0000
0110
0000
0000
0011
0000
0000
0000
1010
0000
0011
0000
0000
0000
,
0101
0000
0000
0000
1000
0000
0010
0100
0001
0000
0010
0100
1000
0000
0001
0000
,
0100
0000
0001
0010
0001
0000
0010
0100
1000
0000
0010
1000
0001
0000
0100
0000
,
0010
0000
1000
0100
1000
0000
0001
0100
0001
0000
1000
0010
1000
0000
0001
0010
,
0001
0000
0100
0010
1000
0000
0001
0000
1000
0000
0010
1000
0001
0000
1000
0010
,
0100
0000
0001
0000
0010
0000
0001
1000
0010
0000
0100
0001
1000
0000
0100
0000
,
0010
0000
0001
1000
0001
0000
0100
0010
1000
0000
0001
0010
0001
0000
0100
0000
,
0010
0000
1000
0000
0001
0000
0010
0100
1000
0000
0010
0000
1000
0000
0001
0100
,
0010
0000
1000
0001
0100
0000
0010
1000
0100
0010
0001
0100
0010
0000
1000
0000
,
0002
0023
0032
2003
,
3020
0230
0320
2030
,
3200
0000
0320
0000
0031
0001
1000
1000
,
0010
0010
1000
1000
0100
0100
0001
0001
,
0010
0000
0000
0000
0001
0000
0000
0000
1000
0000
0000
0000
0010
0000
0000
0100
,
0001
0000
0000
1000
0000
0000
0010
0000
0000
1000
0100
0010
,
0001
0000
0100
0000
0010
0000
0100
0000
0001
0000
1000
0000
0100
0000
1000
0010
,
1000
0100
0010
0000
0001
0000
0001
0000
1000
0100
0010
0000
0001
0000
0001
0000
,
0110
0000
0000
0000
1000
0000
0010
1000
0001
0000
0010
0100
1000
0000
0001
0000
,
0100
0000
0010
1000
0010
0000
1000
0001
1000
0000
0100
0010
0001
0000
0100
0000
,
0010
0000
0000
0000
1000
0000
0001
0010
0001
0000
0100
0010
1000
0000
0100
0000
,
0010
0000
0001
0000
1000
0000
0010
0100
0010
0000
0100
0010
0100
0000
0001
0000
,
1001
0000
0000
0000
0110
0000
1000
0100
1000
0000
0010
0100
0001
0000
1000
0100
,
0010
0000
0001
1000
0001
0000
0100
0010
1000
0000
1000
0000
1000
0100
0010
0001
,
0100
0000
0000
0000
0000
0000
1000
0000
0001
0000
1000
0000
0001
1000
0001
1000
0001
1000
0001
0000
1000
0000
0001
0000
,
1000
0000
0000
0000
0001
0000
0000
0000
1000
0000
0000
0000
0001
0000
0000
1000
0000
0000
0001
0000
1000
0000
0001
0000
1000
0000
0000
0000
0000
0000
0001
0000
0000
0000
0000
0000
1000
0000
0000
0000
0000
0000
0001
0000
0000
0000
0000
0000
,
0200
0020
0330
0000
0000
0000
0000
0000
0000
0000
0000
0000
0000
0000
0000
0000
;
