#TITLE:croiX;
#ARTIST:Team Grimoire + amaneko;
#BANNER:croiX-bn.png;
#BACKGROUND:croiX-bg.png;
#JACKET:croiX-jacket.png;
#MUSIC:croiX.ogg;
#SAMPLESTART:15.459;
#SAMPLELENGTH:20;
#DISPLAYBPM:160:195;
#BPMS:0=194.739,24=180,26=170,28=160,31=195,170=190,172=185,174=180,176=175,178=170,180=165,182=160,186=165,188=170,190=175,192=180,194=185,196=190,198=195;
#STOPS:31=2.798;
#BGCHANGES:;

//---------------dance-single - ----------------
#NOTES:
     dance-single:
     :
     Beginner:
     5:
     :
0000
0000
0000
0000
,
0000
0000
0000
0000
,
0000
0000
0000
0000
,
0000
0000
0000
0000
,
0001
0000
0000
0000
,
1000
0000
0000
0000
,
0001
0000
1000
0000
,
0010
0010
0010
0020
,
0230
0000
0000
0000
,
0000
0000
0300
0000
,
1001
0000
0001
0000
,
1001
0000
1000
0000
,
1001
0000
0001
0000
,
0100
0000
0010
0000
,
1000
0000
1000
0000
,
0100
0000
0001
0000
,
0010
0000
0001
0000
,
0100
0100
0100
0000
,
0110
0000
0001
0000
,
0110
0000
1000
0000
,
0110
0000
0010
0000
,
1000
0000
0001
0000
,
0010
0000
0010
0000
,
0001
0000
0100
0000
,
1000
1000
1000
1000
,
1000
0000
0001
0000
,
1001
0000
0000
0110
,
0000
0000
1000
1000
,
1000
0000
0000
0001
,
0000
0000
0100
0100
,
0000
0110
0000
1001
,
0000
0000
1000
1000
,
1000
0000
0000
0001
,
0000
0000
0010
0000
,
1001
0000
0001
0000
,
0100
0000
1000
1000
,
1000
0000
0010
0000
,
1000
0000
0001
0000
,
0110
0000
0000
0000
,
1001
0000
0000
0000
,
1001
0000
0110
0000
,
1001
0000
0000
0000
,
0110
0000
0001
0000
,
0001
0000
0001
0000
,
1000
0000
1000
0000
,
1000
0000
1000
0000
,
0010
0000
0010
0000
,
0100
0000
0100
0000
,
0001
0000
0001
0000
,
1000
0000
1000
0000
,
0010
0000
0000
1000
,
1000
0000
0001
0000
,
0010
0000
0001
0001
,
0001
0000
0100
0000
,
2000
0000
3000
0000
,
0002
0000
0003
0000
,
0100
0000
0100
0000
,
0020
0000
0030
0000
,
1001
0000
0010
0000
,
0110
0000
0001
0000
,
0110
0000
0000
1001
,
0000
1000
0000
0001
,
0001
0000
0000
0100
,
0100
0000
0010
0000
,
1000
0000
0000
0001
,
0001
0000
1000
0000
,
1001
0000
0010
0000
,
1001
0000
0100
0000
,
1001
0000
0001
0000
,
0010
0000
0100
0000
,
1000
0000
0010
0000
,
1000
0000
0100
0000
,
0001
0000
0010
0000
,
0001
0001
0001
0000
,
0110
0000
1000
0000
,
0110
0000
0001
0000
,
0110
0000
0010
0000
,
0001
0000
0100
0000
,
1000
0000
0001
0001
,
0001
0000
0100
0000
,
1000
0000
0001
0000
,
0010
0000
0100
0000
,
0110
0000
0000
0000
,
0001
0000
0000
0000
,
1000
0000
0000
0000
,
0010
0010
0010
0010
,
0020
0000
0000
0000
,
0000
0000
0000
0000
,
0000
0000
0000
0000
,
0000
0000
0000
0000
,
0030
0000
0000
0000
;

//---------------dance-single - ----------------
#NOTES:
     dance-single:
     :
     Easy:
     9:
     :
0000
0000
0000
0000
,
0000
0000
0000
0000
,
0000
0000
0000
0000
,
0000
0000
0000
0000
,
0001
0001
0001
0000
,
1000
1000
1000
0000
,
0001
0001
1000
1000
,
0001
0100
1000
0020
,
0230
0000
0000
0300
,
0100
0100
0100
0100
,
1001
0010
1000
0100
,
1001
0010
0001
0100
,
1001
0010
1000
0100
,
0001
0100
2000
3000
,
0020
0030
1000
0100
,
0002
0003
0020
0030
,
0002
0003
0100
0010
,
1000
0010
0001
0100
,
0110
0001
0010
1000
,
0110
1000
0100
0001
,
0110
0001
0010
0100
,
1000
0010
0002
0003
,
2000
3000
0010
1000
,
0200
0300
0002
0003
,
0011
1100
0011
1100
,
0020
0000
0100
0130
,
0110
0000
0000
0011
0000
0000
0101
0000
,
0000
1010
0000
0000
0001
0000
1000
0000
,
1100
0000
0000
1001
0000
0000
0011
0000
,
0000
0110
0000
0000
1000
0000
0100
0000
,
1001
0000
0001
1000
0000
0000
0110
0000
,
0000
1010
0000
0000
0100
0000
1000
0000
,
0011
0000
0000
1001
0000
0000
0011
0000
,
0000
0110
0000
0000
1000
0000
0100
0000
,
0001
0000
0010
0001
0010
0000
0100
0000
,
1000
0010
1000
0000
0001
0000
0100
0000
,
1000
0000
0001
0100
0001
0000
0010
0000
,
0100
1000
0100
0000
1000
0000
0001
0000
,
1001
0000
0000
0010
0000
0000
0100
0000
,
0110
0001
0100
1000
,
1100
0001
0101
1000
,
1001
0010
1000
0100
,
2000
3010
0200
0301
,
0020
0031
0200
1300
,
0002
1003
0020
1030
,
0200
0310
0002
1003
,
1020
0130
0102
0013
,
1200
1300
1002
0013
,
0201
0310
0120
1030
,
2100
3001
0012
0103
,
2020
0000
0030
3001
,
0202
0300
1000
0103
,
2000
0000
3000
0010
0100
0000
0001
0000
,
0020
0000
0030
0000
0001
1000
0010
0100
,
0002
0000
1003
0100
0000
0000
1000
0010
,
0200
0000
0001
0000
0010
0000
0301
1000
,
0200
0310
0002
0103
,
2000
0010
0001
3100
,
1001
0000
0010
1000
0000
0100
0001
0000
,
0011
0000
0100
1000
0000
0001
0010
0000
,
1001
0000
0000
0110
0000
0000
1001
0000
,
0002
0010
1000
0103
,
0020
1000
0100
0031
,
2000
0000
0010
0000
3001
0000
0100
0010
,
2000
0001
0010
3100
,
0020
0000
0002
0033
,
1001
0010
1000
0001
,
0101
0010
1000
0100
,
1100
0001
0010
1000
,
0010
1000
0200
0300
,
2000
3000
0001
0010
,
2000
3000
0200
0300
,
0010
0010
0001
1000
,
0020
2030
3002
0103
,
0110
0000
0000
0001
0000
1000
0000
0010
,
0100
0000
0000
0001
0000
0010
0000
0100
,
1000
0000
0000
1010
0000
0000
0001
0100
,
0020
0000
0030
1000
0002
0000
0003
0000
,
0010
0001
0000
0100
0000
0010
1000
0000
,
0100
1000
0000
0001
0000
0100
0010
0000
,
1000
0010
0001
0100
,
0020
0000
0100
0130
,
0110
0001
0100
1000
,
0010
1000
0100
0001
,
0010
0001
0100
1000
,
0011
1100
0011
1100
,
2002
0000
0000
0000
,
0000
0000
0000
0000
,
0000
0000
0000
0000
,
0000
0000
0000
0000
,
3003
0000
0000
0000
;

//---------------dance-single - ----------------
#NOTES:
     dance-single:
     :
     Medium:
     13:
     :
0000
0000
0000
0000
,
0000
0000
0000
0000
,
0000
0000
0000
0000
,
0000
0000
0000
0000
,
0001
0001
0001
0001
,
1000
1000
1000
1000
,
0001
0100
0001
0000
1000
0100
1000
0000
,
0001
0100
1000
0100
0010
0100
0020
0000
,
0130
0100
0100
0100
,
0100
0100
0100
0100
,
0001
0010
0000
0001
1000
0010
1000
0001
,
0100
0010
0000
0100
0010
1000
0001
0100
,
0001
0010
0000
0001
1000
0010
1000
0001
,
0200
0000
0300
0001
2000
0000
3000
0100
,
0020
0000
0030
0000
0001
0010
1000
0010
,
0002
0000
0003
0100
0020
0000
0030
1000
,
0002
0000
0003
0010
0001
0100
1000
0100
,
0001
0011
0101
1001
,
0010
1000
0000
0001
0010
0100
0010
0001
,
0100
0010
0000
0100
0010
1000
0001
1000
,
0100
0010
0000
0001
0010
0001
1000
0100
,
2000
0000
3000
0001
0200
0000
0300
0010
,
0200
0000
0300
0000
0001
0010
1000
0010
,
0002
0000
0003
1000
0200
0000
0300
1000
,
0010
0000
0000
0010
0100
0000
0000
0100
0001
0000
0000
0001
1000
0000
0000
1000
,
0001
0100
0010
1000
0001
0010
0100
1000
,
1001
0000
0010
1100
0000
0010
0101
0000
,
1000
0000
0011
0000
0000
0000
0100
0000
1010
0000
0000
0000
0101
0000
1000
0001
,
1000
0000
0010
1001
0000
0100
1010
0000
,
0001
0110
0000
1000
0011
0000
1100
0000
,
1001
0010
0100
1001
0000
0001
1010
0000
,
0100
0011
0000
1000
0101
0000
1100
0000
,
0011
0000
0100
0011
0000
1000
0110
0000
,
0001
1100
0000
0010
1000
0100
1000
0001
,
0100
0001
0010
0001
0010
0100
1000
0000
,
0001
0100
0010
1000
0000
1000
0100
0001
,
0010
0001
0010
0100
1000
0010
1000
0001
,
0010
0100
0010
0100
0010
0100
0010
0100
,
0010
0001
0100
1000
0000
0010
0100
0000
,
1001
1000
0000
0001
0100
0010
1000
0000
,
0110
0001
1000
0000
0110
1000
0001
0000
,
1000
0010
0100
0001
1000
0100
0010
0001
,
0110
0000
0001
0100
2000
0000
3010
1000
,
0002
0000
1003
0100
0020
0000
0130
1000
,
0002
0000
0013
0100
1000
0010
1000
0001
,
0200
0000
0310
1000
0010
0001
0100
0010
,
1000
0100
1000
0001
0020
0000
0031
0100
,
0020
0000
1030
0001
0200
0000
0301
0010
,
1000
0100
1000
0010
0200
0000
0310
0100
,
0002
0000
0013
0100
1000
0010
1000
0001
,
0200
0000
0301
0100
1000
0100
0002
0000
,
0023
0000
0030
0001
1000
0100
1000
0010
,
0200
0000
0000
0000
0310
1000
0010
0100
,
0002
0000
0003
0010
0001
1000
0010
0100
,
0002
0000
1000
1000
0000
0100
0103
0001
,
0020
0000
0100
0000
0001
0000
1030
0001
,
0101
0000
0010
1000
1100
0000
0010
0001
,
0100
0100
0001
1000
0001
1000
0001
0100
,
0020
1000
0000
0100
0000
1030
0100
0001
,
0020
0000
0030
0001
1000
0010
1000
0100
,
0002
0023
2030
3200
,
0302
0000
0000
2003
0000
0000
3020
0000
0000
1030
0001
1000
,
0002
0100
0100
1003
,
0020
0000
0100
0000
0100
0000
1030
0001
,
0010
0001
0010
0100
0010
0001
1000
0000
,
2200
3300
0022
0033
,
1000
0010
0000
0100
0001
0010
0001
0010
,
0100
1000
0000
0010
1000
0001
1000
0001
,
1000
0100
0000
0010
0001
0100
0001
1000
,
0020
0000
0030
1000
0200
0000
0300
1000
,
0002
0000
0003
0010
0010
0001
1000
0001
,
0200
0000
0300
0010
0200
0000
0300
0010
,
1000
0100
0000
0001
0100
0000
1000
0010
,
0100
1001
1010
1100
,
0001
0001
0000
0010
0001
0010
0100
1000
,
0100
0100
0000
0010
0001
0100
0001
1000
,
0010
0010
0000
0100
0010
1000
1000
0001
,
0020
0000
0030
0001
0200
0000
0300
0001
,
2000
0000
3000
0000
0010
1000
0100
0001
,
0200
0000
0300
0010
0002
0000
0003
1000
,
0010
0000
0000
0010
0100
0000
0000
0100
0001
0000
0000
0001
1000
0000
0000
1000
,
0001
0100
0010
1000
0001
0010
0100
1000
,
0220
0000
0330
0000
0001
0100
1000
0100
,
0002
0000
0023
0000
1030
0000
0010
0001
,
0100
0000
0010
1000
0001
0000
0110
0000
,
1000
0010
1000
0010
0100
0001
0100
0001
,
2002
0000
0000
0000
,
0000
0000
0000
0000
,
0000
0000
0000
0000
,
0000
0000
0000
0000
,
3003
0000
0000
0000
;

//---------------dance-single - ----------------
#NOTES:
     dance-single:
     :
     Hard:
     17:
     :
0000
0000
0000
0000
,
0000
0000
0000
0000
,
0000
0000
0000
0000
,
0000
0000
0000
0000
,
0001
0000
0001
0000
0001
0000
0001
0100
,
1000
0100
0001
0100
0010
0000
0010
0000
,
1000
0100
1000
0100
0001
0100
0001
0100
,
1000
0100
0001
0100
0010
0100
0020
0000
,
0031
0000
0000
0000
0001
0100
0001
0000
0100
0001
0100
0000
0001
0100
0001
0000
,
0100
0001
0100
0000
0001
0100
0001
0000
0100
0001
0100
0000
0001
0100
0001
0000
,
1000
0010
0200
0000
0000
0000
0301
0010
0100
0000
1000
0000
0010
0000
0100
0000
,
0001
1000
0200
0000
0000
0000
1300
0001
0100
0000
0010
0000
1000
0000
0100
0000
,
0010
0001
2000
0000
0000
0000
3001
0100
0010
0000
1000
0000
0100
0000
0001
0000
,
2020
0000
0000
0000
3030
0000
0001
0010
0200
0000
0000
0000
0300
0000
1000
0001
,
2000
0000
3000
0000
0010
1000
0100
0001
,
0010
0000
0001
0000
0010
0000
1000
0000
0200
0000
0000
0000
0300
0000
0001
1000
,
0200
0000
0000
0000
0300
0000
1000
0010
1000
0000
0001
0000
0100
0000
1000
0000
,
0010
0000
1000
0100
1000
0000
0001
0100
0001
0000
0010
0001
0010
0000
0000
0000
,
0001
1000
0020
0000
0000
0000
1030
0100
1000
0000
0001
0000
0100
0000
0010
0000
,
0100
0001
2000
0000
0000
0000
3100
1000
0010
0000
0100
0000
0001
0000
0010
0000
,
0100
0010
0002
0000
0000
0000
0013
0001
1000
0000
0100
0000
1000
0000
0001
0000
,
0022
0000
0000
0000
0033
0000
0100
1000
0002
0000
0000
0000
0003
0000
0100
0010
,
0200
0000
0000
0000
0300
0000
0000
0000
0010
0000
0100
0000
0001
0000
1000
0100
,
2000
0000
0010
0000
3010
0000
1000
0001
0200
0000
0000
0000
0300
0000
0010
1000
,
0100
0000
0010
0001
0100
0000
0010
1000
0001
0000
0010
0001
1000
0000
0100
0010
,
0001
1000
0001
1000
0001
1000
0001
1000
0001
0010
0100
1000
0100
0010
0001
0000
,
1001
0000
0000
0000
0100
0000
1010
0000
0000
0000
0100
0000
0011
0000
1000
0001
,
1000
0000
0101
0000
0000
0000
0010
0000
1100
0000
0000
0000
0001
0100
0010
1000
,
0001
0000
0000
0000
0010
0000
1001
0000
0000
0000
1000
0000
0110
0000
0001
1000
,
0001
0000
1010
0000
0000
0000
0100
0000
0011
0000
1000
0010
0100
0001
1000
0000
,
1001
0000
1000
0100
0010
0000
1100
0000
0000
0000
0001
0000
1010
0000
0100
1000
,
0001
0000
1010
0000
0000
0000
0010
0000
0101
0000
0000
0000
0010
1000
0001
0100
,
0010
0000
1000
0000
0100
0000
0011
0000
0000
0000
0001
0000
0110
0000
1000
0100
,
0010
0000
1001
0000
0000
0000
0100
0000
1010
0000
0001
1000
0010
1000
0001
0000
,
0110
0000
1000
0000
0010
0000
0001
0000
1000
0000
0100
0000
0001
0000
0010
0100
,
1000
0010
1000
0100
0001
0010
1000
0100
,
0001
0010
0001
0100
1000
0010
1000
0001
,
0100
0000
0010
1000
0010
0000
1000
0010
1000
0000
0010
1000
0010
0000
0100
0000
,
1001
0010
1000
0100
0001
0010
1000
0001
,
1100
0000
0010
0000
0100
0000
0010
0000
1000
0000
0100
0010
0001
0000
1000
0000
,
0101
0010
1000
0001
1100
0010
1000
0001
,
1000
0100
1000
0000
0001
0100
0001
0000
1000
0010
1000
0000
0001
0010
0001
0000
,
0100
0000
0100
0000
0010
0000
1000
0000
0002
0000
0000
0000
0003
0000
0010
0100
,
2000
0000
0000
0000
3000
0000
0001
0100
0010
0000
1000
0001
1000
0000
0100
0000
,
1000
0000
1000
0000
0001
0000
0010
0000
2000
0000
0100
0000
3100
0000
0010
0001
,
1000
0000
0010
0000
0100
0000
0001
0010
0001
0000
0010
0100
1000
0000
0001
0100
,
0001
0000
0010
0100
1000
0000
0010
0100
0010
0000
1000
0001
1000
0000
0100
0000
,
0010
0000
0001
0100
0001
0000
1000
0000
0010
0000
0100
0010
1000
0000
0001
0000
,
0010
0010
0001
0100
1000
1000
0110
0001
,
1000
0100
1000
0100
0010
0000
0001
0000
0010
1000
0001
1000
0100
0010
0001
0100
,
0020
0000
1000
0000
1030
0000
0010
0100
0001
0100
0010
0000
2000
0000
0000
0000
,
3200
0000
0000
0000
0300
0000
1000
0001
1000
0000
0010
0000
0100
0001
1000
0000
,
0010
0000
1000
0000
0100
0000
0010
0001
1000
0001
0010
0000
0100
0000
1000
0010
,
2000
0000
0001
0000
3001
0000
0010
0100
1000
0000
0001
1000
0010
0000
1000
0100
,
0010
0000
0001
0000
0100
0000
1010
0000
0000
0000
0100
0000
1001
0000
0010
1000
,
0001
0000
0010
0000
1000
0000
0010
0000
0000
0000
0001
0000
0100
0000
1000
0010
,
1000
0100
0010
0001
0100
0010
1000
0001
,
0010
0001
0010
0001
0010
0001
0010
0001
1000
0100
1000
0100
1000
0100
1000
0100
,
1000
0000
0000
0010
0100
0000
0000
0001
0010
0000
0000
0100
1000
0000
0001
1000
,
0020
0000
0000
0000
0130
0000
0010
0000
1000
0000
0100
0001
0010
0000
0100
1000
,
0001
0100
0001
1000
0100
1000
0001
0100
0001
1000
0100
1000
,
0001
0010
0100
0000
1000
0000
0010
0100
0001
0000
1000
0001
0010
0000
0100
0000
,
1000
0000
0010
0100
0010
0000
0100
0010
0100
0000
0010
0100
0020
0000
0000
0000
,
1030
0000
0100
0010
0100
0000
0010
0100
0010
0000
0100
0010
0100
0000
1000
0000
,
0001
0001
0010
0010
1000
1000
0100
0100
,
0010
0000
0001
0100
0001
0100
0010
1000
0001
0000
1000
0100
0010
0001
0010
0100
,
1000
0001
2000
0000
0000
0000
3010
0100
0001
0000
0001
0000
1000
0000
0100
0000
,
0010
0001
0020
0000
0000
0000
0130
1000
0010
0000
0010
0000
1000
0000
0001
0000
,
0100
0010
0200
0000
0000
0000
0301
0010
0100
0000
0100
0000
1000
0000
0001
0000
,
0022
0000
0000
0000
0033
0000
1000
0001
2000
0000
0000
0000
3000
0000
0100
0010
,
0002
0000
0003
1000
1000
0010
1000
0001
,
0200
0000
0000
0000
0300
0000
0010
1000
0002
0000
0000
0000
0003
0000
0010
0100
,
1000
0010
0001
1000
0100
0001
1000
0010
,
0001
0000
0010
0001
0100
0000
0010
1000
0100
0000
0010
0001
0100
0000
0000
0000
,
0010
1000
0002
0000
0000
0000
0013
0100
1000
0000
0010
1000
0001
0000
0100
0000
,
0001
0010
0200
0000
0000
0000
0310
0001
1000
0000
0100
1000
0001
0000
0010
0000
,
0100
0010
0002
0000
0000
0000
1003
0010
1000
0000
0001
0100
0001
0000
0010
0000
,
0200
0000
1000
0000
1300
0000
0001
0100
0002
0000
0000
0000
0013
0000
0001
1000
,
0001
0010
1000
0100
1000
0001
0010
1000
,
0100
0000
0010
0000
0001
0000
0100
0001
1000
0000
0010
0000
0100
0000
0010
1000
,
0001
0000
0010
0001
0010
0000
0100
1000
0001
0000
1000
0010
1000
0000
0100
0010
,
0001
1000
0001
1000
0001
1000
0001
1000
0001
0010
0100
1000
0100
0010
0001
0000
,
2002
0000
3003
0010
1000
0100
1000
0010
,
0200
0000
0301
0010
0001
1000
0100
0001
,
0020
0000
0031
1000
0010
1000
0100
0010
,
0001
0100
0010
1000
0001
0010
0100
1000
0001
0100
0010
1000
0001
0010
0100
2000
,
0020
0000
0000
0000
,
0000
0000
0000
0000
,
0000
0000
0000
0000
,
0000
0000
0000
0000
,
3030
0000
0000
0000
;
