#TITLE:coming true;
#ARTIST:GUHROOVY Vs. L.E.D.;
#BANNER:coming true-bn.png;
#BACKGROUND:coming true-bg.png;
#JACKET:coming true-jacket.png;
#MUSIC:coming true.ogg;
#SAMPLESTART:87.8;
#SAMPLELENGTH:20;
#DISPLAYBPM:175;
#BPMS:0=175;
#BGCHANGES:;

//---------------dance-single - ----------------
#NOTES:
     dance-single:
     :
     Beginner:
     2:
     :
0000
0000
0000
0000
,
0000
0000
0000
0000
,
0000
0000
0000
0000
,
0000
0000
0000
0000
,
0000
0000
0000
0000
,
0000
0000
0000
0000
,
0000
0000
0000
0000
,
0000
0000
0000
0000
,
1000
0000
0000
0000
,
0000
0000
0000
0000
,
0100
0000
0000
0000
,
0000
0000
0000
0000
,
0010
0000
0000
0000
,
0000
0000
0000
0000
,
0001
0000
0000
0000
,
0000
0000
0000
0000
,
0000
0000
0100
0100
,
0000
0000
0010
0010
,
0000
0000
1000
1000
,
0000
0000
0001
0001
,
0000
0010
0000
0000
,
0000
0001
0000
0000
,
0000
1000
0000
0000
,
0000
0100
0000
0000
,
0000
0000
1000
1000
,
0000
0000
0001
0001
,
0000
0000
0100
0100
,
0000
0000
0010
0010
,
0000
1000
0000
0000
,
0000
0100
0000
0000
,
0000
0001
0000
0000
,
0000
0010
0000
0000
,
0000
0001
0000
0000
,
1000
0000
0001
0000
,
0000
0100
0000
0000
,
0010
0000
1000
0000
,
0000
0100
0000
0000
,
0010
0000
0001
0000
,
0000
1000
0000
0000
,
0010
0000
1000
0000
,
0001
0001
0000
0000
,
0010
0000
0001
0000
,
0100
0100
0000
0000
,
0001
0000
1000
0000
,
0010
0010
0000
0000
,
1000
0000
0001
0000
,
0100
0100
0000
0000
,
0001
0000
1000
0000
,
1001
0000
0000
0000
,
0000
0000
0000
0000
,
0000
0000
0000
0000
,
0000
0000
0000
0000
,
0010
0000
0000
0000
,
1000
0000
0000
0000
,
0100
0000
0000
0000
,
0000
0000
0000
0000
,
0010
0000
0000
0000
,
0001
0000
0000
0000
,
0100
0000
0000
0000
,
0010
0000
0000
0000
,
1000
0000
0000
0000
,
0100
0000
0000
0000
,
1000
0000
0000
0000
,
0001
0000
1000
0000
,
1001
0000
0000
0000
,
0010
0000
0100
0000
,
0001
0000
0000
0000
,
0000
0000
1000
0000
,
1000
0000
0000
0000
,
0001
0000
0000
0000
,
0010
0000
0000
0000
,
0000
0000
0000
0000
,
1001
0000
0000
0000
,
0100
0000
0010
0000
,
0100
0000
0000
0000
,
0000
0000
0001
0000
,
0001
0000
0000
0000
,
0010
0000
0000
0000
,
1000
0000
0000
0000
,
0000
0000
0000
0000
,
1001
0000
0000
0000
,
0100
0000
0000
0000
,
0020
0000
0000
0000
,
0030
0000
1000
0000
,
1000
0000
0000
0000
,
0001
0000
0000
0000
,
0200
0000
0000
0000
,
0000
0000
0000
0000
,
0300
0000
0000
0000
;

//---------------dance-single - ----------------
#NOTES:
     dance-single:
     :
     Easy:
     6:
     :
0000
0000
0000
0000
,
0000
0000
0000
0000
,
0000
0000
0000
0000
,
0000
0000
0000
0000
,
0000
0000
0000
0000
,
0000
0000
0000
0000
,
0000
0000
0000
0000
,
0000
0000
0000
0000
,
1000
0010
0000
0100
,
0000
0001
0000
0010
,
0000
0100
0000
1000
,
0000
0001
0000
0100
,
0000
0010
0000
0100
,
0000
0001
0000
0010
,
0000
0001
0000
1000
,
0000
0010
0100
0001
,
1000
0100
1000
0001
,
0000
0100
0010
0100
,
0000
0001
0010
1000
,
0000
0100
1000
0001
,
0000
0010
0001
0100
,
0000
1000
0010
0001
,
0000
1000
0001
1000
,
0000
0100
0010
0001
,
0000
0100
0010
0100
,
0000
0001
0010
1000
,
0000
0100
1000
0100
,
0000
1000
0010
0100
,
0000
0001
0010
1000
,
0000
0100
1000
0010
,
0000
0100
0001
0010
,
0000
0001
1000
0010
,
0100
0001
0000
0000
,
0010
0100
1000
1000
,
0010
1000
0000
0000
,
0001
1000
0010
1000
,
0100
0010
0000
0000
,
0001
0100
0001
0010
,
1000
1000
0000
0000
,
0001
0100
0010
0100
,
0001
1000
0000
0001
,
0010
1000
0100
0010
,
0100
0010
0000
0001
,
0100
0010
0100
0001
,
1000
0100
0000
1000
,
0001
0001
0010
0001
,
0100
0010
0000
1000
,
0100
1000
0010
0010
,
0200
0000
0000
0000
,
0302
0000
0000
0000
,
2003
0000
0000
0000
,
3020
0000
0000
0000
,
2030
0000
0000
0000
,
3200
0000
0000
0000
,
0320
0000
0000
0000
,
0032
0000
0000
0000
,
2003
0000
0000
0000
,
3000
0001
0000
0001
,
0000
0100
0000
0100
,
0000
0010
0000
0010
,
0000
1000
0000
0001
,
0000
0100
0000
0010
,
0000
1000
0100
0001
,
1001
0110
1001
0110
,
1001
0010
0000
1000
,
0002
0000
0000
0023
0000
0000
0230
0000
,
2300
0000
0000
0000
,
0000
0000
3010
0100
,
0020
0000
0000
0000
,
2030
0000
0000
0000
,
3002
0000
0000
0000
,
0013
0001
0100
1000
,
0020
0000
0000
0000
,
2030
0000
0000
3200
0000
0000
2300
0000
,
3002
0000
0000
0000
,
0000
0000
1003
0010
,
0200
0000
0000
0000
,
0302
0000
0000
0000
,
0023
0000
0000
0000
,
0031
0100
1000
0010
,
0110
0000
0000
0000
,
0010
0000
0000
0010
0000
0000
1000
0000
,
0002
0000
0000
0000
,
0000
0000
0103
0010
,
2000
0000
0000
0000
,
3002
0000
0000
0000
,
0203
0000
0000
0000
,
0000
0000
0000
0000
,
0300
0000
0000
0000
;

//---------------dance-single - ----------------
#NOTES:
     dance-single:
     :
     Medium:
     11:
     :
0000
0000
0000
0000
,
0000
0000
0000
0000
,
0000
0000
0000
0000
,
0000
0000
0000
0000
,
0000
0000
0000
0000
,
0000
0000
0000
0000
,
0000
0000
0000
0000
,
0000
0000
0000
0000
0000
0000
0000
0001
,
1000
0000
0010
0100
0000
0001
0000
1000
,
0000
0000
0100
0010
0000
0001
0000
1000
,
0000
0000
0001
1000
0000
0100
0000
0010
,
0000
0000
0100
1000
0000
0001
0000
0010
,
0000
0001
1000
0010
0000
1000
0000
0001
,
0100
0010
1000
0000
0000
0001
0000
1000
,
0100
0000
0010
0001
0000
1000
0000
0001
,
0100
0000
0010
0000
1000
0001
1000
0100
,
0010
0000
0001
0000
0000
0100
0000
0000
0001
0000
0000
0100
0000
0000
0001
0000
,
0000
0000
1000
0000
0000
0100
0000
0000
1000
0000
0000
0100
0000
0000
1000
0000
,
0000
0000
0010
0000
0000
0010
0000
0000
1000
0000
0000
0001
0000
0000
0100
0000
,
0000
0000
0001
0000
0000
0001
0000
0000
1000
0000
0000
0001
0000
0000
0100
0000
,
0000
0000
0001
0000
0000
0010
0000
0000
1000
0000
0000
1000
0000
0000
0001
0000
,
0000
0000
0100
0000
0000
0100
0000
0000
0010
0000
0000
0100
0000
0000
0010
0000
,
0000
0000
1000
0000
0000
0001
0000
0000
0010
0000
0000
0100
0000
0000
1000
0000
,
0000
0000
0010
0000
0000
1000
0000
0000
0010
0000
0000
1000
0000
0000
0001
0000
,
0100
0000
0000
0000
0010
0000
1000
0000
0001
0000
0000
0100
0000
0000
0010
0000
,
0000
0000
1000
0000
0000
0100
0000
0000
0001
0000
0000
0010
0000
0000
0001
0000
,
0000
0000
1000
0000
0000
1000
0000
0000
0010
0000
0000
1000
0000
0000
0001
0000
,
0000
0000
0100
0000
0000
0010
0000
0000
0100
0000
0000
0001
0000
0000
1000
0000
,
0000
0000
0100
0000
0000
0010
0000
0000
0100
0000
0000
1000
0000
0000
0001
0000
,
0000
0000
0010
0000
0000
0010
0000
0000
0001
0000
0000
0100
0000
0000
0100
0000
,
0000
0000
0010
0000
0000
1000
0000
0000
0100
0000
0000
0010
0000
0000
0001
0000
,
0000
0000
1000
0000
0000
1000
0000
0000
1000
0000
0000
1000
0000
0000
1000
0000
,
0001
0000
0100
0010
0000
1010
0000
0101
,
0000
0011
0000
1100
0000
0101
0000
1100
,
0000
0000
1000
0001
0000
0011
0000
1001
,
0000
0110
0000
1010
0000
1100
0000
0110
,
0000
0000
0001
0100
0000
1001
0000
0101
,
0000
1001
0000
1100
0000
0110
0000
0011
,
0000
0000
1000
0100
0000
1010
0000
1001
,
0000
0110
0000
0101
0000
0011
0000
1100
,
0000
0000
0001
0100
0000
1001
0000
1100
,
0000
0010
0001
0100
0000
0101
0000
1001
,
0000
0000
1000
0100
0000
0011
0000
0101
,
0000
0001
0010
1000
0000
1100
0000
0110
,
0000
0000
0001
0010
0000
1001
0000
0110
,
0000
1000
0001
0010
0000
1100
0000
0101
,
0000
0000
0100
0010
0000
1100
0000
1001
,
0000
0100
0010
0001
0000
0100
0000
0010
,
2000
0000
0000
0010
,
3002
0000
0000
0100
,
0023
0000
0000
1000
,
0230
0000
0000
0001
,
2300
0000
0000
0100
,
3020
0000
0000
0001
,
0230
0000
0000
0010
,
0302
0000
0000
1000
,
0103
0000
0000
0010
0000
0000
1000
0000
,
0001
0000
0000
0010
0000
0000
1000
0000
,
0001
0000
0000
0100
0000
0000
0010
0000
,
1000
0000
0000
0100
0000
0000
0001
0000
,
0000
0000
0010
0000
0000
0001
0000
0000
0010
0000
0000
0001
0000
0000
0010
0000
,
0000
0000
0100
0000
0000
1000
0000
0000
0100
0000
0000
1000
0000
0000
0100
0000
,
0000
0000
1000
0000
0000
0001
0000
0000
1000
0000
0000
0001
0000
0000
1000
0000
,
0010
0000
0000
0010
0000
0000
0010
0000
0000
0010
0000
0000
0010
0000
0000
0000
,
1001
0000
0100
0010
0000
1000
0001
0000
,
0020
0000
0000
0032
0000
0000
2003
0000
,
3010
0000
0100
0000
0000
0001
0000
0000
1000
0000
0000
1000
0000
0000
0001
0000
,
0000
0000
0010
0000
0000
0001
0000
0000
2000
0000
0000
0000
3002
0000
0000
0000
,
0103
0000
0010
0000
0000
1000
0000
0000
0100
0000
0000
0010
0000
0000
0001
0000
,
1000
0000
0001
0000
0000
1000
0000
0000
0010
0000
0000
0100
0000
0000
0001
0000
,
0000
0000
0010
0000
0000
0001
0000
0000
1000
0000
0000
0001
0000
0000
0100
0000
,
0000
0000
0010
0000
0000
1000
0000
0000
0100
0000
0000
0010
0000
0000
0001
0000
,
1000
0000
0010
0100
0000
0001
0010
1000
,
0200
0000
0000
0320
0000
0000
0032
0000
,
1003
0000
0010
0000
0000
0100
0000
0000
0001
0000
0000
0010
0000
0000
1000
0000
,
0000
0000
0100
0000
0000
0010
0000
0000
0002
0000
0000
0000
2003
0000
0000
0000
,
3001
0000
0100
0000
0000
0010
0000
0000
0100
0000
0000
0001
0000
0000
1000
0000
,
0001
0000
0010
0000
0000
1000
0000
0000
0100
0000
0000
0010
0000
0000
0001
0000
,
0000
0000
0100
0000
0000
0010
0000
0000
0100
0000
0000
0001
0000
0000
1000
0000
,
0000
0000
1100
0000
0000
1100
0000
0000
1100
0000
0000
0001
0000
0000
1000
0000
,
0020
0000
0000
0000
,
2030
0000
0000
3002
0000
0000
2003
0000
,
3200
0000
0000
0000
,
0000
0000
0310
0001
,
2000
0000
0000
0000
,
3002
0000
0000
0000
,
0203
0000
0000
0000
,
0000
0000
0000
0000
,
0300
0000
0000
0000
;

//---------------dance-single - ----------------
#NOTES:
     dance-single:
     :
     Hard:
     14:
     :
0000
0000
0000
0000
,
0000
0000
0000
0000
,
0000
0000
0000
0000
,
0000
0000
0000
0000
,
0000
0000
0000
0000
,
0000
0000
0000
0000
,
0000
0000
0000
0000
,
0000
0000
0000
0000
0000
0000
0000
0001
,
1000
0000
0010
0100
0000
0010
1000
0001
,
0010
0001
0100
0000
0000
1000
0010
0100
,
0010
1000
0001
0100
0000
0010
0000
1000
,
0000
0100
0010
0000
0001
1000
0000
0001
,
0100
0010
1000
0001
1000
0100
0000
0010
,
0001
0000
0100
0000
1000
0000
0000
0000
0010
0000
0100
0000
0000
0001
0100
0000
,
0010
0000
1000
0000
0001
0000
0000
0000
0010
0000
0100
0000
0000
1000
0000
0001
,
1000
0000
0010
0000
0001
0000
1000
0000
0100
0000
0010
0000
0001
1000
0001
1000
,
0001
0000
0101
0010
0000
1100
0000
0000
,
0001
0000
1000
0000
0001
0010
0000
0001
0100
0000
0010
1000
0000
0010
1000
0000
,
0000
0000
0100
0000
0000
0010
0000
0000
0001
0000
0000
1000
0000
0000
0001
0000
,
0000
0000
0100
0000
0001
1000
0000
0010
1000
0000
0100
0010
0000
0001
0010
0000
,
0000
0000
0100
0000
1000
0010
0000
1000
0001
0000
0100
0010
0000
0010
1000
0000
,
0000
0000
0100
0000
0010
0001
0000
1000
0001
0000
0100
0010
0000
0010
1000
0000
,
0000
0000
0001
0000
0010
0100
0000
1000
0010
0000
0000
0100
0000
0000
0001
0000
,
1000
0000
0001
0000
1000
0010
0000
0100
0001
0000
0010
0100
0000
1000
0001
0000
,
0100
0000
0010
0000
1000
0000
0001
0000
0010
0000
0000
0001
0000
0000
0100
0010
,
0000
0000
1000
0000
0100
0010
0000
0010
0001
0000
0100
0010
0000
0010
1000
0000
,
0000
0000
0001
0000
0000
0010
0000
0000
1000
0000
0000
0001
0000
0000
0100
0000
,
0000
0000
0010
0000
1000
0001
0000
1000
0001
0000
0000
0100
0000
0000
0100
0000
,
0001
0000
0010
0000
0100
1000
0000
0100
1000
0000
0100
0010
0000
0010
0001
0000
,
0100
0000
0010
0000
1000
0001
0000
0001
0010
0000
0000
0100
0000
0000
1000
0000
,
0000
0000
0001
0000
0100
0010
0000
0100
0010
0000
1000
0001
0000
1000
0100
1000
,
0000
0000
0001
0010
0000
0001
0000
1000
0001
0000
0100
0010
0000
0010
1000
0000
,
0100
1000
0001
0001
0000
0011
0000
1100
,
0000
0101
0000
1010
0000
1100
0000
0101
,
1000
0010
0001
0100
0000
0110
0000
1010
,
0000
1100
0000
1001
0000
0101
0000
0110
,
1000
0010
0001
1000
0100
0110
0000
0011
,
0000
1001
0000
0011
0000
1100
0000
1010
,
0100
0010
0100
0100
0000
1001
0000
1010
,
0000
0101
0000
0011
0000
1100
0000
0110
,
0001
0010
1000
0001
1000
0010
0100
0001
,
0000
0010
0001
0100
0000
1010
0000
0110
,
0001
1000
0010
0100
0001
0010
1000
0100
,
0000
1000
0100
0001
0000
0011
0000
1010
,
0100
0010
1000
1000
0000
0001
0100
1000
,
0000
0110
0000
1010
0000
0101
0000
0011
,
0100
0000
1000
0000
0010
0000
1000
0000
0000
0000
0001
0000
0100
0010
0100
0010
,
0100
0000
0001
0000
1000
0000
0001
0000
0000
0000
0010
0000
0001
0000
1000
0100
,
2000
0000
0000
0010
,
3002
0000
0000
0100
0000
0000
1000
0000
,
0203
0000
0000
0010
0000
0000
1000
0000
,
0302
0000
0000
0010
0000
0000
0100
0000
,
2003
0000
0000
0010
0000
0000
0100
0000
,
3020
0000
0000
0001
0000
0000
0100
0000
,
2030
0000
0000
0100
0000
0000
0010
0000
,
3002
0000
0000
1000
0000
0000
0010
0000
,
1003
0001
0100
0010
0000
1000
0001
0000
,
0010
0000
0001
0000
0000
0100
0000
0000
0010
0000
0000
1000
0000
0000
1000
0000
,
0000
0000
0100
0000
0000
1000
0000
0000
0010
0000
0000
0001
0000
0000
1000
0000
,
0000
0000
0001
0000
0000
0010
0000
0000
0100
0000
0000
1000
0000
0000
0010
0000
,
0000
0000
0100
0000
0000
0100
0000
0000
0010
0000
0000
1000
0000
0000
0001
0000
,
0000
0000
0010
0000
0000
0001
0000
0000
1000
0000
0000
0001
0000
0000
0100
0000
,
0000
0000
0001
0000
0000
0001
0000
0000
1000
0000
0000
1000
0000
0000
0010
0000
,
1001
0000
0000
1010
0000
0000
1100
0000
0000
0101
0000
0000
1100
0000
0000
0000
,
0001
0000
0100
1010
0000
0101
0000
1000
,
0001
0100
0010
1000
0000
0100
0010
0001
,
0100
0000
0010
0000
1000
0010
0000
1000
0001
0000
0100
0010
0000
0100
0001
0000
,
0000
0000
0010
0000
0001
1000
0000
0001
1000
0000
0000
0010
0000
0000
0100
0000
,
0001
0000
0010
0000
1000
0001
0000
1000
0001
0000
0100
0010
0000
1000
0001
0000
,
0000
0000
0100
0000
0001
0010
0000
0010
0100
0000
1000
0001
0000
1000
0100
0000
,
0010
0000
0001
0000
0010
0100
0000
1000
0001
0000
0000
1000
0000
0000
0100
0000
,
0010
0000
0001
0000
1000
0001
0000
1000
0100
0000
0010
0100
0000
1000
0001
0000
,
0100
0000
0010
0000
1000
0000
0001
0000
0000
0000
0010
0000
0001
0100
0000
0001
,
1000
0000
0010
0000
0001
0000
0100
0000
0000
0000
0010
0000
1000
0001
0000
1000
,
0100
0000
0010
0000
0001
0100
0000
0001
0100
0000
0010
1000
0000
0001
1000
0000
,
0000
0000
0100
0000
0010
0001
0000
0001
1000
0000
0000
0001
0000
0000
0100
0000
,
0010
0000
1000
0000
0001
1000
0000
1000
0100
0000
0010
0001
0000
0100
0001
0000
,
0100
0000
0010
0000
1000
0001
0000
0001
0010
0000
0001
1000
0000
1000
0100
0000
,
0010
0000
0001
0000
0100
0010
0000
1000
0001
0000
0000
1000
0000
0100
0010
0000
,
0001
0000
0100
0010
0000
1000
0000
0001
1000
0000
0100
0010
0000
0010
0001
0000
,
0220
0000
0000
0300
,
0001
0000
0000
1000
0000
0000
0001
0000
,
0200
0000
0000
0000
,
0030
0000
1300
0001
,
2000
0000
0000
0000
,
3002
0000
0000
0000
,
0203
0000
0000
0000
,
0000
0000
0000
0000
,
0300
0000
0000
0000
;
